VERSION	0.00.00	1.04.00
FES_MODE	0
BPM_DEF	186.000	186.000	186.000	186.000
MET_DEF	4	4
RESOLUTION	384
CLK_DEF	384
COMPATIBLE_CODE	MA2

BPM	0	0	186.000
MET	0	0	4	4

NMTAP	2	96	1
NMTAP	2	288	1
NMTAP	3	96	2
NMTAP	3	288	2
NMTAP	4	96	3
NMTAP	4	288	3
EXTAP	5	96	4
EXTAP	5	96	5
EXTAP	5	192	4
EXTAP	5	192	5
EXTAP	5	288	4
EXTAP	5	288	5
NMTAP	6	96	6
NMTAP	6	288	6
NMTAP	7	96	5
NMTAP	7	288	5
NMTAP	8	96	4
NMTAP	8	288	4
EXTAP	9	96	2
EXTAP	9	96	3
EXTAP	9	192	2
EXTAP	9	192	3
EXTAP	9	288	2
EXTAP	9	288	3
NMTAP	10	96	1
NMTAP	10	288	1
NMTAP	11	96	1
NMTAP	11	288	0
NMTAP	11	288	7
NMHLD	12	0	0	576
NMHLD	12	0	7	576
NMSTR	14	0	1
NMSI_	14	0	1	96	288	4
NMTAP	15	192	5
NMTAP	15	288	5
NMSTR	16	0	6
NMSI_	16	0	6	96	288	3
NMTAP	17	192	2
NMTAP	17	288	2
NMSTR	18	0	1
NMSI_	18	0	1	96	288	5
NMTAP	19	192	6
NMTAP	19	288	6
NMHLD	20	0	0	336
NMHLD	20	0	7	336
BRTAP	21	192	0
BRTAP	21	192	7
NMTAP	22	0	6
NMTAP	22	96	6
NMTAP	22	192	6
NMTAP	23	0	5
NMTAP	23	96	5
NMTAP	23	192	5
NMTAP	24	0	4
NMTAP	24	96	4
NMTAP	24	192	4
NMHLD	25	0	2	192
NMHLD	25	0	3	192
NMTAP	26	0	1
NMTAP	26	96	1
NMTAP	26	192	1
NMTAP	27	0	2
NMTAP	27	96	2
NMTAP	27	192	2
NMTAP	28	0	3
NMTAP	28	96	3
NMTAP	28	192	3
NMHLD	29	0	4	192
NMHLD	29	0	5	192
NMTAP	30	0	5
NMTAP	30	96	5
NMTAP	30	192	5
NMTAP	30	288	5
NMTAP	31	0	6
NMTAP	31	96	6
NMTAP	31	192	6
NMTAP	31	288	6
NMTAP	32	0	7
NMTAP	32	96	7
NMTAP	32	192	0
NMTAP	32	192	7
NMTAP	33	0	0
NMTAP	33	0	1
NMTAP	33	96	0
NMTAP	33	96	1
NMTAP	33	192	0
NMTAP	33	192	1
NMTAP	34	0	2
NMTAP	34	96	2
NMTAP	34	192	2
NMTAP	34	288	2
NMTAP	35	0	1
NMTAP	35	96	1
NMTAP	35	192	1
NMTAP	35	288	1
NMTAP	36	0	0
NMTAP	36	96	0
NMTAP	36	192	0
NMTAP	36	192	7
NMTAP	37	0	6
NMTAP	37	0	7
NMTAP	37	96	6
NMTAP	37	96	7
NMTAP	37	192	6
NMTAP	37	192	7
NMHLD	38	0	5	192
NMHLD	38	192	4	192
NMHLD	39	0	3	192
NMTAP	39	192	2
NMHLD	40	0	2	192
NMHLD	40	192	3	192
NMHLD	41	0	4	192
NMTAP	41	192	5
NMHLD	42	0	6	192
NMHLD	42	192	5	192
NMHLD	43	0	4	192
NMTAP	43	192	3
NMTAP	44	0	2
NMTAP	44	96	2
NMTAP	44	192	2
NMTAP	44	288	2
NMTAP	45	0	1
NMTAP	45	96	1
NMTAP	45	192	1
NMTAP	45	288	1
EXTAP	46	0	0
EXTAP	46	0	7
EXTAP	46	288	1
EXTAP	46	288	6
EXTAP	47	0	1
EXTAP	47	0	6
EXTAP	47	288	2
EXTAP	47	288	5
EXTAP	48	0	2
EXTAP	48	0	5
EXHLD	48	192	3	192
EXHLD	48	192	4	192
NMTAP	50	0	5
NMTAP	50	96	5
NMTAP	50	192	6
NMTAP	50	288	6
NMTAP	51	0	7
NMTAP	51	96	7
NMTAP	51	192	0
NMTAP	51	192	1
NMTAP	52	0	2
NMTAP	52	96	2
NMTAP	52	192	1
NMTAP	52	288	1
NMTAP	53	0	0
NMTAP	53	96	0
NMTAP	53	192	6
NMTAP	53	192	7
NMTAP	54	0	6
NMTAP	54	96	6
NMTAP	54	192	4
NMTAP	54	192	5
NMTAP	54	288	4
NMTAP	54	288	5
NMTAP	55	0	3
NMTAP	55	96	3
NMTAP	55	192	2
NMTAP	55	192	3
NMTAP	56	0	4
NMTAP	56	96	5
NMTAP	56	192	6
NMTAP	56	288	7
NMTAP	57	0	0
NMTAP	57	96	1
EXTAP	57	192	2
EXTAP	57	192	3
NMTAP	58	0	2
NMTAP	58	96	2
NMTAP	58	192	1
NMTAP	58	288	1
NMTAP	59	0	0
NMTAP	59	96	0
NMTAP	59	192	6
NMTAP	59	192	7
NMTAP	60	0	5
NMTAP	60	96	5
NMTAP	60	192	6
NMTAP	60	288	6
NMTAP	61	0	7
NMTAP	61	96	7
NMTAP	61	192	0
NMTAP	61	192	1
NMTAP	62	0	1
NMTAP	62	96	1
NMTAP	62	192	2
NMTAP	62	192	3
NMTAP	62	288	2
NMTAP	62	288	3
NMTAP	63	0	4
NMTAP	63	96	4
NMTAP	63	192	4
NMTAP	63	192	5
NMTAP	64	0	3
NMTAP	64	96	2
NMTAP	64	192	1
NMTAP	64	288	0
NMTAP	65	0	6
NMTAP	65	0	7
EXTAP	65	96	4
EXTAP	65	96	5
EXTAP	65	192	4
EXTAP	65	192	5
EXTAP	65	288	4
EXTAP	65	288	5
NMSTR	66	0	3
NMSCL	66	0	3	96	288	0
NMSTR	68	0	7
NMSCL	68	0	7	96	288	4
NMSTR	70	0	3
NMSCL	70	0	3	96	288	0
NMSTR	72	0	7
NMSCL	72	0	7	96	288	4
NMTTP	74	0	1	B	0	L1
NMTTP	74	96	2	B	0	L1
NMTTP	74	192	3	B	0	L1
NMTTP	75	0	6	B	0	L1
NMTTP	75	96	5	B	0	L1
NMTTP	75	192	4	B	0	L1
NMTTP	76	0	1	B	0	L1
NMTTP	76	96	2	B	0	L1
NMTTP	76	192	3	B	0	L1
NMTTP	76	288	4	B	0	L1
NMTTP	77	0	5	B	0	L1
NMTTP	77	96	6	B	0	L1
NMTTP	77	192	0	B	0	L1
NMTTP	77	192	7	B	0	L1
NMTTP	78	0	2	B	0	L1
NMTTP	78	96	1	B	0	L1
NMTTP	78	192	0	B	0	L1
NMTTP	79	0	5	B	0	L1
NMTTP	79	96	6	B	0	L1
NMTTP	79	192	7	B	0	L1
NMTTP	80	0	2	B	0	L1
NMTTP	80	96	1	B	0	L1
NMTTP	80	192	0	B	0	L1
NMTTP	80	288	7	B	0	L1
NMTTP	81	0	6	B	0	L1
NMTTP	81	96	5	B	0	L1
NMTTP	81	192	3	B	0	L1
NMTTP	81	192	4	B	0	L1
NMTAP	82	0	2
NMTAP	82	96	2
NMTAP	82	192	2
NMTAP	82	192	3
NMTAP	83	0	1
NMTAP	83	96	1
NMTAP	83	192	0
NMTAP	83	192	1
NMTAP	84	0	6
NMTAP	84	96	6
NMTAP	84	192	6
NMTAP	84	192	7
NMTAP	85	0	5
NMTAP	85	96	5
NMTAP	85	192	4
NMTAP	85	192	5
EXTAP	86	0	3
EXTAP	86	48	3
EXTAP	86	96	3
EXTAP	86	192	2
EXTAP	86	192	3
EXTAP	87	0	4
EXTAP	87	48	4
EXTAP	87	96	4
EXTAP	87	192	4
EXTAP	87	192	5
NMTAP	88	0	6
NMTAP	88	0	7
NMTAP	88	96	6
NMTAP	88	96	7
NMTAP	88	192	6
NMTAP	88	192	7
NMTAP	89	0	0
NMTAP	89	0	1
NMTAP	89	96	0
NMTAP	89	96	1
BRTAP	89	192	0
BRTAP	89	192	1
NMTAP	90	0	2
NMTAP	90	96	2
NMTAP	90	192	1
NMTAP	90	288	1
NMTAP	91	0	0
NMTAP	91	48	0
NMTAP	91	96	0
NMTAP	91	192	6
NMTAP	91	192	7
NMTAP	92	0	5
NMTAP	92	96	5
NMTAP	92	192	6
NMTAP	92	288	6
NMTAP	93	0	7
NMTAP	93	48	7
NMTAP	93	96	7
NMTAP	93	192	0
NMTAP	93	192	1
NMTAP	94	0	1
NMTAP	94	96	1
NMTAP	94	192	2
NMTAP	94	192	3
NMTAP	94	288	2
NMTAP	94	288	3
NMTAP	95	0	4
NMTAP	95	48	4
NMTAP	95	96	4
NMTAP	95	192	4
NMTAP	95	192	5
NMTAP	96	0	3
NMTAP	96	96	2
NMTAP	96	192	1
NMTAP	96	288	0
NMTAP	97	0	7
NMTAP	97	96	6
EXTAP	97	192	4
EXTAP	97	192	5
NMTAP	98	0	5
NMTAP	98	96	5
NMTAP	98	192	6
NMTAP	98	288	6
NMTAP	99	0	7
NMTAP	99	48	7
NMTAP	99	96	7
NMTAP	99	192	0
NMTAP	99	192	1
NMTAP	100	0	2
NMTAP	100	96	2
NMTAP	100	192	1
NMTAP	100	288	1
NMTAP	101	0	0
NMTAP	101	48	0
NMTAP	101	96	0
NMTAP	101	192	6
NMTAP	101	192	7
NMTAP	102	0	6
NMTAP	102	96	6
NMTAP	102	192	4
NMTAP	102	192	5
NMTAP	102	288	4
NMTAP	102	288	5
NMTAP	103	0	3
NMTAP	103	48	3
NMTAP	103	96	3
NMTAP	103	192	2
NMTAP	103	192	3
NMTAP	104	0	4
NMTAP	104	96	5
NMTAP	104	192	6
NMTAP	104	288	7
NMTAP	105	0	0
EXTAP	105	96	0
EXTAP	105	96	7
EXTAP	105	192	0
EXTAP	105	192	7
EXTAP	105	288	0
EXTAP	105	288	7
NMTAP	106	96	0
NMTAP	106	96	1
NMTAP	106	288	0
NMTAP	106	288	1
NMTAP	107	96	6
NMTAP	107	96	7
NMTAP	107	288	6
NMTAP	107	288	7
NMTAP	108	96	4
NMTAP	108	96	5
NMTAP	108	288	4
NMTAP	108	288	5
EXTAP	109	96	2
EXTAP	109	96	3
EXTAP	109	192	2
EXTAP	109	192	3
EXTAP	109	288	2
EXTAP	109	288	3
NMTAP	110	96	3
NMTAP	110	96	4
NMTAP	110	288	2
NMTAP	110	288	5
NMTAP	111	96	1
NMTAP	111	96	6
NMTAP	111	288	0
NMTAP	111	288	7
NMSTR	112	0	0
NMSXL	112	0	0	96	480	3
NMSTR	112	0	7
NMSXR	112	0	7	96	480	4
BRTAP	114	0	2
BRTAP	114	0	5

T_REC_TAP	267
T_REC_BRK	6
T_REC_XTP	54
T_REC_BXX	0
T_REC_HLD	17
T_REC_XHO	2
T_REC_BHO	0
T_REC_BXH	0
T_REC_STR	9
T_REC_BST	0
T_REC_XST	0
T_REC_XBS	0
T_REC_TTP	28
T_REC_THO	0
T_REC_SLD	9
T_REC_BSL	0
T_REC_ALL	392
T_NUM_TAP	358
T_NUM_BRK	6
T_NUM_HLD	19
T_NUM_SLD	9
T_NUM_ALL	392
T_JUDGE_TAP	364
T_JUDGE_HLD	98
T_JUDGE_SLD	9
T_JUDGE_ALL	471
TTM_EACHPAIRS	82
TTM_SCR_TAP	179000
TTM_SCR_BRK	15600
TTM_SCR_HLD	19000
TTM_SCR_SLD	13500
TTM_SCR_ALL	227100
TTM_SCR_S	219750
TTM_SCR_SS	226500
TTM_RAT_ACV	10026

