VERSION	0.00.00	1.04.00
FES_MODE	0
BPM_DEF	140.000	140.000	140.000	134.000
MET_DEF	4	4
RESOLUTION	384
CLK_DEF	384
COMPATIBLE_CODE	MA2

BPM	0	0	140.000
BPM	41	0	134.000
BPM	64	192	140.000
MET	0	0	4	4
MET	64	0	4	2
MET	65	0	4	4

NMTAP	2	0	1
NMSTR	2	0	5
NMSV_	2	0	5	96	288	0
NMTAP	2	96	1
NMTAP	2	192	2
NMTAP	2	288	2
NMTAP	3	0	3
NMTAP	3	96	3
NMTAP	3	192	4
NMTAP	3	288	4
NMTAP	4	0	1
NMSTR	4	0	5
NMSUL	4	0	5	96	288	0
NMTAP	4	96	1
NMTAP	4	192	2
NMTAP	4	288	2
NMTAP	5	0	3
NMTAP	5	96	3
EXTAP	5	192	4
EXTAP	5	264	3
NMTAP	5	336	2
NMTAP	5	336	4
NMTAP	6	0	2
NMTAP	6	0	4
NMSTR	6	96	3
NMSI_	6	96	3	96	96	0
NMSV_	6	96	3	96	96	6
NMTAP	6	96	5
NMTAP	7	0	7
NMSTR	7	96	7
NMSUL	7	96	7	96	96	1
NMSV_	7	96	7	96	96	2
NMSTR	8	0	0
NMSXL	8	0	0	96	384	3
NMSTR	8	192	5
NMSCL	8	192	5	96	96	4
CNSI_	9	0	4	0	96	7
EXTAP	9	192	1
EXTAP	9	192	5
NMTAP	10	0	2
NMSTR	10	0	3
NMSI_	10	0	3	96	48	5
NMTAP	10	96	2
NMTAP	10	192	4
NMSTR	10	192	6
NMSI_	10	192	6	96	48	0
NMTAP	10	288	4
NMSTR	11	0	2
NMSLR	11	0	2	96	96	6
NMSTR	11	96	6
NMSLL	11	96	6	96	96	2
NMSTR	11	192	0
NMSI_	11	192	0	96	48	4
NMSTR	12	0	0
NMSCR	12	0	0	96	48	3
NMSTR	12	192	0
NMSCL	12	192	0	96	48	5
NMSTR	13	0	7
NMSCR	13	0	7	96	96	3
NMSTR	13	96	3
NMSCR	13	96	3	96	96	7
NMTAP	13	192	7
NMTAP	13	288	3
NMSTR	14	0	1
NMSUR	14	0	1	96	96	5
NMTAP	14	0	4
NMSTR	14	96	5
NMSUR	14	96	5	96	96	1
NMTAP	14	192	6
NMTAP	14	288	7
NMSTR	15	0	3
NMSXR	15	0	3	96	144	4
NMSTR	15	96	5
NMSXL	15	96	5	96	144	4
NMTHO	16	0	0	192	C	0	M1
EXSTR	17	0	7
NMSCL	17	0	7	96	576	1
NMTTP	18	0	0	C	0	M1
NMTTP	18	192	0	E	0	M1
EXSTR	19	0	0
NMSCR	19	0	0	96	576	6
EXTAP	19	0	7
NMTTP	20	0	0	C	0	M1
NMTTP	20	192	4	E	0	M1
NMSTR	21	0	1
NMSI_	21	0	1	96	48	4
NMSTR	21	0	5
NMSI_	21	0	5	96	48	0
NMSTR	21	192	0
NMSI_	21	192	0	96	48	5
NMSTR	21	192	4
NMSI_	21	192	4	96	48	1
NMSTR	22	0	1
NMSCR	22	0	1	96	48	4
NMSTR	22	0	5
NMSCR	22	0	5	96	48	0
NMTAP	22	192	0
NMTAP	22	192	4
NMSTR	22	288	0
NMSXR	22	288	0	96	192	5
NMSTR	22	288	4
NMSXR	22	288	4	96	192	1
EXTAP	23	288	3
EXTAP	23	288	7
BRHLD	24	0	3	192
BRHLD	24	0	7	192
NMSTR	24	288	4
NMSCL	24	288	4	96	48	1
EXTAP	24	288	5
EXTAP	25	0	4
NMSTR	25	0	5
NMSCR	25	0	5	96	48	0
NMSTR	25	96	4
NMSUL	25	96	4	96	48	0
EXTAP	25	96	5
EXTAP	25	192	4
NMSTR	25	192	6
NMSLR	25	192	6	96	96	2
NMTAP	25	288	2
EXTAP	25	288	6
NMTAP	26	0	3
NMSTR	26	96	0
NMSUL	26	96	0	96	48	4
NMSUR	26	96	0	96	48	4
EXTAP	26	288	2
EXTAP	26	288	6
NMTAP	27	0	1
NMTAP	27	0	7
NMSTR	27	96	3
NMSCL	27	96	3	96	48	0
NMSTR	27	96	5
NMSCR	27	96	5	96	48	0
CNSI_	27	240	0	0	48	4
CNSI_	27	240	0	0	48	4
NMTAP	28	0	3
NMTAP	28	0	5
NMTAP	28	96	3
NMTAP	28	96	5
NMTAP	28	192	1
NMTAP	28	192	7
NMSTR	28	288	0
NMSUL	28	288	0	96	48	4
NMTAP	28	288	1
EXTAP	29	0	0
NMSTR	29	0	1
NMSCR	29	0	1	96	48	4
NMSTR	29	96	0
NMSCL	29	96	0	96	48	5
EXTAP	29	96	1
EXTAP	29	192	0
NMSTR	29	192	1
NMSUR	29	192	1	96	48	5
EXTAP	29	288	1
NMSTR	29	288	7
NMSLL	29	288	7	96	96	3
NMTAP	30	0	3
EXTAP	30	0	7
NMTAP	30	96	2
NMSTR	30	192	1
NMSI_	30	192	1	96	48	4
NMSTR	30	192	4
NMSI_	30	192	4	96	48	6
NMSTR	31	0	7
NMSCL	31	0	7	96	96	3
NMSTR	31	96	3
NMSCL	31	96	3	96	96	7
NMTAP	31	192	7
NMTAP	31	288	3
NMTAP	32	0	1
NMTAP	32	0	5
NMSTR	32	96	6
NMSV_	32	96	6	96	48	3
NMTAP	32	192	2
NMTAP	32	192	6
BRSTR	32	288	0
NMSI_	32	288	0	96	48	3
BRSTR	32	288	1
NMSI_	32	288	1	96	48	3
EXSTR	33	0	0
NMSI_	33	0	0	96	48	5
EXSTR	33	0	1
NMSI_	33	0	1	96	48	5
EXSTR	33	96	0
NMSI_	33	96	0	96	48	3
EXSTR	33	96	1
NMSI_	33	96	1	96	48	3
EXSTR	33	192	0
NMSI_	33	192	0	96	48	5
EXSTR	33	192	1
NMSI_	33	192	1	96	48	5
EXSTR	33	288	0
NMSI_	33	288	0	96	48	3
EXSTR	33	288	1
NMSI_	33	288	1	96	48	3
EXTAP	34	0	0
EXTAP	34	0	1
NMTAP	34	96	0
NMTAP	34	96	1
NMTAP	34	192	0
NMTAP	34	192	7
BRSTR	34	288	6
NMSI_	34	288	6	96	48	4
BRSTR	34	288	7
NMSI_	34	288	7	96	48	4
EXSTR	35	0	6
NMSI_	35	0	6	96	48	2
EXSTR	35	0	7
NMSI_	35	0	7	96	48	2
EXSTR	35	96	6
NMSI_	35	96	6	96	48	4
EXSTR	35	96	7
NMSI_	35	96	7	96	48	4
EXSTR	35	192	6
NMSI_	35	192	6	96	48	2
EXSTR	35	192	7
NMSI_	35	192	7	96	48	2
EXSTR	35	288	6
NMSCL	35	288	6	96	96	0
EXTAP	35	288	7
EXSTR	36	192	4
BRSXL	36	192	4	96	96	4
BRSXR	36	192	4	96	96	4
NMTAP	37	96	3
NMTAP	37	144	3
NMTAP	37	192	4
NMTAP	37	264	2
NMTAP	37	264	5
NMTAP	37	336	1
NMTAP	37	336	6
NMSTR	38	0	1
NMSI_	38	0	1	96	48	4
NMSTR	38	0	6
NMSI_	38	0	6	96	48	3
NMTAP	38	96	1
NMTAP	38	96	6
NMSTR	38	192	2
BRSUR	38	192	2	96	144	3
NMTAP	38	192	5
NMTTP	38	288	0	C	1	M1
CNSCR	39	48	3	0	144	1
NMTAP	39	288	3
NMTAP	39	288	5
NMTAP	40	0	2
NMSTR	40	0	6
NMSCR	40	0	6	96	48	1
NMTAP	40	96	3
NMTAP	40	192	4
NMSTR	40	288	3
NMSI_	40	288	3	96	48	0
NMSTR	40	288	4
NMSI_	40	288	4	96	48	7
BXTAP	41	0	3
BXTAP	41	0	4
NMSTR	41	192	7
NMSI_	41	192	7	96	48	3
NMTAP	41	288	3
NMHLD	42	0	2	96
NMHLD	42	96	0	96
NMTAP	42	192	7
NMHLD	42	240	7	96
NMTAP	42	336	5
NMHLD	43	0	5	96
NMSTR	43	96	3
NMSUL	43	96	3	96	192	1
NMHLD	43	192	7	192
NMTAP	44	96	1
NMTAP	44	96	7
NMTAP	44	192	6
NMHLD	44	240	6	96
NMTAP	44	336	4
NMHLD	45	0	4	96
NMHLD	45	96	2	96
NMSTR	45	192	0
NMSI_	45	192	0	96	48	4
NMTAP	45	288	4
NMHLD	46	0	5	96
NMHLD	46	96	7	96
NMTAP	46	192	0
NMHLD	46	240	0	96
NMTAP	46	336	2
NMHLD	47	0	2	96
NMSTR	47	96	4
NMSCR	47	96	4	96	96	7
NMSTR	47	192	3
NMSCL	47	192	3	96	96	0
NMHLD	48	0	7	96
NMTAP	48	96	0
NMTTP	48	192	0	A	0	M1
NMTTP	48	192	0	D	0	M1
NMTTP	48	192	7	A	0	M1
NMHLD	49	0	1	192
NMTAP	49	192	0
NMSTR	49	288	0
NMSI_	49	288	0	96	192	3
CNSI_	50	192	3	0	192	6
CNSUR	51	0	6	0	192	2
CNSI_	51	192	2	0	192	5
CNSI_	52	0	5	0	192	0
NMHLD	53	0	7	192
NMTAP	53	192	5
NMSTR	53	288	4
NMSI_	53	288	4	96	192	7
CNSI_	54	192	7	0	192	2
CNSUR	55	0	2	0	192	6
CNSI_	55	192	6	0	192	1
CNSI_	56	0	1	0	192	4
NMSTR	57	0	5
NMSI_	57	0	5	96	192	0
NMTAP	57	96	3
NMTAP	57	192	3
NMTAP	57	288	3
NMSTR	58	0	0
NMSI_	58	0	0	96	192	5
NMTAP	58	0	3
NMTAP	58	96	3
NMTAP	58	192	3
NMTAP	58	288	3
NMTAP	59	0	2
NMSTR	59	0	4
NMSI_	59	0	4	96	192	0
NMTAP	59	96	2
NMTAP	59	192	2
NMTAP	59	288	2
NMSTR	60	0	0
NMSI_	60	0	0	96	192	4
NMTAP	60	0	2
NMTAP	60	96	2
NMTAP	60	192	2
NMTAP	60	288	2
NMTAP	61	0	1
NMSTR	61	0	3
NMSI_	61	0	3	96	192	7
NMTAP	61	96	1
NMTAP	61	192	1
NMTAP	61	288	1
NMTAP	62	0	0
NMSTR	62	0	7
NMSI_	62	0	7	96	192	3
NMTAP	62	96	0
NMTAP	62	192	0
NMTAP	62	288	0
NMTAP	63	0	1
NMTAP	63	48	2
NMTAP	63	96	3
NMTAP	63	144	4
NMTAP	63	192	5
NMTAP	63	240	6
NMSTR	63	288	7
NMSCL	63	288	7	96	192	1
NMTHO	64	0	0	192	C	1	M1
NMTTP	64	0	3	B	0	M1
NMTTP	64	0	4	B	0	M1
EXSTR	64	288	0
NMSCL	64	288	0	96	48	5
EXTAP	64	288	1
EXTAP	65	0	0
NMSTR	65	0	1
NMSCR	65	0	1	96	48	4
NMSTR	65	96	0
NMSUL	65	96	0	96	48	4
EXTAP	65	96	1
EXTAP	65	192	0
NMSTR	65	192	2
NMSLR	65	192	2	96	96	6
EXTAP	65	288	2
NMTAP	65	288	6
NMTAP	66	0	7
NMSTR	66	96	4
NMSUL	66	96	4	96	48	0
NMSUR	66	96	4	96	48	0
NMTAP	66	288	2
NMTAP	66	288	6
NMTAP	67	0	3
NMTAP	67	0	5
NMSTR	67	96	1
NMSCR	67	96	1	96	48	4
NMSTR	67	96	7
NMSCL	67	96	7	96	48	4
CNSI_	67	240	4	0	48	0
CNSI_	67	240	4	0	48	0
NMTAP	68	0	1
NMTAP	68	0	7
NMTAP	68	96	1
NMTAP	68	96	7
NMTAP	68	192	3
NMTAP	68	192	5
NMSTR	68	288	4
NMSUL	68	288	4	96	48	0
NMTAP	68	288	5
EXTAP	69	0	4
NMSTR	69	0	5
NMSCR	69	0	5	96	48	0
NMSTR	69	96	4
NMSCL	69	96	4	96	48	1
EXTAP	69	96	5
EXTAP	69	192	4
NMSTR	69	192	5
NMSUR	69	192	5	96	48	1
NMSTR	69	288	3
NMSLL	69	288	3	96	96	7
EXTAP	69	288	5
EXTAP	70	0	3
NMTAP	70	0	7
NMTAP	70	96	6
NMSTR	70	192	0
NMSI_	70	192	0	96	48	2
NMSTR	70	192	5
NMSI_	70	192	5	96	48	0
NMSTR	71	0	3
NMSCL	71	0	3	96	96	7
NMSTR	71	96	7
NMSCL	71	96	7	96	96	3
NMTAP	71	192	3
NMTAP	71	288	7
NMSTR	72	0	1
NMSCR	72	0	1	96	48	4
NMTAP	72	0	4
NMHLD	72	96	5	96
NMTHO	72	192	0	96	C	1	M1
NMTTP	72	288	2	B	0	M1
NMTTP	72	288	2	A	0	M1
NMTTP	72	288	3	B	0	M1
NMTTP	72	288	4	B	0	M1
NMTTP	72	288	5	B	0	M1
NMTTP	72	288	5	A	0	M1
NMSTR	73	0	0
BRSI_	73	0	0	96	48	3
NMSTR	73	0	7
BRSI_	73	0	7	96	48	4
NMTTP	73	96	0	E	1	M1
NMTTP	73	96	0	A	0	M1
NMTTP	73	96	7	A	0	M1
EXSTR	73	192	6
BRSI_	73	192	6	96	48	4
EXSTR	73	192	7
BRSI_	73	192	7	96	48	3
EXSTR	73	288	6
BRSI_	73	288	6	96	48	2
EXSTR	73	288	7
BRSI_	73	288	7	96	48	1
EXSTR	74	0	6
BRSI_	74	0	6	96	48	4
EXSTR	74	0	7
BRSI_	74	0	7	96	48	3
EXTAP	74	96	6
EXTAP	74	96	7
NMTAP	74	192	0
NMTAP	74	192	7
BRSTR	74	288	0
BRSI_	74	288	0	96	48	4
BRSTR	74	288	1
BRSI_	74	288	1	96	48	3
EXSTR	75	0	0
BRSI_	75	0	0	96	48	6
EXSTR	75	0	1
BRSI_	75	0	1	96	48	5
EXSTR	75	96	0
BRSI_	75	96	0	96	48	4
EXSTR	75	96	1
BRSI_	75	96	1	96	48	3
EXSTR	75	192	0
BRSI_	75	192	0	96	48	6
EXSTR	75	192	1
BRSI_	75	192	1	96	48	5
EXTAP	75	288	0
EXSTR	75	288	1
BRSCR	75	288	1	96	96	7
NMSTR	76	192	3
BRSXL	76	192	3	96	96	3
BRSXR	76	192	3	96	96	3
NMTAP	77	96	7
NMTAP	77	144	7
NMTAP	77	192	0
NMTAP	77	264	1
NMTAP	77	264	6
NMTAP	77	336	2
NMTAP	77	336	5
NMSTR	78	0	2
NMSI_	78	0	2	96	48	7
NMSTR	78	0	5
NMSI_	78	0	5	96	48	0
NMTAP	78	192	2
NMSTR	78	192	5
BRSUL	78	192	5	96	144	4
NMTTP	78	288	0	C	1	M1
CNSCL	79	48	4	0	144	6
NMTAP	79	288	2
NMTAP	79	288	4
NMSTR	80	0	1
NMSCL	80	0	1	96	48	6
NMTAP	80	0	5
NMTAP	80	96	4
NMSTR	80	192	3
NMSI_	80	192	3	96	48	7
BRHLD	80	288	2	864
NMSTR	80	288	3
BRSI_	80	288	3	96	192	5
CNSI_	81	192	5	0	192	2
CNSI_	82	0	2	0	192	6
CNSI_	82	192	6	0	96	1
CNSI_	82	288	1	0	96	7

T_REC_TAP	143
T_REC_BRK	0
T_REC_XTP	35
T_REC_BXX	2
T_REC_HLD	16
T_REC_XHO	0
T_REC_BHO	3
T_REC_BXH	0
T_REC_STR	89
T_REC_BST	6
T_REC_XST	32
T_REC_XBS	0
T_REC_TTP	20
T_REC_THO	3
T_REC_SLD	109
T_REC_BSL	24
T_REC_ALL	482
T_NUM_TAP	319
T_NUM_BRK	35
T_NUM_HLD	19
T_NUM_SLD	109
T_NUM_ALL	482
T_JUDGE_TAP	327
T_JUDGE_HLD	74
T_JUDGE_SLD	133
T_JUDGE_ALL	534
TTM_EACHPAIRS	102
TTM_SCR_TAP	159500
TTM_SCR_BRK	91000
TTM_SCR_HLD	19000
TTM_SCR_SLD	163500
TTM_SCR_ALL	433000
TTM_SCR_S	416650
TTM_SCR_SS	429500
TTM_RAT_ACV	10081

