VERSION	0.00.00	1.04.00
FES_MODE	0
BPM_DEF	140.000	140.000	140.000	134.000
MET_DEF	4	4
RESOLUTION	384
CLK_DEF	384
COMPATIBLE_CODE	MA2

BPM	0	0	140.000
BPM	41	0	134.000
BPM	64	192	140.000
MET	0	0	4	4
MET	64	0	4	2
MET	65	0	4	4

NMTAP	2	0	3
NMTAP	2	96	3
NMSTR	2	192	3
NMSI_	2	192	3	96	96	0
NMTAP	3	0	4
NMTAP	3	96	4
NMSTR	3	192	4
NMSI_	3	192	4	96	96	7
NMTAP	4	0	3
NMTAP	4	96	3
NMSTR	4	192	3
NMSCL	4	192	3	96	96	0
NMTAP	5	0	4
NMTAP	5	96	4
NMSTR	5	192	4
NMSCR	5	192	4	96	96	7
NMTAP	6	0	2
NMTAP	6	96	2
NMTAP	6	192	7
NMTAP	6	288	7
NMTAP	7	0	3
NMTAP	7	96	3
NMTAP	7	192	6
NMTAP	7	288	6
NMSTR	8	0	4
NMSXR	8	0	4	96	288	0
NMHLD	8	0	5	576
EXTAP	9	192	0
NMTAP	10	0	4
NMTAP	10	96	4
NMSTR	10	192	4
NMSI_	10	192	4	96	96	7
NMTAP	11	0	0
NMTAP	11	96	0
NMSTR	11	192	0
NMSI_	11	192	0	96	96	3
NMTAP	12	0	4
NMTAP	12	96	4
NMSTR	12	192	4
NMSCR	12	192	4	96	96	7
NMTAP	13	0	0
NMTAP	13	96	0
NMSTR	13	192	0
NMSCR	13	192	0	96	96	3
NMTAP	14	0	5
NMTAP	14	96	5
NMTAP	14	192	2
NMTAP	14	288	2
NMTAP	15	0	4
NMTAP	15	96	4
NMTAP	15	192	3
NMTAP	15	288	3
NMSTR	16	0	3
NMSV_	16	0	3	96	144	0
BRSTR	16	0	4
BRSV_	16	0	4	96	144	7
NMHLD	17	0	1	384
NMTAP	17	0	6
NMTTP	17	192	2	B	0	M1
NMTTP	17	192	3	E	0	M1
NMHLD	18	0	3	384
NMTTP	18	192	3	B	0	M1
NMTTP	18	192	3	E	0	M1
NMHLD	19	0	4	384
NMTTP	19	192	4	B	0	M1
NMTTP	19	192	5	E	0	M1
NMHLD	20	0	6	384
NMTTP	20	192	5	B	0	M1
NMTTP	20	192	5	E	0	M1
NMTTP	21	0	0	E	0	M1
NMTTP	21	96	1	E	0	M1
NMTTP	21	192	2	E	0	M1
NMTTP	21	288	3	E	0	M1
NMTTP	22	0	4	E	0	M1
NMTTP	22	96	5	E	0	M1
NMTTP	22	192	6	E	0	M1
NMTTP	22	288	7	E	0	M1
NMTAP	23	0	0
NMTAP	23	48	0
NMTAP	23	96	6
NMTAP	23	144	6
NMTAP	23	192	1
NMTAP	23	240	1
NMSTR	23	288	7
BRSCL	23	288	7	96	192	0
NMTAP	23	336	7
NMSTR	25	0	6
NMSI_	25	0	6	96	48	4
NMSTR	25	0	7
NMSI_	25	0	7	96	48	3
NMSTR	25	192	0
NMSI_	25	192	0	96	48	4
NMSTR	25	192	1
NMSI_	25	192	1	96	48	3
NMSTR	26	0	6
NMSI_	26	0	6	96	48	4
NMSTR	26	0	7
NMSI_	26	0	7	96	48	3
NMTAP	26	192	0
NMTAP	26	192	1
NMTAP	26	288	0
NMTAP	26	288	1
NMTAP	27	0	2
NMSTR	27	0	3
NMSI_	27	0	3	96	48	7
NMSTR	27	192	4
NMSI_	27	192	4	96	48	0
NMTAP	27	192	5
NMTAP	28	0	2
NMSTR	28	0	3
NMSI_	28	0	3	96	48	7
NMTAP	28	192	4
NMTAP	28	192	5
NMTAP	28	288	4
NMTAP	28	288	5
NMHLD	29	0	2	288
NMSTR	29	0	6
NMSI_	29	0	6	96	48	4
NMSTR	29	192	7
NMSI_	29	192	7	96	48	3
NMSTR	30	0	1
NMSI_	30	0	1	96	48	3
NMHLD	30	0	5	288
NMSTR	30	192	0
NMSI_	30	192	0	96	48	4
NMTAP	31	0	6
NMTAP	31	0	7
NMTAP	31	96	0
NMTAP	31	96	1
NMTAP	31	192	2
NMTAP	31	192	3
NMSTR	31	288	1
NMSUL	31	288	1	96	144	3
BRSTR	31	288	4
BRSUR	31	288	4	96	144	2
EXTAP	32	288	2
EXTAP	32	288	3
NMSTR	33	0	0
NMSI_	33	0	0	96	48	4
NMSTR	33	0	1
NMSI_	33	0	1	96	48	3
NMSTR	33	192	6
NMSI_	33	192	6	96	48	4
EXSTR	33	192	7
NMSI_	33	192	7	96	48	3
EXSTR	34	0	0
NMSI_	34	0	0	96	48	4
NMSTR	34	0	1
NMSI_	34	0	1	96	48	3
NMTAP	34	192	6
NMTAP	34	192	7
NMTAP	34	288	6
NMTAP	34	288	7
NMSTR	35	0	4
NMSI_	35	0	4	96	48	0
NMTAP	35	0	5
NMTAP	35	192	2
NMSTR	35	192	3
NMSI_	35	192	3	96	48	7
NMSTR	36	0	4
NMSI_	36	0	4	96	48	0
NMTAP	36	0	5
NMTAP	36	192	2
NMTAP	36	192	3
NMTAP	36	288	2
NMTAP	36	288	3
NMSTR	37	0	0
NMSI_	37	0	0	96	48	4
NMSTR	37	0	1
NMSI_	37	0	1	96	48	4
NMSTR	37	192	6
NMSI_	37	192	6	96	48	3
NMSTR	37	192	7
NMSI_	37	192	7	96	48	3
NMSTR	38	0	0
NMSI_	38	0	0	96	48	4
NMSTR	38	0	1
NMSI_	38	0	1	96	48	4
NMTAP	38	192	6
NMTAP	38	192	7
NMSTR	38	288	6
NMSCL	38	288	6	96	288	7
NMSTR	38	288	7
NMSCR	38	288	7	96	288	6
EXTAP	40	0	6
EXTAP	40	0	7
NMTAP	40	192	2
NMTAP	40	192	5
NMSTR	40	288	3
NMSI_	40	288	3	96	96	0
NMSTR	40	288	4
NMSI_	40	288	4	96	96	7
BXTAP	41	192	0
BXTAP	41	192	7
NMHLD	42	0	6	192
NMTAP	42	192	4
NMTAP	42	288	3
NMHLD	43	0	1	576
NMTTP	43	192	4	E	0	M1
NMTAP	44	96	3
NMTAP	44	192	3
NMTAP	44	288	4
NMHLD	45	0	6	576
NMTTP	45	192	4	E	0	M1
NMTAP	46	96	4
NMTAP	46	192	4
NMTAP	46	288	3
NMHLD	47	0	1	576
NMTTP	47	192	4	E	0	M1
NMTTP	48	192	3	B	0	M1
NMTTP	48	192	4	B	0	M1
NMSTR	49	0	0
NMSI_	49	0	0	96	216	3
NMHLD	49	0	6	1344
CNSI_	49	312	3	0	216	6
CNSI_	50	144	6	0	216	1
CNSI_	50	360	1	0	216	4
CNSI_	51	192	4	0	216	0
NMTAP	52	192	0
NMHLD	53	0	1	1152
NMSTR	53	0	7
NMSI_	53	0	7	96	144	3
NMSTR	54	0	7
NMSUL	54	0	7	96	144	3
NMSTR	55	0	7
NMSCL	55	0	7	96	192	3
NMTAP	56	0	3
NMTAP	56	192	2
NMTAP	56	192	5
NMHLD	57	0	3	288
NMTAP	57	0	4
NMTAP	57	96	4
NMTAP	57	192	4
NMTAP	57	288	4
NMHLD	58	0	3	288
NMTAP	58	0	4
NMTAP	58	96	4
NMTAP	58	192	4
NMTAP	58	288	4
NMHLD	59	0	3	288
NMTAP	59	0	4
NMTAP	59	96	4
NMTAP	59	192	4
NMTAP	59	288	4
NMSTR	60	0	3
NMSI_	60	0	3	96	144	0
NMTAP	60	0	4
NMTAP	60	96	4
NMTAP	60	192	4
NMTAP	60	288	4
NMTTP	61	0	5	E	0	M1
NMTTP	61	0	5	A	0	M1
NMTTP	61	0	5	D	0	M1
NMTTP	61	96	7	D	0	M1
NMTTP	61	192	2	A	0	M1
NMTTP	61	192	3	E	0	M1
NMTTP	61	192	3	D	0	M1
NMTTP	61	288	1	D	0	M1
NMTTP	62	0	4	B	0	M1
NMTTP	62	0	5	B	0	M1
NMTTP	62	0	5	E	0	M1
NMTTP	62	96	7	B	0	M1
NMTTP	62	192	2	B	0	M1
NMTTP	62	192	3	B	0	M1
NMTTP	62	192	3	E	0	M1
NMTTP	62	288	0	B	0	M1
NMTHO	63	0	0	384	C	1	M1
NMTTP	64	192	2	B	0	M1
NMTTP	64	192	2	E	0	M1
NMTTP	64	192	5	B	0	M1
NMTTP	64	192	6	E	0	M1
NMSTR	65	0	0
NMSI_	65	0	0	96	48	4
NMSTR	65	0	1
NMSI_	65	0	1	96	48	4
NMSTR	65	192	6
NMSI_	65	192	6	96	48	3
NMSTR	65	192	7
NMSI_	65	192	7	96	48	3
NMSTR	66	0	0
NMSI_	66	0	0	96	48	4
NMSTR	66	0	1
NMSI_	66	0	1	96	48	4
NMTAP	66	192	6
NMTAP	66	192	7
NMTAP	66	288	6
NMTAP	66	288	7
NMSTR	67	0	4
NMSI_	67	0	4	96	48	0
NMSTR	67	0	5
NMSI_	67	0	5	96	48	0
NMSTR	67	192	2
NMSI_	67	192	2	96	48	7
NMSTR	67	192	3
NMSI_	67	192	3	96	48	7
NMSTR	68	0	4
NMSI_	68	0	4	96	48	0
NMSTR	68	0	5
NMSI_	68	0	5	96	48	0
NMTAP	68	192	2
NMTAP	68	192	3
NMTAP	68	288	2
NMTAP	68	288	3
NMSTR	69	0	1
NMSCR	69	0	1	96	48	3
EXHLD	69	0	5	288
NMSTR	69	192	0
NMSUR	69	192	0	96	48	4
EXHLD	70	0	2	288
NMSTR	70	0	6
NMSCL	70	0	6	96	48	4
NMSTR	70	192	7
NMSUL	70	192	7	96	48	3
EXTAP	71	0	2
EXTAP	71	0	3
NMTAP	71	96	3
NMTAP	71	96	4
NMSTR	71	192	2
NMSXR	71	192	2	96	192	4
BRSTR	71	192	5
BRSXL	71	192	5	96	192	3
NMSTR	72	192	3
NMSCL	72	192	3	96	96	0
NMSTR	72	192	4
NMSCR	72	192	4	96	96	7
BRTAP	73	96	0
BRTAP	73	96	7
NMSTR	73	192	1
NMSI_	73	192	1	96	48	4
NMSTR	73	192	7
NMSI_	73	192	7	96	48	4
NMSTR	74	0	0
NMSI_	74	0	0	96	48	3
NMSTR	74	0	6
NMSI_	74	0	6	96	48	3
NMTAP	74	192	1
NMTAP	74	192	7
NMTAP	74	288	1
NMTAP	74	288	7
NMSTR	75	0	4
NMSI_	75	0	4	96	48	0
NMSTR	75	0	5
NMSI_	75	0	5	96	48	0
NMSTR	75	192	2
NMSI_	75	192	2	96	48	7
NMSTR	75	192	3
NMSI_	75	192	3	96	48	7
NMSTR	76	0	4
NMSI_	76	0	4	96	48	0
NMSTR	76	0	5
NMSI_	76	0	5	96	48	0
NMTAP	76	192	2
NMTAP	76	192	3
NMTAP	76	288	2
NMTAP	76	288	3
NMSTR	77	0	0
NMSI_	77	0	0	96	48	5
NMSTR	77	0	1
NMSI_	77	0	1	96	48	4
NMSTR	77	192	6
NMSI_	77	192	6	96	48	3
NMSTR	77	192	7
NMSI_	77	192	7	96	48	2
NMSTR	78	0	0
NMSI_	78	0	0	96	48	5
NMSTR	78	0	1
NMSCR	78	0	1	96	48	4
NMSTR	78	192	6
NMSCL	78	192	6	96	48	3
NMSTR	78	192	7
NMSI_	78	192	7	96	48	2
NMSTR	79	0	0
NMSCL	79	0	0	96	288	1
NMSTR	79	0	1
NMSCR	79	0	1	96	288	0
EXTAP	80	192	1
EXTAP	80	192	6
EXTAP	80	288	1
EXTAP	80	288	6
BRSTR	81	0	0
BRSCR	81	0	0	96	240	3
BRSTR	81	0	7
BRSCL	81	0	7	96	240	4
CNSXR	81	336	3	0	432	4
CNSXL	81	336	4	0	432	3

T_REC_TAP	118
T_REC_BRK	2
T_REC_XTP	11
T_REC_BXX	2
T_REC_HLD	16
T_REC_XHO	2
T_REC_BHO	0
T_REC_BXH	0
T_REC_STR	86
T_REC_BST	5
T_REC_XST	2
T_REC_XBS	0
T_REC_TTP	41
T_REC_THO	1
T_REC_SLD	87
T_REC_BSL	6
T_REC_ALL	379
T_NUM_TAP	258
T_NUM_BRK	15
T_NUM_HLD	19
T_NUM_SLD	87
T_NUM_ALL	379
T_JUDGE_TAP	267
T_JUDGE_HLD	186
T_JUDGE_SLD	93
T_JUDGE_ALL	546
TTM_EACHPAIRS	80
TTM_SCR_TAP	129000
TTM_SCR_BRK	39000
TTM_SCR_HLD	19000
TTM_SCR_SLD	130500
TTM_SCR_ALL	317500
TTM_SCR_S	306550
TTM_SCR_SS	316000
TTM_RAT_ACV	10047

