VERSION	0.00.00	1.04.00
FES_MODE	0
BPM_DEF	252.000	252.000	252.000	252.000
MET_DEF	4	4
RESOLUTION	384
CLK_DEF	384
COMPATIBLE_CODE	MA2

BPM	0	0	252.000
MET	0	0	4	4

NMSTR	4	96	1
NMSI_	4	96	1	96	48	7
NMSTR	4	96	5
NMSI_	4	96	5	96	48	3
NMTAP	4	192	1
NMTAP	4	192	5
NMTAP	5	0	0
NMTAP	5	0	4
NMHLD	5	48	0	96
NMTAP	5	48	4
NMTAP	5	144	2
NMHLD	5	240	1	96
NMHLD	5	240	3	96
NMSTR	6	96	2
NMSI_	6	96	2	96	48	4
NMSTR	6	96	6
NMSI_	6	96	6	96	48	0
NMTAP	6	192	2
NMTAP	6	192	6
NMTAP	7	0	3
NMTAP	7	0	7
NMTAP	7	48	3
NMHLD	7	48	7	96
NMTAP	7	144	5
NMHLD	7	240	4	96
NMHLD	7	240	6	96
NMSTR	8	96	1
NMSI_	8	96	1	96	48	7
NMSTR	8	96	5
NMSI_	8	96	5	96	48	3
NMTAP	8	192	1
NMTAP	8	192	5
NMTAP	9	0	0
NMTAP	9	0	4
NMHLD	9	48	0	96
NMTAP	9	48	4
NMTAP	9	144	2
NMHLD	9	240	1	96
NMHLD	9	240	3	96
NMSTR	10	96	2
NMSI_	10	96	2	96	48	4
NMSTR	10	96	6
NMSI_	10	96	6	96	48	0
NMTAP	10	192	2
NMTAP	10	192	6
NMTAP	11	0	3
NMTAP	11	0	7
NMTAP	11	48	3
NMHLD	11	48	7	96
NMTAP	11	144	5
NMTAP	11	240	4
NMTAP	11	240	6
NMTAP	11	336	1
NMTAP	11	336	5
NMSTR	12	0	1
NMSXL	12	0	1	96	480	5
NMHLD	12	0	5	1152
CNSXL	13	192	5	0	480	2
NMTTP	15	96	3	B	0	M1
NMTTP	15	96	3	A	1	M1
NMTTP	15	96	4	B	0	M1
NMTTP	15	192	4	B	0	M1
NMTTP	15	192	5	B	0	M1
NMTTP	15	192	5	A	1	M1
EXTAP	15	288	0
EXTAP	15	288	7
NMTAP	16	0	2
NMTAP	16	0	6
NMTAP	16	96	2
NMTAP	16	96	6
NMTAP	16	192	3
NMTAP	16	192	6
NMTAP	16	288	4
NMTAP	16	288	6
NMTAP	16	336	4
NMTAP	17	0	4
NMTAP	17	0	6
NMTAP	17	96	3
NMTAP	17	96	6
NMTAP	17	192	2
NMTAP	17	192	6
NMTAP	17	240	2
NMTAP	17	288	2
NMTAP	17	288	6
NMSTR	18	0	5
NMSI_	18	0	5	96	48	0
NMTAP	18	96	4
NMHLD	18	192	2	96
NMTAP	18	288	3
NMTAP	18	336	3
NMTAP	19	48	1
NMTAP	19	48	5
NMTAP	19	96	1
NMTAP	19	96	5
NMTAP	19	144	1
NMTAP	19	144	5
NMTAP	19	240	2
NMTAP	19	240	6
NMTAP	19	288	2
NMTAP	19	288	6
EXTAP	20	0	0
EXTAP	20	0	7
NMTAP	20	96	1
NMTAP	20	96	5
NMTAP	20	192	1
NMTAP	20	192	4
NMTAP	20	288	1
NMTAP	20	288	3
NMTAP	20	336	3
NMTAP	21	0	1
NMTAP	21	0	3
NMTAP	21	96	1
NMTAP	21	96	4
NMTAP	21	192	1
NMTAP	21	192	5
NMTAP	21	240	5
NMTAP	21	288	1
NMTAP	21	288	5
NMSTR	22	0	2
NMSI_	22	0	2	96	48	0
NMTAP	22	96	3
NMHLD	22	192	5	96
NMTAP	22	288	4
NMTAP	22	336	3
NMTAP	23	0	2
NMTAP	23	0	6
NMTAP	23	48	2
NMTAP	23	48	6
NMSTR	23	144	1
NMSI_	23	144	1	96	48	5
NMTAP	23	144	5
NMTAP	23	240	6
NMTAP	23	288	6
EXTAP	24	0	0
EXTAP	24	0	7
NMTAP	24	96	2
NMTAP	24	96	6
NMTAP	24	192	3
NMSTR	24	192	7
NMSI_	24	192	7	96	48	5
NMTAP	24	288	4
NMTAP	24	288	7
NMTAP	25	0	4
NMSTR	25	0	7
NMSI_	25	0	7	96	48	1
NMTAP	25	96	3
NMTAP	25	96	7
NMTAP	25	192	2
NMSTR	25	192	7
NMSI_	25	192	7	96	48	5
NMTAP	25	288	2
NMTAP	25	288	7
NMHLD	26	0	1	48
NMHLD	26	48	4	48
NMHLD	26	96	0	48
NMHLD	26	144	3	48
NMHLD	26	192	1	48
NMHLD	26	240	4	48
NMHLD	26	288	2	48
NMHLD	26	336	5	48
NMHLD	27	0	3	48
NMHLD	27	48	6	48
NMHLD	27	96	4	48
NMHLD	27	144	7	48
NMTAP	27	192	3
NMTAP	27	240	3
NMTAP	27	288	2
NMTAP	27	288	5
EXTAP	28	0	0
EXTAP	28	0	7
NMTAP	28	96	1
NMTAP	28	96	5
NMSTR	28	192	0
NMSI_	28	192	0	96	48	2
NMTAP	28	192	4
NMTAP	28	288	0
NMTAP	28	288	3
NMSTR	29	0	0
NMSI_	29	0	0	96	48	6
NMTAP	29	0	3
NMTAP	29	96	0
NMTAP	29	96	4
NMSTR	29	192	0
NMSI_	29	192	0	96	48	2
NMTAP	29	192	5
NMTAP	29	288	0
NMTAP	29	288	5
EXTAP	30	0	6
EXTAP	30	48	6
EXTAP	30	96	1
EXTAP	30	144	1
NMTAP	30	192	0
NMTAP	30	216	7
NMTAP	30	240	0
NMTAP	30	264	7
NMSTR	30	288	0
NMSI_	30	288	0	96	96	6
NMTAP	30	312	7
NMTAP	30	336	0
NMTAP	30	360	7
NMTAP	31	0	0
CNSI_	31	96	6	0	96	2
CNSI_	31	192	2	0	96	4
NMSTR	32	0	5
NMSLR	32	0	5	96	192	1
NMTAP	32	192	4
CNSI_	32	288	1	0	96	3
CNSCL	33	0	3	0	96	0
NMTAP	33	0	4
CNSI_	33	96	0	0	96	4
NMTAP	33	192	3
NMSTR	34	0	3
NMSLL	34	0	3	96	192	7
NMTAP	34	192	4
CNSI_	34	288	7	0	96	5
NMTAP	35	0	4
CNSCR	35	0	5	0	96	0
CNSI_	35	96	0	0	96	4
NMTAP	35	192	3
NMSTR	36	0	5
NMSLR	36	0	5	96	192	1
NMTAP	36	192	4
CNSI_	36	288	1	0	96	3
CNSCL	37	0	3	0	96	0
NMTAP	37	0	4
CNSI_	37	96	0	0	96	4
NMTAP	37	192	3
NMSTR	38	0	2
NMSLL	38	0	2	96	192	6
NMTAP	38	192	3
CNSI_	38	288	6	0	96	4
NMTAP	39	0	3
CNSCR	39	0	4	0	96	7
CNSI_	39	96	7	0	96	3
NMTAP	39	192	4
NMTAP	40	0	2
NMTAP	40	0	3
NMTAP	40	96	2
NMSTR	40	96	3
NMSI_	40	96	3	96	192	7
NMTAP	40	192	2
NMTAP	40	288	2
NMTAP	41	0	3
NMTAP	41	96	4
NMHLD	41	192	7	192
NMTAP	41	288	5
NMTAP	42	0	4
NMSTR	42	96	4
NMSI_	42	96	4	96	192	0
NMTAP	42	192	5
NMTAP	42	288	5
NMTAP	43	0	4
NMTAP	43	96	3
NMHLD	43	192	0	192
NMTAP	43	288	2
NMTAP	44	0	3
NMSTR	44	96	3
NMSI_	44	96	3	96	192	7
NMTAP	44	192	2
NMTAP	44	288	2
NMTAP	45	0	3
NMTAP	45	96	4
NMHLD	45	192	7	192
NMTAP	46	0	0
NMTAP	46	96	1
NMTAP	46	96	6
NMTAP	46	240	3
NMSTR	46	240	4
NMSXL	46	240	4	96	240	5
NMTAP	46	336	3
NMTAP	46	336	4
NMSTR	47	192	0
NMSI_	47	192	0	96	48	3
EXTAP	47	288	0
NMTAP	48	0	5
NMTAP	48	48	4
NMTAP	48	96	3
NMSTR	48	144	2
NMSCR	48	144	2	96	48	5
NMSTR	48	144	6
NMSCR	48	144	6	96	48	1
NMTAP	48	240	2
NMTAP	48	240	6
NMTAP	49	0	1
NMTAP	49	48	0
NMTAP	49	96	7
NMTAP	49	144	2
NMHLD	49	144	6	96
EXTAP	49	240	0
EXTAP	49	288	0
NMSTR	50	0	1
NMSI_	50	0	1	96	48	5
NMSTR	50	96	0
NMSI_	50	96	0	96	48	4
NMSTR	50	192	7
NMSI_	50	192	7	96	48	3
NMSTR	50	288	6
NMSI_	50	288	6	96	48	2
NMSTR	51	0	1
NMSI_	51	0	1	96	48	5
NMSTR	51	96	0
NMSI_	51	96	0	96	48	4
NMTAP	51	192	7
NMTAP	51	288	1
NMTAP	51	288	6
NMTAP	52	0	2
NMTAP	52	48	3
NMTAP	52	96	4
NMSTR	52	144	1
NMSCL	52	144	1	96	48	6
NMSTR	52	144	5
NMSCL	52	144	5	96	48	2
NMTAP	52	240	1
NMTAP	52	240	5
NMTAP	53	0	6
NMTAP	53	48	7
NMTAP	53	96	0
NMHLD	53	144	1	336
NMTAP	53	144	5
NMTAP	53	240	3
NMTAP	53	288	3
NMTTP	54	0	4	A	0	M1
NMTTP	54	0	5	E	0	M1
NMTTP	54	0	5	A	0	M1
NMTTP	54	96	2	A	0	M1
NMTTP	54	96	3	E	0	M1
NMTTP	54	96	3	A	0	M1
NMHLD	54	192	6	384
NMTAP	54	288	3
NMTTP	55	0	4	A	0	M1
NMTTP	55	0	5	E	0	M1
NMTTP	55	0	5	A	0	M1
NMTTP	55	96	2	A	0	M1
NMTTP	55	96	3	E	0	M1
NMTTP	55	96	3	A	0	M1
EXTAP	55	192	1
EXTAP	55	288	0
EXTAP	55	288	7
NMTAP	56	0	5
NMTAP	56	48	4
NMTAP	56	96	3
NMSTR	56	144	2
NMSCR	56	144	2	96	48	5
NMSTR	56	144	6
NMSCR	56	144	6	96	48	1
NMTAP	56	240	2
NMTAP	56	240	6
NMTAP	57	0	1
NMTAP	57	48	0
NMTAP	57	96	7
NMTAP	57	144	2
NMHLD	57	144	6	96
EXTAP	57	240	0
EXTAP	57	288	0
NMTAP	58	0	7
NMHLD	58	48	7	48
NMTAP	58	96	3
NMHLD	58	144	3	48
NMTAP	58	192	5
NMHLD	58	240	5	48
NMTAP	58	288	1
NMHLD	58	336	1	48
NMTAP	59	0	3
NMHLD	59	48	3	48
NMTAP	59	96	7
NMHLD	59	144	7	48
NMTAP	59	192	4
NMTAP	59	288	1
NMTAP	59	288	6
NMTAP	60	0	2
NMTAP	60	48	3
NMTAP	60	96	4
NMSTR	60	144	1
NMSCL	60	144	1	96	48	6
NMSTR	60	144	5
NMSCL	60	144	5	96	48	2
NMTAP	60	240	1
NMTAP	60	240	5
NMTAP	61	0	6
NMTAP	61	48	7
NMTAP	61	96	0
NMHLD	61	144	1	96
NMTAP	61	144	5
NMTAP	61	240	3
NMTAP	61	288	3
NMTAP	62	0	3
NMTAP	62	0	4
NMTAP	62	48	3
NMTAP	62	48	4
NMTAP	62	96	3
NMTAP	62	96	4
NMTAP	62	144	3
NMTAP	62	144	4
NMTAP	62	192	2
NMTAP	62	192	5
NMTAP	62	240	2
NMTAP	62	240	5
NMTAP	62	288	2
NMTAP	62	288	5
NMTAP	62	336	2
NMTAP	62	336	5
NMTAP	63	0	1
NMTAP	63	0	6
NMTAP	63	48	1
NMTAP	63	48	6
NMTAP	63	96	1
NMTAP	63	96	6
NMTAP	63	144	1
NMTAP	63	144	6
NMTAP	63	192	0
NMTAP	63	216	7
NMTAP	63	240	0
NMTAP	63	264	7
NMTAP	63	288	0
NMTAP	63	312	7
NMTAP	63	336	0
NMSTR	64	0	1
NMSLL	64	0	1	96	288	5
NMHLD	64	0	6	2304
CNSI_	65	0	5	0	96	3
CNSUL	65	96	3	0	384	2
CNSCL	66	96	2	0	480	3
EXTAP	68	0	4
NMTAP	68	48	4
NMTAP	68	96	4
NMTAP	68	144	4
EXTAP	68	192	4
NMTAP	68	240	4
NMTAP	68	288	4
NMTAP	68	336	4
EXTAP	69	0	4
NMTAP	69	48	4
NMTAP	69	96	4
NMTAP	69	144	4
EXTAP	69	192	4
NMTAP	69	240	4
EXTAP	69	288	4
NMTAP	69	336	4
EXSTR	70	0	4
NMSI_	70	0	4	96	48	1
NMSI_	70	0	4	96	48	7
EXSTR	70	192	0
NMSI_	70	192	0	96	48	3
NMSI_	70	192	0	96	48	5
EXSTR	71	0	4
NMSCL	71	0	4	96	48	1
NMSCR	71	0	4	96	48	7
NMTTP	71	192	0	C	1	M1
NMTTP	71	192	3	B	0	M1
NMTTP	71	192	5	B	0	M1
BXTAP	72	0	0
BXTAP	72	0	7
NMHLD	72	192	4	48
NMHLD	72	192	6	48
NMHLD	73	0	3	48
NMHLD	73	0	4	48
NMHLD	73	192	1	48
NMHLD	73	192	3	48
NMSTR	74	0	1
NMSUL	74	0	1	96	96	2
NMHLD	74	0	3	192
NMHLD	75	0	4	192
NMSTR	75	0	6
NMSUR	75	0	6	96	96	5
NMTTP	76	0	2	B	0	M1
NMTTP	76	0	2	E	0	M1
NMTTP	76	0	2	A	0	M1
NMTTP	76	0	6	B	0	M1
NMTTP	76	0	6	E	1	M1
NMTTP	76	0	6	A	0	M1
NMHLD	76	192	1	48
NMHLD	76	192	3	48
NMHLD	77	0	3	48
NMHLD	77	0	4	48
NMHLD	77	192	4	48
NMHLD	77	192	6	48
NMTAP	78	0	2
NMHLD	78	0	6	96
NMHLD	78	96	4	96
NMTTP	78	192	0	B	0	M1
NMTTP	78	192	0	E	0	M1
NMTTP	78	192	1	E	0	M1
NMHLD	78	288	1	96
NMHLD	79	0	3	96
NMTTP	79	96	0	E	0	M1
NMTTP	79	96	7	B	0	M1
NMTTP	79	96	7	E	0	M1
EXTAP	79	192	1
EXTAP	79	192	5
NMTTP	80	0	3	E	0	M1
NMTTP	80	0	4	E	1	M1
NMTTP	80	0	5	E	0	M1
NMSTR	80	192	0
NMSI_	80	192	0	96	96	6
NMHLD	80	192	3	384
CNSI_	81	0	6	0	96	1
CNSV_	81	96	1	0	96	2
NMTAP	82	0	3
NMTAP	82	0	4
NMHLD	82	96	3	192
NMSTR	82	96	4
NMSCL	82	96	4	96	96	0
NMTAP	83	0	3
NMTAP	83	0	4
NMSTR	83	96	3
NMSCR	83	96	3	96	96	7
NMHLD	83	96	4	192
NMTTP	84	0	3	E	0	M1
NMTTP	84	0	4	E	1	M1
NMTTP	84	0	5	E	0	M1
NMHLD	84	192	4	384
NMSTR	84	192	7
NMSI_	84	192	7	96	96	1
CNSI_	85	0	1	0	96	6
CNSV_	85	96	6	0	96	5
NMTAP	86	0	2
NMTAP	86	0	3
NMTAP	86	96	4
NMTAP	86	96	5
NMTAP	86	192	3
NMTAP	86	240	3
NMTAP	86	288	4
NMTAP	86	336	4
NMTAP	87	0	2
NMTAP	87	0	5
NMTAP	87	48	2
NMTAP	87	48	5
BXTAP	87	96	1
BXSTR	87	96	6
NMSI_	87	96	6	96	48	2
NMSTR	88	0	1
NMSCR	88	0	1	96	288	5
NMTAP	88	192	6
NMHLD	89	0	7	144
NMHLD	89	144	6	144
NMTAP	89	288	5
NMSTR	90	0	4
NMSCR	90	0	4	96	96	5
NMTAP	90	192	2
CNSV_	90	192	5	0	96	7
CNSCR	90	288	7	0	96	0
NMSTR	91	0	3
NMSCL	91	0	3	96	96	2
CNSV_	91	192	2	0	96	0
NMTAP	91	192	4
CNSCL	91	288	0	0	96	7
NMSTR	92	0	5
NMSCL	92	0	5	96	192	2
NMSTR	92	288	1
NMSCL	92	288	1	96	192	6
NMHLD	93	192	5	192
NMSTR	94	0	4
NMSI_	94	0	4	96	96	7
NMTAP	94	96	2
NMSTR	94	192	0
NMSI_	94	192	0	96	96	3
NMHLD	95	96	2	192
NMSTR	95	96	7
NMSI_	95	96	7	96	96	4
NMTAP	96	0	3
NMHLD	96	0	6	96
NMTAP	96	96	4
NMSTR	96	144	4
NMSI_	96	144	4	96	48	0
NMTAP	96	240	2
NMTAP	96	288	2
NMHLD	97	0	1	96
NMTAP	97	0	4
NMTAP	97	96	3
NMSTR	97	144	3
NMSI_	97	144	3	96	48	7
NMTAP	97	240	5
NMTAP	97	288	5
NMTAP	98	0	3
NMHLD	98	0	6	96
NMTAP	98	96	4
NMSTR	98	144	4
NMSI_	98	144	4	96	48	7
NMTAP	98	240	0
NMTAP	98	288	0
NMHLD	99	0	1	96
NMTAP	99	0	4
NMTAP	99	96	3
NMSTR	99	144	3
NMSI_	99	144	3	96	48	0
NMTAP	99	240	7
NMTAP	99	288	7
NMTAP	100	0	4
NMHLD	100	0	6	96
NMTAP	100	96	0
NMHLD	100	192	1	96
NMTAP	100	192	3
NMTAP	100	288	7
NMTAP	101	0	3
NMHLD	101	0	6	96
NMTAP	101	96	7
NMHLD	101	192	1	96
NMTAP	101	192	4
NMTAP	101	288	0
NMTAP	102	0	3
NMTAP	102	0	5
NMTAP	102	48	6
NMTAP	102	96	7
NMTAP	102	192	2
NMTAP	102	192	4
NMTAP	102	240	1
NMSTR	102	288	0
NMSCR	102	288	0	96	192	7
NMTTP	103	0	0	C	1	M1
NMHLD	104	0	0	96
NMHLD	104	96	3	96
NMHLD	104	192	2	96
NMTAP	104	288	4
NMTAP	104	336	4
NMTAP	105	48	3
NMTAP	105	48	5
NMTAP	105	96	3
NMTAP	105	96	5
NMTAP	105	192	1
NMTAP	105	192	7
NMTAP	105	288	2
NMTAP	105	288	6
NMHLD	106	0	3	576
NMTAP	106	0	5
NMTTP	106	96	3	E	0	M1
NMTTP	106	192	2	E	0	M1
NMTTP	106	288	1	E	0	M1
NMTTP	107	0	5	E	0	M1
NMTTP	107	96	6	E	0	M1
NMTTP	107	192	7	E	0	M1
NMTTP	107	288	4	E	0	M1
NMHLD	108	0	7	96
NMHLD	108	96	4	96
NMHLD	108	192	5	96
NMTAP	108	288	3
NMTAP	108	336	3
NMTAP	109	48	2
NMTAP	109	48	4
NMTAP	109	96	2
NMTAP	109	96	4
NMTAP	109	192	0
NMTAP	109	192	6
NMTAP	109	288	1
NMTAP	109	288	5
NMTAP	110	0	2
NMHLD	110	0	4	576
NMTTP	110	96	5	E	0	M1
NMTTP	110	192	6	E	0	M1
NMTTP	110	288	7	E	0	M1
NMTTP	111	0	3	E	0	M1
NMTTP	111	96	2	E	0	M1
NMTTP	111	192	1	E	0	M1
NMTTP	111	288	4	E	0	M1
NMHLD	112	0	5	384
NMTAP	112	96	3
EXTAP	112	192	4
NMTAP	112	288	3
NMHLD	113	0	2	384
NMTAP	113	96	4
EXTAP	113	192	3
NMTAP	113	288	4
NMHLD	114	0	5	384
NMTAP	114	96	3
EXTAP	114	192	4
NMTAP	114	288	3
NMHLD	115	0	2	384
NMTAP	115	96	4
EXTAP	115	192	3
NMTAP	115	288	4
NMHLD	116	0	6	384
NMTAP	116	96	3
EXTAP	116	192	4
NMTAP	116	288	2
NMHLD	117	0	1	384
NMTAP	117	96	4
EXTAP	117	192	3
NMTAP	117	288	5
NMTAP	118	0	6
NMTAP	118	48	6
NMTAP	118	96	2
NMTAP	118	144	2
NMTAP	118	192	5
NMTAP	118	240	5
NMTAP	118	288	3
NMTAP	118	336	3
NMTAP	119	0	4
NMTAP	119	48	4
NMTAP	119	96	2
NMTAP	119	144	2
NMTAP	119	192	3
NMTAP	119	240	3
NMTAP	119	288	1
NMTAP	119	336	1
BRSTR	120	0	7
BRSSR	120	0	7	96	288	3
EXTAP	121	192	3
EXTAP	121	192	4
BRTAP	121	288	0
BRTAP	121	288	7
NMSTR	122	0	1
NMSI_	122	0	1	96	48	4
NMTAP	122	48	1
NMSTR	122	96	5
NMSI_	122	96	5	96	48	0
NMTAP	122	144	5
NMTAP	122	192	2
NMTAP	122	240	2
NMTAP	122	288	1
NMTAP	122	288	3
NMTAP	122	336	1
NMTAP	122	336	3
NMTAP	123	48	2
NMTAP	123	48	4
NMSTR	123	96	2
NMSCL	123	96	2	96	96	6
NMTAP	123	96	4
NMSTR	123	192	6
NMSLR	123	192	6	96	96	2
NMTAP	123	288	3
NMTAP	124	0	5
NMSTR	124	96	6
NMSI_	124	96	6	96	48	2
NMTAP	124	144	6
NMSTR	124	192	7
NMSI_	124	192	7	96	48	3
NMTAP	124	240	7
NMSTR	124	288	0
NMSI_	124	288	0	96	48	4
NMTAP	124	336	0
NMSTR	125	0	1
NMSI_	125	0	1	96	48	5
NMTAP	125	48	1
NMSTR	125	96	3
NMSI_	125	96	3	96	48	7
NMSTR	125	192	7
NMSF_	125	192	7	96	48	3
NMSTR	126	0	6
NMSI_	126	0	6	96	48	3
NMTAP	126	48	6
NMSTR	126	96	2
NMSI_	126	96	2	96	48	7
NMTAP	126	144	2
NMTAP	126	192	5
NMTAP	126	240	5
NMTAP	126	288	4
NMTAP	126	288	6
NMTAP	126	336	4
NMTAP	126	336	6
NMTAP	127	48	3
NMTAP	127	48	5
NMTAP	127	96	3
NMSTR	127	96	5
NMSCR	127	96	5	96	96	1
NMSTR	127	192	1
NMSLL	127	192	1	96	96	5
NMTAP	127	288	4
NMTAP	128	0	2
NMSTR	128	96	1
NMSI_	128	96	1	96	48	5
NMTAP	128	144	1
NMSTR	128	192	6
NMSI_	128	192	6	96	48	2
NMTAP	128	240	6
NMSTR	128	288	0
NMSI_	128	288	0	96	48	4
NMTAP	128	336	0
NMTAP	129	0	7
NMHLD	129	48	7	96
NMTAP	129	144	4
NMTTP	129	192	3	D	0	M1
NMTTP	129	204	2	D	0	M1
NMTTP	129	216	1	D	0	M1
NMTTP	129	228	0	D	0	M1
NMTTP	129	240	7	D	0	M1
NMTTP	129	252	6	D	0	M1
NMTTP	129	264	5	D	0	M1
NMTTP	129	276	4	D	0	M1
NMTTP	129	288	3	D	0	M1
NMSTR	130	0	7
NMSI_	130	0	7	96	48	3
NMTAP	130	48	7
NMSTR	130	96	2
NMSI_	130	96	2	96	48	6
NMTAP	130	144	2
NMSTR	130	192	5
NMSI_	130	192	5	96	48	1
NMTAP	130	240	5
NMSTR	130	288	0
NMSI_	130	288	0	96	48	4
NMTAP	130	336	0
NMSTR	131	0	3
NMSI_	131	0	3	96	48	7
NMTAP	131	48	3
NMSTR	131	96	1
NMSI_	131	96	1	96	48	5
NMTAP	131	144	1
NMTAP	131	192	6
NMTAP	131	240	6
NMTAP	131	288	4
NMTAP	131	312	3
NMTAP	131	336	2
NMTAP	131	360	1
NMSTR	132	0	0
NMSI_	132	0	0	96	48	4
NMTAP	132	48	0
NMSTR	132	96	5
NMSI_	132	96	5	96	48	1
NMTAP	132	144	5
NMSTR	132	192	2
NMSI_	132	192	2	96	48	6
NMTAP	132	240	2
NMSTR	132	288	7
NMSI_	132	288	7	96	48	3
NMTAP	132	336	7
NMSTR	133	0	4
NMSI_	133	0	4	96	48	0
NMTAP	133	48	4
NMTAP	133	96	6
NMTAP	133	144	6
NMHLD	133	192	1	48
NMHLD	133	192	7	48
NMHLD	133	288	3	48
NMHLD	133	288	5	48
NMSTR	134	0	2
NMSI_	134	0	2	96	48	5
NMTAP	134	48	2
NMSTR	134	96	6
NMSI_	134	96	6	96	48	1
NMTAP	134	144	6
NMSTR	134	192	3
NMSI_	134	192	3	96	48	0
NMTAP	134	240	3
NMSTR	134	288	7
NMSI_	134	288	7	96	48	4
NMTAP	134	336	7
NMSTR	135	0	1
NMSI_	135	0	1	96	48	4
NMTAP	135	48	1
NMTAP	135	96	5
NMTAP	135	144	5
NMTAP	135	192	2
NMTAP	135	240	2
NMTAP	135	288	6
NMTAP	135	336	6
NMTAP	136	0	0
NMTAP	136	24	7
NMTAP	136	48	0
NMTAP	136	72	7
NMTAP	136	96	0
NMTAP	136	120	7
NMTAP	136	144	0
NMTAP	136	168	7
NMTAP	136	192	1
NMTAP	136	216	6
NMTAP	136	240	1
NMTAP	136	264	6
NMTAP	136	288	1
NMTAP	136	312	6
NMTAP	136	336	1
NMTAP	136	360	6
NMTAP	137	0	0
NMTAP	137	24	7
NMTAP	137	48	0
NMTAP	137	72	7
NMTAP	137	96	0
NMTAP	137	120	7
NMTAP	137	144	0
NMTAP	137	168	7
NMTAP	137	192	0
NMTAP	137	204	1
NMTAP	137	216	2
NMTAP	137	228	3
NMTAP	137	240	4
NMTAP	137	252	5
NMTAP	137	264	6
NMTAP	137	276	7
NMTAP	137	288	0
NMTAP	137	300	1
NMTAP	137	312	2
NMTAP	137	324	3
NMTAP	137	336	4
NMTAP	137	348	5
NMTAP	137	360	6
NMSTR	137	372	7
NMSI_	137	372	7	96	216	1
NMHLD	138	0	0	1440
CNSI_	138	300	1	0	192	6
CNSI_	139	108	6	0	192	2
CNSI_	139	300	2	0	192	5
CNSI_	140	108	5	0	180	3
BRTAP	141	288	5
NMTAP	142	0	3
NMTAP	142	0	7
NMTAP	142	48	2
NMTAP	142	48	6
NMSTR	142	96	1
NMSI_	142	96	1	96	48	4
NMSTR	142	96	5
NMSI_	142	96	5	96	48	0
EXTAP	142	192	1
EXTAP	142	192	5
NMTTP	143	0	1	B	0	M1
NMTTP	143	0	1	E	0	M1
NMTTP	143	0	1	D	0	M1
NMTTP	143	0	2	B	0	M1
NMTTP	143	0	3	E	0	M1
NMTTP	143	0	3	D	1	M1
NMTTP	143	144	5	B	0	M1
NMTTP	143	144	5	E	0	M1
NMTTP	143	144	5	D	0	M1
NMTTP	143	144	6	B	0	M1
NMTTP	143	144	7	E	0	M1
NMTTP	143	144	7	D	1	M1
NMHLD	143	240	0	96
NMHLD	143	240	4	96
NMTAP	144	0	0
NMTAP	144	0	4
NMTAP	144	48	1
NMTAP	144	48	5
NMSTR	144	96	2
NMSI_	144	96	2	96	48	7
NMSTR	144	96	6
NMSI_	144	96	6	96	48	3
EXTAP	144	192	2
EXTAP	144	192	6
NMTTP	145	0	5	B	0	M1
NMTTP	145	0	5	E	0	M1
NMTTP	145	0	5	D	1	M1
NMTTP	145	0	6	B	0	M1
NMTTP	145	0	7	E	0	M1
NMTTP	145	0	7	D	0	M1
NMTTP	145	144	1	B	0	M1
NMTTP	145	144	1	E	0	M1
NMTTP	145	144	1	D	1	M1
NMTTP	145	144	2	B	0	M1
NMTTP	145	144	3	E	0	M1
NMTTP	145	144	3	D	0	M1
NMHLD	145	240	3	96
NMHLD	145	240	7	96
NMTAP	146	0	3
NMTAP	146	0	7
NMTAP	146	48	2
NMTAP	146	48	6
NMSTR	146	96	1
NMSI_	146	96	1	96	48	6
NMSTR	146	96	5
NMSI_	146	96	5	96	48	2
EXTAP	146	192	1
EXTAP	146	192	5
NMTTP	147	0	2	B	0	M1
NMTTP	147	0	2	E	0	M1
NMTTP	147	0	2	D	0	M1
NMTTP	147	0	3	B	0	M1
NMTTP	147	0	4	E	0	M1
NMTTP	147	0	4	D	1	M1
NMTTP	147	144	0	E	0	M1
NMTTP	147	144	0	D	1	M1
NMTTP	147	144	6	B	0	M1
NMTTP	147	144	6	E	0	M1
NMTTP	147	144	6	D	0	M1
NMTTP	147	144	7	B	0	M1
NMHLD	147	240	0	96
NMHLD	147	240	4	96
NMTAP	148	0	0
NMTAP	148	0	4
NMTAP	148	48	1
NMTAP	148	48	5
NMSTR	148	96	2
NMSI_	148	96	2	96	48	5
NMSTR	148	96	6
NMSI_	148	96	6	96	48	1
EXTAP	148	192	2
EXTAP	148	192	6
NMHLD	149	0	2	96
NMHLD	149	0	4	96
NMTAP	149	144	2
NMTAP	149	144	4
NMTAP	149	240	0
NMTAP	149	240	6
NMTAP	149	288	0
NMTAP	149	288	6
NMTAP	150	0	1
NMTAP	150	24	5
NMTAP	150	48	1
NMTAP	150	72	5
NMTAP	150	96	1
NMTAP	150	120	5
NMTAP	150	144	1
NMTAP	150	168	5
NMTAP	150	192	1
NMTAP	150	216	5
NMTAP	150	240	1
NMTAP	150	264	5
NMTAP	150	288	1
NMTAP	150	312	5
NMTAP	150	336	1
NMTAP	150	360	5
BRTAP	151	0	2
BRTAP	151	24	6
BRTAP	151	48	2
BRTAP	151	72	6
BRTAP	151	96	2
BRTAP	151	120	6
BRTAP	151	144	2
BRTAP	151	168	6
BRTAP	151	192	3
BRTAP	151	216	7
BRTAP	151	240	3
BRTAP	151	264	7
BRTAP	151	288	3
BRTAP	151	312	7
BRTAP	151	336	3
BRTAP	151	360	7
NMTTP	152	0	0	B	0	M1
NMTTP	152	0	0	C	1	M1
NMTTP	152	0	0	A	0	M1
NMTTP	152	0	4	B	0	M1
NMTTP	152	0	4	A	0	M1

T_REC_TAP	496
T_REC_BRK	19
T_REC_XTP	43
T_REC_BXX	3
T_REC_HLD	102
T_REC_XHO	0
T_REC_BHO	0
T_REC_BXH	0
T_REC_STR	104
T_REC_BST	1
T_REC_XST	3
T_REC_XBS	1
T_REC_TTP	104
T_REC_THO	0
T_REC_SLD	111
T_REC_BSL	1
T_REC_ALL	988
T_NUM_TAP	750
T_NUM_BRK	25
T_NUM_HLD	102
T_NUM_SLD	111
T_NUM_ALL	988
T_JUDGE_TAP	774
T_JUDGE_HLD	201
T_JUDGE_SLD	112
T_JUDGE_ALL	1087
TTM_EACHPAIRS	175
TTM_SCR_TAP	375000
TTM_SCR_BRK	65000
TTM_SCR_HLD	102000
TTM_SCR_SLD	166500
TTM_SCR_ALL	708500
TTM_SCR_S	684850
TTM_SCR_SS	706000
TTM_RAT_ACV	10035

