VERSION	0.00.00	1.04.00
FES_MODE	0
BPM_DEF	252.000	252.000	252.000	252.000
MET_DEF	4	4
RESOLUTION	384
CLK_DEF	384
COMPATIBLE_CODE	MA2

BPM	0	0	252.000
MET	0	0	4	4

NMTAP	4	0	3
NMTAP	4	0	4
NMTAP	4	96	1
NMHLD	4	192	1	432
NMTAP	5	0	3
EXTAP	5	144	5
EXTAP	5	240	5
NMTAP	6	0	3
NMTAP	6	0	4
NMTAP	6	96	6
NMHLD	6	192	6	432
NMTAP	7	0	4
EXTAP	7	144	2
EXTAP	7	240	2
NMTAP	8	0	3
NMTAP	8	0	4
NMTAP	8	96	1
NMHLD	8	192	1	336
NMTAP	9	0	3
EXTAP	9	144	5
EXTAP	9	240	1
EXTAP	9	240	5
NMTAP	10	0	3
NMTAP	10	0	4
NMTAP	10	96	6
NMHLD	10	192	6	336
NMTAP	11	0	4
EXTAP	11	144	2
EXSTR	11	240	2
NMSCR	11	240	2	96	1392	1
EXHLD	11	240	5	720
NMTHO	14	0	0	576	C	0	M1
NMTAP	16	0	1
NMTAP	16	96	1
NMTAP	16	192	0
NMTAP	16	192	1
NMTAP	16	288	0
NMTAP	16	288	1
NMTAP	17	0	1
NMTAP	17	0	7
NMTAP	17	96	1
NMTAP	17	96	7
NMTAP	17	192	1
NMTAP	17	192	6
NMTAP	17	288	1
NMTAP	17	288	6
NMTAP	18	0	1
NMHLD	18	0	5	192
NMTAP	18	96	0
NMTAP	18	192	2
NMTAP	18	288	5
NMTAP	18	336	5
NMTAP	19	48	3
NMTAP	19	96	3
NMTAP	19	144	3
NMTAP	19	240	3
NMTAP	19	240	4
NMTAP	19	288	3
NMTAP	19	288	4
NMTAP	20	0	6
NMTAP	20	96	6
NMTAP	20	192	6
NMTAP	20	192	7
NMTAP	20	288	6
NMTAP	20	288	7
NMTAP	21	0	0
NMTAP	21	0	6
NMTAP	21	96	0
NMTAP	21	96	6
NMTAP	21	192	1
NMTAP	21	192	6
NMTAP	21	288	1
NMTAP	21	288	6
NMSTR	22	0	2
NMSCR	22	0	2	96	192	7
NMHLD	22	0	6	288
NMTAP	23	0	0
NMTAP	23	0	5
NMTAP	23	48	0
NMTAP	23	48	5
NMSTR	23	144	4
NMSI_	23	144	4	96	48	2
NMSTR	23	144	5
NMSI_	23	144	5	96	48	7
NMTAP	24	0	2
NMTAP	24	96	1
EXTAP	24	96	7
NMTAP	24	192	2
NMTAP	24	288	1
EXTAP	24	288	3
NMTAP	25	0	2
NMTAP	25	96	1
EXTAP	25	96	7
NMTAP	25	192	2
NMTAP	25	288	1
EXTAP	25	288	3
NMHLD	26	0	2	192
NMTAP	26	96	7
NMTAP	26	192	5
NMTAP	26	288	2
NMTAP	26	336	2
NMTAP	27	48	4
NMTAP	27	96	4
NMTAP	27	144	4
NMTAP	27	240	3
NMTAP	27	240	4
NMTAP	27	288	3
NMTAP	27	288	4
NMTAP	28	0	5
EXTAP	28	96	0
NMTAP	28	96	6
NMTAP	28	192	5
EXTAP	28	288	4
NMTAP	28	288	6
NMTAP	29	0	5
EXTAP	29	96	0
NMTAP	29	96	6
NMTAP	29	192	5
EXTAP	29	288	4
NMTAP	29	288	6
NMTAP	30	0	4
NMTAP	30	0	5
NMTAP	30	48	4
NMTAP	30	48	5
NMTAP	30	144	2
NMTAP	30	144	3
NMTAP	30	240	0
NMTAP	30	240	1
NMTAP	30	336	6
NMTAP	30	336	7
NMHLD	31	0	6	192
NMHLD	31	0	7	192
EXSTR	32	0	0
NMSI_	32	0	0	96	96	2
CNSV_	32	192	2	0	192	5
NMSTR	33	0	7
NMSCL	33	0	7	96	288	2
NMTAP	33	192	0
NMHLD	34	0	1	192
NMHLD	34	192	3	192
NMSTR	35	0	5
NMSCL	35	0	5	96	288	0
NMTAP	35	192	7
EXSTR	36	0	7
NMSI_	36	0	7	96	96	5
CNSV_	36	192	5	0	192	2
NMSTR	37	0	0
NMSCR	37	0	0	96	288	5
NMTAP	37	192	7
NMHLD	38	0	6	192
NMHLD	38	192	4	192
NMTTP	39	0	1	B	0	M1
NMTTP	39	192	6	B	0	M1
NMTAP	40	0	3
NMTAP	40	96	3
EXTAP	40	192	3
NMTTP	40	192	6	B	0	M1
NMTTP	40	192	7	B	0	M1
NMTAP	40	288	3
NMTAP	41	0	2
NMTAP	41	96	2
EXTAP	41	192	2
NMTTP	41	192	5	B	0	M1
NMTTP	41	192	6	B	0	M1
NMTAP	41	288	2
NMTAP	42	0	1
NMTAP	42	96	1
EXTAP	42	192	1
NMTTP	42	192	4	B	0	M1
NMTTP	42	192	5	B	0	M1
NMTAP	42	288	1
NMTAP	43	0	0
NMTAP	43	96	0
EXTAP	43	192	0
NMTTP	43	192	3	B	0	M1
NMTTP	43	192	4	B	0	M1
NMTAP	43	288	0
NMTAP	44	0	7
NMTAP	44	96	7
NMTTP	44	192	2	B	0	M1
NMTTP	44	192	3	B	0	M1
EXTAP	44	192	7
NMTAP	44	288	7
NMTAP	45	0	6
NMTAP	45	96	6
NMTTP	45	192	1	B	0	M1
NMTTP	45	192	2	B	0	M1
EXTAP	45	192	6
NMTAP	45	288	6
EXTAP	46	0	4
EXTAP	46	0	5
EXTAP	46	96	4
EXTAP	46	96	5
EXTAP	46	240	3
EXTAP	46	240	7
EXHLD	46	336	1	240
EXTAP	46	336	5
NMTAP	47	192	3
BRTAP	47	288	7
NMHLD	48	0	1	96
NMTAP	48	144	0
NMSTR	48	144	2
NMSI_	48	144	2	96	48	6
NMSTR	49	0	7
NMSI_	49	0	7	96	96	2
NMSI_	49	0	7	96	96	4
NMTAP	50	0	1
NMTAP	50	0	3
NMTAP	50	96	0
NMTAP	50	192	2
NMTAP	50	192	4
NMTAP	50	288	0
NMTAP	51	0	3
NMTAP	51	0	5
NMSTR	51	96	0
NMSSL	51	96	0	96	192	4
NMTAP	51	96	6
NMHLD	52	0	6	96
NMSTR	52	144	5
NMSI_	52	144	5	96	48	1
NMTAP	52	144	7
NMSTR	53	0	0
NMSI_	53	0	0	96	96	3
NMSI_	53	0	0	96	96	5
NMTAP	54	0	4
NMTAP	54	0	6
NMTAP	54	96	7
NMTAP	54	192	3
NMTAP	54	192	5
NMTAP	54	288	7
NMTAP	55	0	2
NMTAP	55	0	4
NMTAP	55	96	1
NMSTR	55	96	7
NMSI_	55	96	7	96	48	3
BRTAP	55	192	0
NMHLD	56	0	1	96
NMTAP	56	144	0
NMSTR	56	144	2
NMSI_	56	144	2	96	48	6
NMSTR	57	0	7
NMSI_	57	0	7	96	96	2
NMSI_	57	0	7	96	96	4
NMTAP	58	0	1
NMTAP	58	0	3
NMTAP	58	96	0
NMTAP	58	192	2
NMTAP	58	192	4
NMTAP	58	288	0
NMTAP	59	0	3
NMTAP	59	0	5
NMSTR	59	96	0
NMSSL	59	96	0	96	192	4
NMTAP	59	96	6
NMHLD	60	0	6	96
NMSTR	60	144	5
NMSI_	60	144	5	96	48	1
NMTAP	60	144	7
NMSTR	61	0	0
NMSI_	61	0	0	96	96	3
NMSI_	61	0	0	96	96	5
NMTAP	62	0	4
NMTAP	62	48	4
NMTAP	62	96	3
NMTAP	62	144	3
NMTAP	62	192	5
NMTAP	62	240	5
NMTAP	62	288	2
NMTAP	62	336	2
NMTAP	63	0	6
NMTAP	63	48	6
NMTAP	63	96	1
NMTAP	63	144	1
EXTAP	63	192	7
EXTAP	63	288	3
EXTAP	63	288	5
BXHLD	64	0	0	1344
EXHLD	64	0	4	1344
NMTTP	68	0	0	E	0	M1
NMTTP	68	96	7	E	0	M1
NMTTP	68	192	6	E	0	M1
NMTTP	68	288	5	E	0	M1
NMTTP	69	0	4	E	0	M1
NMTTP	69	96	3	E	0	M1
NMTTP	69	192	2	E	0	M1
NMTTP	69	288	1	E	0	M1
NMTAP	70	0	7
NMTAP	70	96	7
NMTAP	70	192	0
NMTAP	70	192	6
NMTAP	70	288	0
NMTAP	70	288	6
NMTAP	71	0	4
NMTAP	71	0	5
NMTAP	71	96	4
NMTAP	71	96	5
BRTAP	71	192	1
BRTAP	71	192	7
EXHLD	72	0	0	96
EXHLD	72	0	2	96
NMHLD	72	192	3	96
NMHLD	72	192	5	96
NMHLD	73	0	1	96
NMHLD	73	0	3	96
NMHLD	73	192	3	96
NMHLD	73	192	6	96
NMHLD	74	0	0	96
NMHLD	74	0	2	96
NMHLD	74	192	4	96
NMHLD	74	192	5	96
NMHLD	75	0	0	96
NMHLD	75	0	2	96
NMHLD	75	192	4	96
NMHLD	75	192	5	96
EXHLD	76	0	5	96
EXHLD	76	0	7	96
NMHLD	76	192	2	96
NMHLD	76	192	4	96
NMHLD	77	0	4	96
NMHLD	77	0	6	96
NMHLD	77	192	1	96
NMHLD	77	192	4	96
NMHLD	78	0	2	96
NMHLD	78	96	3	96
NMHLD	78	192	4	96
NMHLD	78	288	5	96
NMHLD	79	0	6	96
NMTAP	79	96	7
BRTAP	79	192	0
BRTAP	79	192	2
EXHLD	80	0	1	192
EXTAP	80	0	4
NMHLD	80	192	5	192
NMTAP	80	288	4
NMHLD	81	0	3	192
NMTAP	81	96	4
NMHLD	81	192	6	96
NMTAP	81	288	4
NMHLD	82	0	5	96
NMHLD	82	0	7	96
NMHLD	82	192	2	96
NMHLD	82	192	3	96
NMHLD	83	0	5	96
NMHLD	83	0	7	96
NMHLD	83	192	2	96
NMHLD	83	192	3	96
EXTAP	84	0	0
EXHLD	84	0	2	192
NMHLD	84	192	5	192
NMTAP	84	288	4
NMHLD	85	0	3	192
NMTAP	85	96	4
NMHLD	85	192	6	192
NMTAP	85	288	5
NMSTR	86	0	4
NMSXR	86	0	4	96	288	0
NMSTR	87	0	7
NMSCL	87	0	7	96	288	1
NMHLD	88	0	0	384
NMHLD	89	0	5	144
NMHLD	89	144	4	144
NMTAP	89	288	3
NMSTR	90	0	2
NMSCR	90	0	2	96	288	6
NMSTR	91	0	7
NMSUL	91	0	7	96	288	3
NMHLD	92	0	2	288
NMHLD	92	288	3	288
NMHLD	93	192	4	192
NMTAP	94	0	5
NMTAP	94	96	6
NMTAP	94	192	5
NMHLD	94	288	4	384
NMHLD	95	96	3	192
EXHLD	96	0	5	96
EXHLD	96	0	7	96
NMTAP	96	144	5
NMTAP	96	144	7
NMTAP	96	288	3
EXHLD	97	0	2	96
EXHLD	97	0	4	96
NMTAP	97	144	2
NMTAP	97	144	4
NMTAP	97	288	0
EXHLD	98	0	1	96
EXHLD	98	0	7	96
NMTAP	98	144	1
NMTAP	98	144	7
NMTAP	98	288	5
EXHLD	99	0	4	96
EXHLD	99	0	6	96
NMTAP	99	144	4
NMTAP	99	144	6
NMTAP	99	288	2
NMHLD	100	0	0	96
NMHLD	100	0	1	96
NMHLD	100	192	0	96
NMHLD	100	192	7	96
NMHLD	101	0	6	96
NMHLD	101	0	7	96
NMHLD	101	192	5	96
NMHLD	101	192	6	96
NMTAP	102	0	4
NMTAP	102	0	5
NMTAP	102	96	4
NMTAP	102	96	5
NMTAP	102	192	2
NMTAP	102	192	3
NMTAP	102	288	2
NMTAP	102	288	3
BRTAP	103	0	0
BRTAP	103	0	5
NMSTR	104	0	1
NMSI_	104	0	1	96	96	7
CNSI_	104	192	7	0	48	5
CNSXR	104	240	5	0	528	2
NMTTP	106	96	6	E	0	M1
NMTTP	106	192	5	E	0	M1
NMTTP	106	288	4	E	0	M1
NMTTP	107	0	3	E	0	M1
NMTTP	107	96	2	E	0	M1
NMTTP	107	192	1	E	1	M1
NMSTR	108	0	6
NMSI_	108	0	6	96	96	0
CNSI_	108	192	0	0	48	2
CNSXL	108	240	2	0	528	5
NMTTP	110	96	2	E	0	M1
NMTTP	110	192	3	E	0	M1
NMTTP	110	288	4	E	0	M1
NMTTP	111	0	5	E	0	M1
NMTTP	111	96	6	E	0	M1
NMTTP	111	192	7	E	1	M1
NMHLD	112	0	3	192
NMTAP	112	192	1
NMTAP	112	288	0
NMHLD	113	0	7	192
NMTAP	113	192	5
NMTAP	113	288	4
NMHLD	114	0	3	192
NMTAP	114	192	1
NMTAP	114	288	0
NMHLD	115	0	7	192
NMTAP	115	192	5
NMTAP	115	288	4
NMTAP	116	0	3
NMTAP	116	96	3
NMTAP	116	192	2
NMTAP	116	192	4
NMTAP	116	288	2
NMTAP	116	288	4
NMTAP	117	0	1
NMTAP	117	0	5
NMTAP	117	96	1
NMTAP	117	96	5
NMTAP	117	192	0
NMTAP	117	192	6
NMTAP	117	288	0
NMTAP	117	288	6
NMTAP	118	0	7
NMTAP	118	48	7
NMTAP	118	96	0
NMTAP	118	144	0
NMTAP	118	192	6
NMTAP	118	240	6
NMTAP	118	288	1
NMTAP	118	336	1
NMTAP	119	0	5
NMTAP	119	48	5
NMTAP	119	96	2
NMTAP	119	144	2
BRTAP	119	192	4
NMSTR	120	0	1
NMSI_	120	0	1	96	48	6
NMSTR	120	144	5
NMSI_	120	144	5	96	48	2
NMTAP	120	288	0
NMTAP	121	0	1
NMTAP	121	96	2
NMTAP	121	192	3
NMTAP	121	192	5
BRTAP	121	288	0
BRTAP	121	288	7
EXTAP	122	0	0
EXTAP	122	0	5
NMTAP	122	96	1
NMTAP	122	96	3
NMTAP	122	192	4
NMTAP	122	192	6
NMTAP	122	288	2
NMHLD	122	336	2	144
NMTAP	123	48	1
NMTAP	123	96	1
NMTAP	123	192	2
NMTAP	123	192	3
NMTAP	123	288	0
NMTAP	123	288	5
EXHLD	124	0	4	288
NMTAP	124	96	6
NMTAP	124	144	6
NMTAP	124	192	6
NMTAP	124	288	0
NMTAP	125	0	2
NMTAP	125	0	3
NMSTR	125	96	0
BRSI_	125	96	0	96	48	4
NMTAP	125	96	5
EXTAP	125	192	7
EXTAP	126	0	2
EXTAP	126	0	7
NMTAP	126	96	4
NMTAP	126	96	6
NMTAP	126	192	1
NMTAP	126	192	3
NMTAP	126	288	5
NMHLD	126	336	5	144
NMTAP	127	48	6
NMTAP	127	96	6
NMTAP	127	192	4
NMTAP	127	192	5
NMTAP	127	288	2
NMTAP	127	288	7
NMHLD	128	0	0	288
NMTAP	128	96	2
NMTAP	128	144	2
NMTAP	128	192	2
NMTAP	128	288	7
NMTAP	129	0	2
NMTAP	129	0	6
NMTAP	129	48	2
NMTAP	129	48	6
NMTAP	129	144	0
NMTAP	129	144	1
BRSTR	129	192	0
NMSI_	129	192	0	96	48	4
BRSTR	129	192	1
NMSI_	129	192	1	96	48	3
EXTAP	130	0	2
NMTAP	130	48	2
NMTAP	130	96	4
NMTAP	130	144	4
NMSTR	130	192	7
NMSI_	130	192	7	96	48	3
NMTAP	130	288	6
EXTAP	131	0	5
NMTAP	131	48	5
NMTAP	131	96	3
NMTAP	131	144	3
NMSTR	131	192	0
NMSI_	131	192	0	96	48	4
NMTAP	131	288	1
EXHLD	132	0	2	192
NMTAP	132	96	4
NMTAP	132	144	4
NMTAP	132	192	4
NMTAP	132	288	1
NMTAP	133	0	0
NMTAP	133	0	6
NMTAP	133	96	3
NMSTR	133	96	4
BRSI_	133	96	4	96	96	7
NMSTR	133	192	0
BRSI_	133	192	0	96	48	3
EXTAP	134	0	6
NMTAP	134	48	6
NMTAP	134	96	4
NMTAP	134	144	4
NMSTR	134	192	0
NMSCL	134	192	0	96	96	5
NMTAP	134	288	2
EXTAP	135	0	1
NMTAP	135	48	1
NMTAP	135	96	3
NMTAP	135	144	3
NMSTR	135	192	7
NMSCR	135	192	7	96	96	2
NMTAP	135	288	5
EXTAP	136	0	4
NMTAP	136	48	4
NMTAP	136	96	4
NMTAP	136	144	4
EXTAP	136	192	0
NMTAP	136	240	0
NMTAP	136	288	0
NMTAP	136	336	0
EXTAP	137	0	7
EXTAP	137	24	6
EXTAP	137	48	5
EXTAP	137	72	4
EXTAP	137	96	3
EXTAP	137	120	2
EXTAP	137	144	1
EXTAP	137	168	0
EXTAP	137	192	7
EXTAP	137	216	6
EXTAP	137	240	5
EXTAP	137	264	4
EXTAP	137	288	3
EXTAP	137	312	2
EXTAP	137	336	1
EXTAP	137	360	0
BXHLD	138	0	7	1344
NMTAP	141	0	3
NMTAP	141	96	3
NMTAP	141	192	3
EXTAP	141	288	1
EXTAP	141	288	6
NMTAP	142	0	4
NMTAP	142	48	3
NMTAP	142	96	6
NMHLD	142	192	6	240
NMTAP	143	0	4
NMTAP	143	48	4
EXTAP	143	144	2
EXTAP	143	144	7
EXTAP	143	240	2
EXTAP	143	240	7
NMTAP	144	0	3
NMTAP	144	48	4
NMTAP	144	96	1
NMHLD	144	192	1	240
NMTAP	145	0	3
NMTAP	145	48	3
EXTAP	145	144	0
EXTAP	145	144	5
EXTAP	145	240	0
EXTAP	145	240	5
NMTAP	146	0	4
NMTAP	146	48	3
NMTAP	146	96	6
NMHLD	146	192	6	240
NMTAP	147	0	4
NMTAP	147	48	4
EXTAP	147	144	2
EXTAP	147	144	7
EXTAP	147	240	2
EXTAP	147	240	7
NMTAP	148	0	3
NMTAP	148	48	4
NMTAP	148	96	1
NMHLD	148	192	1	240
NMTAP	149	0	3
NMSTR	149	48	3
NMSI_	149	48	3	96	96	7
EXTAP	150	0	1
NMTAP	150	48	1
NMTAP	150	96	1
NMTAP	150	144	1
NMTAP	150	192	6
NMTAP	150	240	6
NMTAP	150	288	6
NMTAP	150	336	6
NMTAP	151	0	0
NMTAP	151	48	0
NMTAP	151	96	0
NMTAP	151	144	0
NMTAP	151	192	0
NMTAP	151	192	7
NMTAP	151	240	0
NMTAP	151	240	7
NMTAP	151	288	0
NMTAP	151	288	7
NMTAP	151	336	0
NMTAP	151	336	7
BRTAP	152	0	1
BRTAP	152	0	6

T_REC_TAP	351
T_REC_BRK	13
T_REC_XTP	76
T_REC_BXX	0
T_REC_HLD	83
T_REC_XHO	19
T_REC_BHO	0
T_REC_BXH	2
T_REC_STR	33
T_REC_BST	2
T_REC_XST	3
T_REC_XBS	0
T_REC_TTP	34
T_REC_THO	1
T_REC_SLD	39
T_REC_BSL	3
T_REC_ALL	659
T_NUM_TAP	497
T_NUM_BRK	20
T_NUM_HLD	103
T_NUM_SLD	39
T_NUM_ALL	659
T_JUDGE_TAP	512
T_JUDGE_HLD	222
T_JUDGE_SLD	42
T_JUDGE_ALL	776
TTM_EACHPAIRS	142
TTM_SCR_TAP	248500
TTM_SCR_BRK	52000
TTM_SCR_HLD	103000
TTM_SCR_SLD	58500
TTM_SCR_ALL	462000
TTM_SCR_S	446200
TTM_SCR_SS	460000
TTM_RAT_ACV	10043

