VERSION	0.00.00	1.04.00
FES_MODE	0
BPM_DEF	252.000	252.000	252.000	252.000
MET_DEF	4	4
RESOLUTION	384
CLK_DEF	384
COMPATIBLE_CODE	MA2

BPM	0	0	252.000
MET	0	0	4	4

NMTAP	4	0	3
NMTAP	4	96	3
NMTAP	4	192	3
NMHLD	5	0	2	144
NMHLD	5	0	3	144
NMTAP	6	0	4
NMTAP	6	96	4
NMTAP	6	192	4
NMHLD	7	0	4	144
NMHLD	7	0	5	144
NMTAP	8	0	3
NMTAP	8	96	3
NMTAP	8	192	3
NMHLD	9	0	2	144
NMHLD	9	0	3	144
NMTAP	10	0	4
NMTAP	10	96	4
NMTAP	10	192	4
NMHLD	11	0	4	144
NMHLD	11	0	5	144
NMSTR	12	0	6
NMSI_	12	0	6	96	288	3
NMSTR	12	0	7
NMSI_	12	0	7	96	288	2
NMSTR	14	0	0
NMSI_	14	0	0	96	288	5
NMSTR	14	0	1
NMSI_	14	0	1	96	288	4
NMTAP	16	0	6
NMTAP	16	96	6
NMTAP	16	192	6
NMTAP	17	0	5
NMTAP	17	96	5
NMTAP	17	192	5
NMTAP	18	0	4
NMTAP	18	96	4
NMTAP	18	192	4
NMTAP	19	0	2
NMTAP	19	0	3
NMTAP	20	0	1
NMTAP	20	96	1
NMTAP	20	192	1
NMTAP	21	0	2
NMTAP	21	96	2
NMTAP	21	192	2
NMTAP	22	0	3
NMTAP	22	96	3
NMTAP	22	192	3
NMTAP	23	0	4
NMTAP	23	0	5
NMTAP	24	0	6
NMTAP	24	96	6
NMTAP	24	192	6
NMTAP	25	0	5
NMTAP	25	96	5
NMTAP	25	192	5
NMTAP	26	0	4
NMTAP	26	96	4
NMTAP	26	192	4
NMTAP	27	0	2
NMTAP	27	0	3
NMTAP	28	0	1
NMTAP	28	96	1
NMTAP	28	192	1
NMTAP	29	0	2
NMTAP	29	96	2
NMTAP	29	192	2
NMTAP	30	0	3
NMTAP	30	96	3
NMTAP	30	192	3
NMTAP	31	0	4
NMTAP	31	0	5
NMHLD	32	0	5	384
NMHLD	33	0	6	384
NMHLD	34	0	7	384
NMHLD	35	0	0	384
NMHLD	36	0	1	384
NMHLD	37	0	2	384
NMTAP	38	0	3
NMTAP	39	0	3
NMTAP	39	0	4
NMHLD	40	0	2	384
NMHLD	41	0	1	384
NMHLD	42	0	0	384
NMHLD	43	0	7	384
NMHLD	44	0	6	384
NMHLD	45	0	5	384
NMTAP	46	0	4
BRTAP	47	0	3
BRTAP	47	0	4
EXTAP	48	0	2
NMTAP	48	96	2
NMTAP	48	192	2
NMTAP	48	288	2
EXTAP	49	0	0
EXTAP	49	0	1
NMTAP	49	96	0
NMTAP	49	96	1
NMTAP	49	192	0
NMTAP	49	192	1
NMTAP	50	0	1
NMTAP	50	96	1
NMTAP	50	192	2
NMTAP	50	288	2
NMTAP	51	0	3
NMTAP	51	96	3
NMTAP	51	192	4
NMTAP	51	192	5
EXTAP	52	0	5
NMTAP	52	96	5
NMTAP	52	192	5
NMTAP	52	288	5
EXTAP	53	0	6
EXTAP	53	0	7
NMTAP	53	96	6
NMTAP	53	96	7
NMTAP	53	192	6
NMTAP	53	192	7
NMTAP	54	0	6
NMTAP	54	96	6
NMTAP	54	192	5
NMTAP	54	288	5
NMTAP	55	0	4
NMTAP	55	96	4
NMTAP	55	192	2
NMTAP	55	192	3
EXTAP	56	0	2
NMTAP	56	96	2
NMTAP	56	192	2
NMTAP	56	288	2
EXTAP	57	0	0
EXTAP	57	0	1
NMTAP	57	96	0
NMTAP	57	96	1
NMTAP	57	192	0
NMTAP	57	192	1
NMTAP	58	0	1
NMTAP	58	96	1
NMTAP	58	192	2
NMTAP	58	288	2
NMTAP	59	0	3
NMTAP	59	96	3
NMTAP	59	192	4
NMTAP	59	192	5
EXTAP	60	0	5
NMTAP	60	96	5
NMTAP	60	192	5
NMTAP	60	288	5
EXTAP	61	0	6
EXTAP	61	0	7
NMTAP	61	96	6
NMTAP	61	96	7
NMTAP	61	192	6
NMTAP	61	192	7
NMTAP	62	0	6
NMTAP	62	96	6
NMTAP	62	192	5
NMTAP	62	288	5
NMTAP	63	0	4
NMTAP	63	96	4
NMTAP	63	192	2
NMTAP	63	192	3
NMSTR	64	0	0
NMSCL	64	0	0	96	384	5
NMSTR	64	0	1
NMSCR	64	0	1	96	384	4
NMSTR	66	0	6
NMSCL	66	0	6	96	384	3
NMSTR	66	0	7
NMSCR	66	0	7	96	384	2
NMSTR	68	0	0
NMSCL	68	0	0	96	384	5
NMSTR	68	0	1
NMSCR	68	0	1	96	384	4
NMTAP	70	0	6
NMTAP	70	96	6
NMTAP	70	192	7
NMTAP	70	288	7
NMTAP	71	0	0
NMTAP	71	0	7
NMTAP	71	96	0
NMTAP	71	96	7
BRTAP	71	192	1
BRTAP	71	192	6
NMTTP	72	0	2	B	0	L1
NMTTP	72	192	1	B	0	L1
NMTTP	73	0	0	B	0	L1
NMTTP	73	192	7	B	0	L1
NMTTP	74	0	6	B	0	L1
NMTTP	74	192	5	B	0	L1
NMTTP	75	0	3	B	0	L1
NMTTP	75	0	4	B	0	L1
NMTTP	76	0	5	E	0	L1
NMTTP	76	192	6	E	0	L1
NMTTP	77	0	7	E	0	L1
NMTTP	77	192	0	E	0	L1
NMTTP	78	0	1	E	0	L1
NMTTP	78	192	2	E	0	L1
NMTTP	79	0	3	E	0	L1
NMTTP	79	0	4	E	0	L1
NMTTP	79	0	5	E	0	L1
NMTTP	80	0	5	B	0	L1
NMTTP	80	192	6	B	0	L1
NMTTP	81	0	7	B	0	L1
NMTTP	81	192	0	B	0	L1
NMTTP	82	0	1	B	0	L1
NMTTP	82	192	2	B	0	L1
NMTTP	83	0	3	B	0	L1
NMTTP	83	0	4	B	0	L1
NMTTP	84	0	3	E	0	L1
NMTTP	84	192	2	E	0	L1
NMTTP	85	0	1	E	0	L1
NMTTP	85	192	0	E	0	L1
NMTTP	86	0	7	E	0	L1
NMTTP	86	192	6	E	0	L1
NMTTP	87	0	3	E	0	L1
NMTTP	87	0	4	E	0	L1
NMTTP	87	0	5	E	0	L1
NMSTR	88	0	1
NMSI_	88	0	1	96	288	6
NMSTR	90	0	5
NMSI_	90	0	5	96	288	2
NMSTR	92	0	3
NMSI_	92	0	3	96	288	0
NMSTR	94	0	7
NMSI_	94	0	7	96	288	4
EXTAP	96	0	2
EXTAP	96	0	3
EXTAP	96	144	2
EXTAP	96	144	3
EXTAP	97	0	4
EXTAP	97	0	5
EXTAP	97	144	4
EXTAP	97	144	5
EXTAP	98	0	1
EXTAP	98	0	3
EXTAP	98	144	1
EXTAP	98	144	3
EXTAP	99	0	4
EXTAP	99	0	6
EXTAP	99	144	4
EXTAP	99	144	6
NMTAP	100	0	7
NMTAP	100	192	7
NMTAP	101	0	0
NMTAP	101	192	0
NMTAP	102	0	0
NMTAP	102	0	7
NMTAP	102	192	0
NMTAP	102	192	7
BRTAP	103	0	0
BRTAP	103	0	7
NMHLD	104	0	1	192
NMHLD	104	192	2	192
NMHLD	105	0	3	192
NMHLD	105	192	4	192
NMHLD	106	0	5	192
NMHLD	106	192	6	192
NMTAP	107	0	7
NMHLD	108	0	6	192
NMHLD	108	192	5	192
NMHLD	109	0	4	192
NMHLD	109	192	3	192
NMHLD	110	0	2	192
NMHLD	110	192	1	192
NMTAP	111	0	0
NMTAP	112	0	0
NMTAP	112	0	1
NMTAP	112	192	0
NMTAP	112	192	1
NMTAP	113	0	2
NMTAP	113	0	3
NMTAP	113	192	2
NMTAP	113	192	3
NMTAP	114	0	4
NMTAP	114	0	5
NMTAP	114	192	4
NMTAP	114	192	5
NMTAP	115	0	6
NMTAP	115	0	7
NMTAP	115	192	6
NMTAP	115	192	7
NMTAP	116	0	5
NMTAP	116	96	5
NMTAP	116	192	5
NMTAP	117	0	4
NMTAP	117	96	4
NMTAP	117	192	4
NMTAP	118	0	3
NMTAP	118	96	3
NMTAP	118	192	3
NMTAP	119	0	2
NMTAP	119	96	2
NMTAP	119	192	2
NMTTP	120	0	0	C	1	L1
NMTAP	122	0	1
NMTAP	122	96	1
NMTAP	122	192	0
NMTAP	122	192	1
NMTAP	122	288	0
NMTAP	122	288	1
NMTAP	123	0	2
NMTAP	123	96	2
NMTAP	123	192	2
NMTAP	123	192	3
NMTAP	123	288	2
NMTAP	123	288	3
NMTAP	124	0	1
NMTAP	124	96	1
NMTAP	124	192	2
NMTAP	124	288	3
NMTAP	125	0	4
NMTAP	125	96	5
EXTAP	125	192	6
EXTAP	125	192	7
NMTAP	126	0	6
NMTAP	126	96	6
NMTAP	126	192	6
NMTAP	126	192	7
NMTAP	126	288	6
NMTAP	126	288	7
NMTAP	127	0	5
NMTAP	127	96	5
NMTAP	127	192	4
NMTAP	127	192	5
NMTAP	127	288	4
NMTAP	127	288	5
NMTAP	128	0	6
NMTAP	128	96	6
NMTAP	128	192	5
NMTAP	128	288	4
NMTAP	129	0	3
NMTAP	129	96	2
EXTAP	129	192	0
EXTAP	129	192	1
NMTAP	130	0	1
NMTAP	130	96	1
NMTAP	130	192	0
NMTAP	130	192	1
NMTAP	130	288	0
NMTAP	130	288	1
NMTAP	131	0	2
NMTAP	131	96	2
NMTAP	131	192	2
NMTAP	131	192	3
NMTAP	131	288	2
NMTAP	131	288	3
NMTAP	132	0	1
NMTAP	132	96	1
NMTAP	132	192	2
NMTAP	132	288	3
NMTAP	133	0	4
NMTAP	133	96	5
EXTAP	133	192	6
EXTAP	133	192	7
NMTAP	134	0	6
NMTAP	134	96	6
NMTAP	134	192	6
NMTAP	134	192	7
NMTAP	134	288	6
NMTAP	134	288	7
NMTAP	135	0	5
NMTAP	135	96	5
NMTAP	135	192	4
NMTAP	135	192	5
NMTAP	135	288	4
NMTAP	135	288	5
NMTAP	136	0	6
NMTAP	136	96	6
NMTAP	136	192	5
NMTAP	136	288	4
NMTAP	137	0	3
NMTAP	137	96	2
EXTAP	137	192	0
EXTAP	137	192	1
NMSTR	138	0	0
NMSXL	138	0	0	96	1056	3
NMSTR	138	0	7
NMSXR	138	0	7	96	1056	4
NMTAP	142	0	3
NMTAP	142	96	3
NMTAP	142	192	3
EXTAP	143	0	2
EXTAP	143	0	4
EXTAP	143	144	2
EXTAP	143	144	4
NMTAP	144	0	4
NMTAP	144	96	4
NMTAP	144	192	4
EXTAP	145	0	3
EXTAP	145	0	5
EXTAP	145	144	3
EXTAP	145	144	5
NMTAP	146	0	2
NMTAP	146	96	2
NMTAP	146	192	2
EXTAP	147	0	1
EXTAP	147	0	3
EXTAP	147	144	1
EXTAP	147	144	3
NMTAP	148	0	5
NMTAP	148	96	5
NMTAP	148	192	5
EXTAP	149	0	4
EXTAP	149	0	6
EXTAP	149	144	4
EXTAP	149	144	6
NMTHO	150	0	0	768	C	1	L1

T_REC_TAP	250
T_REC_BRK	6
T_REC_XTP	52
T_REC_BXX	0
T_REC_HLD	32
T_REC_XHO	0
T_REC_BHO	0
T_REC_BXH	0
T_REC_STR	16
T_REC_BST	0
T_REC_XST	0
T_REC_XBS	0
T_REC_TTP	35
T_REC_THO	1
T_REC_SLD	16
T_REC_BSL	0
T_REC_ALL	408
T_NUM_TAP	353
T_NUM_BRK	6
T_NUM_HLD	33
T_NUM_SLD	16
T_NUM_ALL	408
T_JUDGE_TAP	359
T_JUDGE_HLD	96
T_JUDGE_SLD	16
T_JUDGE_ALL	471
TTM_EACHPAIRS	82
TTM_SCR_TAP	176500
TTM_SCR_BRK	15600
TTM_SCR_HLD	33000
TTM_SCR_SLD	24000
TTM_SCR_ALL	249100
TTM_SCR_S	241050
TTM_SCR_SS	248500
TTM_RAT_ACV	10024

