VERSION	0.00.00	1.04.00
FES_MODE	0
BPM_DEF	155.000	155.000	155.000	155.000
MET_DEF	4	4
RESOLUTION	384
CLK_DEF	384
COMPATIBLE_CODE	MA2

BPM	0	0	155.000
MET	0	0	4	4

BRTAP	1	0	0
BRTAP	1	0	7
EXTAP	1	6	1
EXTAP	1	6	6
EXTAP	1	12	2
EXTAP	1	12	5
EXHLD	1	18	3	558
EXTAP	1	18	4
NMTTP	1	288	4	E	0	M1
NMTTP	2	0	3	E	0	M1
NMTTP	2	0	3	D	0	M1
NMTTP	2	96	5	E	0	M1
NMTTP	2	96	5	D	0	M1
EXTAP	2	192	7
EXHLD	2	240	7	72
BXTAP	2	312	0
BRTAP	3	0	0
BRTAP	3	0	7
EXTAP	3	6	1
EXTAP	3	6	6
EXTAP	3	12	2
EXTAP	3	12	5
EXTAP	3	18	3
EXHLD	3	18	4	270
NMTAP	3	144	3
NMHLD	3	192	3	96
BXTAP	4	0	1
BXTAP	4	24	3
BXTAP	4	48	1
BXTAP	4	72	3
BXTAP	4	96	1
BXTAP	4	144	6
BXTAP	4	168	4
BXTAP	4	192	6
BXTAP	4	216	4
BXTAP	4	240	6
BRSTR	4	288	3
NMSI_	4	288	3	96	48	0
BRSTR	4	288	7
NMSI_	4	288	7	96	48	4
NMTAP	5	0	3
NMTAP	5	0	7
NMHLD	5	96	1	48
NMHLD	5	96	5	48
NMHLD	5	192	1	48
NMHLD	5	192	4	48
NMHLD	5	288	1	48
NMHLD	5	288	3	48
NMHLD	6	0	2	48
NMHLD	6	0	4	48
NMHLD	6	96	1	48
NMHLD	6	96	3	48
NMTAP	6	192	2
NMTAP	6	192	4
BXTAP	6	240	2
BXTAP	6	240	4
BXTAP	6	312	4
BXTAP	6	312	5
BXHLD	7	0	2	48
BXHLD	7	0	6	48
NMHLD	7	96	2	48
NMHLD	7	96	6	48
NMHLD	7	192	3	48
NMHLD	7	192	5	48
NMHLD	7	288	3	48
NMHLD	7	288	4	48
NMTAP	8	0	3
NMTAP	8	12	2
NMTAP	8	24	1
NMTAP	8	36	0
NMTAP	8	48	7
NMTAP	8	60	6
NMTAP	8	72	5
NMTAP	8	84	4
NMTAP	8	96	3
NMTAP	8	108	2
NMTAP	8	120	1
NMTAP	8	132	0
NMTAP	8	144	7
NMTAP	8	156	6
NMTAP	8	168	5
NMTAP	8	180	4
NMTAP	8	192	3
NMTAP	8	204	2
NMTAP	8	216	1
NMTAP	8	228	0
NMTAP	8	240	7
NMTAP	8	252	6
NMTAP	8	264	5
NMTAP	8	276	4
BXTAP	8	288	7
NMHLD	9	0	2	96
NMTAP	9	0	4
NMTAP	9	48	3
NMHLD	9	96	4	96
NMTAP	9	144	3
NMTAP	9	192	1
NMTAP	9	216	3
NMTAP	9	240	1
NMTAP	9	288	4
NMTAP	9	312	2
NMTAP	9	336	4
NMTAP	10	0	3
NMHLD	10	0	5	96
NMTAP	10	48	4
NMHLD	10	96	3	96
NMTAP	10	144	4
NMTAP	10	192	6
NMTAP	10	216	4
BXTAP	10	240	6
NMTAP	10	288	3
BXTAP	10	312	5
NMTAP	10	336	3
NMHLD	11	0	1	96
BXTAP	11	0	4
NMTAP	11	48	3
NMHLD	11	96	4	96
NMTAP	11	144	2
NMTAP	11	192	1
NMTAP	11	216	3
NMTAP	11	240	1
NMTAP	11	288	6
NMTAP	11	312	4
NMTAP	11	336	6
NMHLD	12	0	3	24
NMHLD	12	0	5	24
NMHLD	12	48	3	24
NMHLD	12	48	5	24
NMHLD	12	96	2	24
NMHLD	12	96	4	24
NMHLD	12	144	2	24
NMHLD	12	144	4	24
NMHLD	12	192	3	24
NMHLD	12	192	5	24
NMHLD	12	240	2	24
NMHLD	12	240	6	24
EXTAP	12	288	1
EXSTR	12	288	7
NMSCL	12	288	7	96	48	4
BRTAP	13	0	0
NMTAP	13	48	0
NMTAP	13	96	1
NMTAP	13	120	3
NMTAP	13	168	3
BRTAP	13	192	2
NMTAP	13	240	3
NMTAP	13	240	7
NMTAP	13	288	6
NMTAP	13	312	4
NMTAP	13	360	4
BRTAP	14	0	5
NMTAP	14	48	5
BRTAP	14	96	0
NMTAP	14	96	3
NMTAP	14	144	2
NMTAP	14	192	4
BRTAP	14	192	7
NMTAP	14	216	6
NMTAP	14	240	5
NMTAP	14	264	4
BRTAP	14	288	0
NMTAP	14	288	3
NMTAP	14	312	1
NMTAP	14	336	2
NMTAP	14	360	3
NMSTR	15	0	4
NMSV_	15	0	4	96	48	3
NMHLD	15	0	5	384
CNSI_	15	144	3	0	48	1
CNSI_	15	192	1	0	48	7
CNSI_	15	240	7	0	48	5
CNSI_	15	288	5	0	48	0
EXTAP	16	0	0
NMTAP	16	96	2
EXTAP	16	96	7
EXSTR	16	192	0
NMSI_	16	192	0	96	48	4
NMTAP	16	192	5
NMTAP	16	240	6
EXTAP	16	288	0
NMTAP	16	288	7
NMTAP	17	0	5
NMTAP	17	24	5
NMTAP	17	48	3
NMTAP	17	72	3
NMTAP	17	96	4
NMTAP	17	120	4
NMTAP	17	144	2
NMTAP	17	168	2
EXHLD	17	192	6	96
BXTAP	17	288	0
BXTAP	17	312	7
BXTAP	17	336	0
BXTAP	17	360	7
NMTTP	18	0	0	C	1	M1
NMHLD	18	96	6	48
NMHLD	18	96	7	48
NMHLD	18	168	0	48
NMHLD	18	168	5	48
NMTAP	18	240	1
NMTAP	18	240	4
EXSTR	18	288	2
NMSLL	18	288	2	96	96	4
EXTAP	18	312	3
EXTAP	18	336	2
EXTAP	18	360	3
EXTAP	19	0	2
EXTAP	19	48	5
BXSTR	19	96	6
NMSLL	19	96	6	96	96	0
EXTAP	19	192	3
EXTAP	19	192	6
EXTAP	19	240	2
EXHLD	19	288	1	96
NMTTP	20	0	3	B	0	M1
NMTTP	20	0	4	B	0	M1
NMTTP	20	0	4	E	0	M1
NMTTP	20	72	0	C	0	M1
EXTAP	20	72	6
EXHLD	20	144	0	48
EXHLD	20	144	7	48
EXTAP	20	216	1
EXTAP	20	216	6
NMTAP	20	264	2
NMTAP	20	288	3
NMTAP	20	336	2
NMTAP	20	336	4
NMTAP	21	0	1
NMTAP	21	0	5
NMTAP	21	48	1
NMTAP	21	48	5
NMTAP	21	96	6
NMTAP	21	120	6
NMTAP	21	144	0
NMTAP	21	168	0
NMTTP	21	192	5	E	0	M1
NMTTP	21	204	4	E	0	M1
NMTTP	21	216	3	E	0	M1
NMTTP	21	228	2	E	0	M1
NMTTP	21	240	1	E	0	M1
NMTTP	21	252	0	E	0	M1
NMTTP	21	264	7	E	0	M1
NMTTP	21	276	6	E	0	M1
NMTTP	21	288	0	C	1	M1
NMTTP	21	288	5	E	0	M1
BRTAP	22	0	1
BRTAP	22	0	7
BRTAP	22	48	0
BRTAP	22	72	0
BRTAP	22	96	0
BRTAP	22	120	0
BRTAP	22	144	0
BRTAP	22	168	0
EXTAP	22	192	1
EXTAP	22	192	7
EXTAP	22	240	2
EXTAP	22	240	6
BXTAP	22	288	3
BXTAP	22	288	5
BXTAP	22	336	2
BXTAP	22	336	6
NMSTR	23	0	0
NMSSR	23	0	0	96	48	4
NMTAP	23	24	7
NMTAP	23	48	0
NMTAP	23	72	7
NMSTR	23	192	7
NMSSR	23	192	7	96	48	3
NMTAP	23	216	0
NMTAP	23	240	7
NMTAP	23	264	0
NMTAP	24	0	2
NMTAP	24	24	4
NMTAP	24	48	2
NMTAP	24	72	4
NMTAP	24	96	3
NMTAP	24	120	5
NMTAP	24	144	3
NMTAP	24	168	5
NMTAP	24	192	3
NMTAP	24	216	4
NMTAP	24	240	3
NMTAP	24	264	4
EXSTR	24	288	1
NMSI_	24	288	1	96	48	7
EXTAP	24	288	5
BRSTR	25	0	1
NMSI_	25	0	1	96	48	5
BRTAP	25	0	4
NMTAP	25	48	3
NMTAP	25	72	3
NMSTR	25	96	1
NMSCR	25	96	1	96	48	4
NMTAP	25	144	6
NMTAP	25	192	1
NMTAP	25	240	6
NMTAP	25	264	7
NMTAP	25	288	5
NMTAP	25	312	0
NMTAP	25	336	4
NMTAP	25	360	1
NMSTR	26	0	6
NMSI_	26	0	6	96	48	2
NMTAP	26	48	4
NMTAP	26	72	4
NMSTR	26	96	6
NMSCL	26	96	6	96	48	3
NMTAP	26	144	0
NMTAP	26	192	6
NMTAP	26	240	1
NMTAP	26	264	0
NMTAP	26	288	2
NMTAP	26	312	7
NMTAP	26	336	3
NMTAP	26	360	6
NMTAP	27	0	4
NMTAP	27	24	4
NMTAP	27	48	5
NMTAP	27	72	5
NMHLD	27	96	0	48
NMTAP	27	144	3
NMTAP	27	168	3
NMTAP	27	192	2
NMTAP	27	216	2
NMHLD	27	240	7	48
NMTAP	27	288	0
NMTAP	27	304	1
NMTAP	27	320	2
EXTAP	27	336	3
EXTAP	27	336	6
EXTAP	28	0	4
EXTAP	28	0	5
EXTAP	28	48	3
EXTAP	28	48	4
EXTAP	28	96	2
EXTAP	28	96	3
EXTAP	28	120	2
EXTAP	28	120	3
EXSTR	28	168	1
NMSI_	28	168	1	96	24	3
EXSTR	28	168	4
NMSI_	28	168	4	96	24	0
EXTAP	28	240	1
EXTAP	28	240	4
NMTAP	28	336	7
NMTAP	28	352	6
NMTAP	28	368	5
BXTAP	29	0	0
BXTAP	29	0	4
NMTAP	29	48	2
NMTAP	29	48	3
NMHLD	29	96	1	48
NMTAP	29	96	4
NMTAP	29	144	6
NMTAP	29	168	2
NMTAP	29	192	5
NMTAP	29	216	2
NMTAP	29	240	4
NMTAP	29	264	2
NMTAP	29	288	3
NMTAP	29	312	2
NMTAP	29	336	3
NMTAP	29	360	2
BRTAP	30	0	4
NMTAP	30	24	2
NMTAP	30	48	0
NMTAP	30	72	2
BRTAP	30	96	3
NMTAP	30	120	2
NMTAP	30	144	7
NMTAP	30	168	2
BRTAP	30	192	4
NMTAP	30	216	2
NMTAP	30	240	0
NMTAP	30	264	2
BRSTR	30	288	6
NMSI_	30	288	6	96	48	2
NMTAP	30	312	1
NMTAP	30	336	7
NMTAP	30	360	0
NMTAP	31	0	6
BXTAP	31	96	0
BXTAP	31	120	0
BXTAP	31	168	1
BXTAP	31	168	7
BXTAP	31	216	2
BXTAP	31	216	6
BXTAP	31	264	3
BXTAP	31	264	5
BXTAP	31	288	3
BXTAP	31	288	5
BXTAP	31	336	2
BXTAP	31	336	4
NMHLD	32	0	1	48
NMHLD	32	0	3	48
NMHLD	32	96	2	48
NMHLD	32	96	4	48
NMTAP	32	192	3
NMTAP	32	192	4
NMTAP	32	240	3
NMTAP	32	240	4
NMTAP	32	288	3
NMTAP	32	312	4
NMTAP	32	336	3
NMTAP	32	360	4
NMSTR	33	0	2
NMSI_	33	0	2	96	48	0
NMTAP	33	48	6
EXTAP	33	96	2
NMTAP	33	96	5
NMTAP	33	144	4
NMSTR	33	192	2
NMSI_	33	192	2	96	48	0
NMTAP	33	192	3
NMTAP	33	240	6
EXTAP	33	288	2
NMTAP	33	288	5
NMTAP	33	336	4
NMSTR	34	0	2
NMSI_	34	0	2	96	48	7
NMTAP	34	0	3
NMTAP	34	48	6
EXTAP	34	96	2
NMTAP	34	96	5
NMTAP	34	144	4
NMSTR	34	192	2
NMSI_	34	192	2	96	48	7
NMTAP	34	192	3
NMTAP	34	240	4
EXTAP	34	288	2
NMTAP	34	288	5
NMTAP	34	336	5
NMTAP	35	0	0
NMSTR	35	0	5
NMSI_	35	0	5	96	48	7
NMTAP	35	48	1
NMTAP	35	96	2
EXTAP	35	96	5
NMTAP	35	144	3
NMTAP	35	192	4
NMSTR	35	192	5
NMSI_	35	192	5	96	48	7
NMTAP	35	240	1
NMTAP	35	288	2
EXTAP	35	288	5
NMTAP	35	336	3
NMTAP	36	0	4
NMSTR	36	0	5
NMSI_	36	0	5	96	48	0
NMTAP	36	48	1
NMTAP	36	96	2
EXTAP	36	96	5
NMTAP	36	144	3
NMTAP	36	192	1
NMTAP	36	192	7
NMTAP	36	240	1
NMTAP	36	240	7
EXTAP	36	288	6
NMTAP	36	312	0
NMTAP	36	336	6
NMTAP	36	360	0
NMTAP	37	0	6
NMTAP	37	24	5
NMTAP	37	48	4
NMTAP	37	72	7
NMTAP	37	96	6
NMTAP	37	120	5
NMHLD	37	144	7	48
NMTAP	37	192	1
NMTAP	37	216	2
NMTAP	37	240	3
NMTAP	37	264	0
NMTAP	37	288	1
NMTAP	37	312	2
NMHLD	37	336	0	48
NMTAP	38	0	6
NMTAP	38	24	5
NMTAP	38	48	4
NMTAP	38	72	7
NMTAP	38	96	6
NMTAP	38	120	5
NMHLD	38	144	7	48
NMTAP	38	192	1
NMTAP	38	216	2
NMTAP	38	240	3
NMTAP	38	264	0
NMTAP	38	288	1
NMTAP	38	312	2
NMHLD	38	336	0	48
NMTAP	39	0	7
NMTAP	39	24	1
NMTAP	39	48	7
NMTAP	39	72	1
NMTAP	39	96	6
NMTAP	39	120	2
NMTAP	39	144	6
NMTAP	39	168	2
EXHLD	39	192	5	12
EXHLD	39	216	3	12
EXHLD	39	240	5	12
EXHLD	39	264	3	12
EXHLD	39	288	4	12
EXHLD	39	312	4	12
EXHLD	39	336	4	12
EXHLD	39	360	4	12
EXSTR	40	0	4
NMSI_	40	0	4	96	48	2
EXSTR	40	96	4
NMSI_	40	96	4	96	48	6
EXTAP	40	192	4
BXTAP	40	288	0
BXTAP	40	288	7
NMHLD	41	0	1	24
NMHLD	41	0	7	24
NMHLD	41	48	2	24
NMHLD	41	48	3	24
NMHLD	41	96	3	24
NMHLD	41	96	4	24
NMHLD	41	144	4	24
NMHLD	41	144	5	24
NMHLD	41	192	0	24
NMHLD	41	192	6	24
NMHLD	41	240	4	24
NMHLD	41	240	5	24
NMHLD	41	288	3	24
NMHLD	41	288	4	24
NMHLD	41	336	2	24
NMHLD	41	336	3	24
NMTAP	42	0	1
NMTAP	42	48	0
NMTAP	42	48	2
EXSTR	42	96	5
NMSCL	42	96	5	96	48	2
NMTAP	42	144	4
NMTAP	42	144	6
BXSTR	42	192	0
NMSI_	42	192	0	96	48	4
NMHLD	42	288	7	96
BXTAP	43	0	4
NMTAP	43	96	3
NMTAP	43	96	6
NMTAP	43	168	1
NMTAP	43	168	4
NMTAP	43	216	0
NMTAP	43	216	7
NMTAP	43	264	1
NMTAP	43	264	6
NMTAP	43	288	1
NMTAP	43	288	6
NMTAP	43	336	3
NMTAP	43	336	4
BRHLD	44	0	4	48
BRHLD	44	0	5	48
BRHLD	44	96	2	48
BRHLD	44	96	3	48
BRTAP	44	168	1
BRTAP	44	168	4
NMTTP	44	288	2	B	0	M1
NMTTP	44	288	3	B	0	M1
NMTTP	44	288	3	E	0	M1
NMTTP	44	336	5	B	0	M1
NMTTP	44	336	6	B	0	M1
NMTTP	44	336	6	E	0	M1
BRTAP	45	0	0
BRTAP	45	48	0
BXHLD	45	96	0	48
BRTAP	45	96	7
EXTAP	45	108	6
EXTAP	45	120	5
EXTAP	45	132	4
BXHLD	45	192	0	48
BRTAP	45	192	1
EXTAP	45	204	2
EXTAP	45	216	3
EXTAP	45	228	4
BXHLD	45	288	0	48
BRTAP	45	288	7
EXTAP	45	300	6
EXTAP	45	312	5
EXTAP	45	324	4
BRTAP	46	0	1
BXHLD	46	0	7	48
EXTAP	46	12	2
EXTAP	46	24	3
EXTAP	46	36	4
BXHLD	46	96	0	48
BRTAP	46	96	6
EXTAP	46	108	5
EXTAP	46	120	4
EXTAP	46	132	3
NMTAP	46	192	0
NMTAP	46	216	6
NMTAP	46	240	0
NMTAP	46	264	6
NMSTR	46	288	0
NMSI_	46	288	0	96	48	4
NMSTR	47	0	4
NMSI_	47	0	4	96	48	2
NMSI_	47	0	4	96	48	6
NMSTR	47	192	3
NMSI_	47	192	3	96	48	1
NMSI_	47	192	3	96	48	5
NMSTR	48	0	4
NMSI_	48	0	4	96	48	2
NMSI_	48	0	4	96	48	6
NMTAP	48	192	1
NMTAP	48	240	0
NMTAP	48	288	7
NMTAP	48	336	6
BRSTR	49	0	0
NMSI_	49	0	0	96	48	4
NMSTR	49	48	7
NMSI_	49	48	7	96	48	5
BXSTR	49	96	0
NMSI_	49	96	0	96	48	2
NMSTR	49	144	7
NMSI_	49	144	7	96	48	3
NMSTR	49	192	0
NMSI_	49	192	0	96	48	5
NMSTR	49	240	7
NMSI_	49	240	7	96	48	4
BXSTR	49	288	0
NMSI_	49	288	0	96	48	3
NMSTR	49	336	7
NMSI_	49	336	7	96	48	2
NMSTR	50	0	0
NMSI_	50	0	0	96	48	4
NMTAP	50	48	7
BXTAP	50	96	0
NMTAP	50	144	7
NMTAP	50	192	5
NMTAP	50	216	3
NMTAP	50	240	5
NMTAP	50	264	3
NMTAP	50	288	4
NMTAP	50	312	2
NMTAP	50	336	5
NMTAP	50	360	1
BXTAP	51	0	7
NMTAP	51	96	4
NMTAP	51	96	6
NMTAP	51	144	3
NMTAP	51	144	4
NMTAP	51	168	3
NMTAP	51	168	4
NMTAP	51	216	1
NMTAP	51	216	3
NMTAP	51	264	0
NMTAP	51	264	7
NMTAP	51	288	0
NMTAP	51	288	7
NMTAP	51	336	1
NMTAP	51	336	6
BRHLD	52	0	2	48
BRHLD	52	0	4	48
BRHLD	52	96	3	48
BRHLD	52	96	5	48
BRTAP	52	168	2
BRHLD	52	168	6	72
EXTAP	52	240	7
EXTAP	52	288	0
EXTAP	52	288	5
BXTAP	53	0	1
BXTAP	53	0	6
BXTAP	53	48	2
BXTAP	53	48	5
BRTAP	53	96	3
NMTAP	53	120	4
NMTAP	53	144	4
NMTAP	53	168	4
BRTAP	53	192	2
NMTAP	53	216	4
NMTAP	53	240	4
NMTAP	53	264	4
BRTAP	53	288	1
NMTAP	53	312	4
NMTAP	53	336	4
NMTAP	53	360	4
BRTAP	54	0	0
NMTAP	54	24	3
BRTAP	54	48	1
NMTAP	54	72	3
BRTAP	54	96	2
NMTAP	54	120	3
BRTAP	54	144	4
NMTAP	54	168	3
BRTAP	54	192	5
NMTAP	54	216	3
BRTAP	54	240	6
NMTAP	54	264	3
BRSTR	54	288	7
NMSI_	54	288	7	96	48	3
NMSTR	55	0	3
NMSI_	55	0	3	96	48	1
NMSI_	55	0	3	96	48	5
NMSTR	55	192	4
NMSI_	55	192	4	96	48	2
NMSI_	55	192	4	96	48	6
NMSTR	56	0	3
NMSI_	56	0	3	96	48	1
NMSI_	56	0	3	96	48	5
NMTTP	56	192	6	E	0	M1
NMTTP	56	240	5	E	0	M1
NMTTP	56	288	3	E	0	M1
NMTTP	56	336	2	E	0	M1
BRSTR	57	0	0
NMTTP	57	0	0	C	1	M1
BRSF_	57	0	0	96	672	4
NMHLD	61	0	4	384
NMHLD	62	0	3	384
NMTHO	63	0	0	576	C	0	M1
NMTAP	64	288	0
NMTAP	64	312	7
NMTAP	64	336	0
NMHLD	64	360	7	96
EXHLD	65	0	0	72
NMSTR	65	96	1
NMSI_	65	96	1	96	48	4
NMTAP	65	108	2
NMTAP	65	120	3
NMSTR	65	144	7
NMSI_	65	144	7	96	48	3
NMTAP	65	156	6
NMTAP	65	168	5
NMTAP	65	192	1
EXSTR	65	240	7
NMSF_	65	240	7	96	48	3
BXTAP	65	336	7
NMTAP	66	96	1
NMTAP	66	120	0
NMTAP	66	144	1
NMTAP	66	168	0
BXHLD	66	192	2	96
NMTTP	66	288	6	E	0	M1
NMTTP	66	300	5	B	0	M1
NMTTP	66	312	4	B	0	M1
NMTTP	66	324	4	E	0	M1
NMTTP	66	336	2	E	0	M1
NMTTP	66	348	2	B	0	M1
NMTTP	66	360	3	B	0	M1
NMTTP	66	372	4	E	0	M1
BXHLD	67	0	6	96
NMTAP	67	96	0
NMTAP	67	120	7
NMTAP	67	144	0
NMTAP	67	168	7
EXTAP	67	192	2
EXTAP	67	192	6
BRTAP	67	240	5
BRTAP	67	264	3
BRTAP	67	288	5
BRTAP	67	312	3
BRTAP	67	336	5
BRTAP	67	360	3
NMHLD	68	0	4	24
NMHLD	68	48	4	24
EXTAP	68	96	0
NMHLD	68	96	4	24
EXTAP	68	144	1
NMHLD	68	144	4	24
EXTAP	68	192	2
NMHLD	68	192	4	24
EXTAP	68	240	3
NMHLD	68	240	4	24
NMHLD	68	288	4	24
NMHLD	68	336	4	24
NMTAP	69	0	2
NMTAP	69	24	3
NMTAP	69	48	2
NMTAP	69	72	5
NMTAP	69	96	4
NMTAP	69	120	5
NMHLD	69	144	3	24
NMTAP	69	192	6
NMTAP	69	216	4
NMTAP	69	240	6
NMTAP	69	264	1
NMTAP	69	288	3
NMTAP	69	312	1
NMHLD	69	336	4	24
NMTAP	70	0	2
NMTAP	70	24	3
NMTAP	70	48	1
NMTAP	70	72	5
NMTAP	70	96	4
NMTAP	70	120	6
NMHLD	70	144	0	24
NMTAP	70	192	6
NMTAP	70	216	4
NMTAP	70	240	5
NMTAP	70	264	1
NMTAP	70	288	3
NMTAP	70	312	2
NMHLD	70	336	7	24
NMTAP	71	0	0
NMTAP	71	24	6
NMTAP	71	48	0
NMTAP	71	72	6
NMTAP	71	96	1
NMTAP	71	120	5
NMTAP	71	144	1
NMTAP	71	168	5
NMTAP	71	192	0
NMTAP	71	204	1
NMTAP	71	216	2
NMTAP	71	228	3
NMTAP	71	240	4
NMTAP	71	240	7
NMTAP	71	252	6
NMTAP	71	264	5
NMTAP	71	276	4
NMTAP	71	288	0
NMTAP	71	288	3
NMTAP	71	300	1
NMTAP	71	312	2
NMTAP	71	324	3
NMTAP	71	336	4
NMTAP	71	336	7
NMTAP	71	348	6
NMTAP	71	360	5
NMTAP	71	372	4
BRTAP	72	0	0
NMHLD	72	0	3	384
NMHLD	73	0	2	192
NMTTP	73	96	3	D	0	M1
NMHLD	73	192	4	192
NMTTP	73	288	4	B	0	M1
NMHLD	74	0	3	192
NMTTP	74	96	4	D	0	M1
NMHLD	74	192	5	192
NMTTP	74	288	5	B	0	M1
NMTTP	75	0	4	E	0	M1
NMTTP	75	24	3	B	0	M1
NMTTP	75	48	2	B	0	M1
NMTTP	75	72	2	E	0	M1
NMTTP	75	96	1	A	0	M1
NMTTP	75	144	6	A	0	M1
NMTTP	75	168	6	E	0	M1
NMTTP	75	192	5	B	0	M1
NMTTP	75	216	4	B	0	M1
NMTTP	75	240	4	E	0	M1
NMTAP	75	288	1
NMTAP	75	312	1
NMTAP	75	336	0
EXTAP	76	0	2
EXTAP	76	0	7
EXTAP	76	48	1
EXTAP	76	48	6
EXTAP	76	96	0
EXTAP	76	96	5
EXTAP	76	120	0
EXTAP	76	120	5
EXHLD	76	168	6	72
EXTAP	76	168	7
NMTAP	76	240	0
NMTAP	76	252	1
NMTAP	76	264	2
NMTAP	76	276	3
NMSTR	76	288	4
NMSF_	76	288	4	96	48	0
NMTAP	76	300	5
NMTAP	76	312	6
NMTAP	76	324	7
NMTAP	76	336	0
NMTAP	76	348	1
NMTAP	76	360	2
NMTAP	76	372	3
NMTTP	77	0	4	A	1	M1
BXTAP	77	96	2
BXTAP	77	96	6
NMTAP	77	144	7
NMTAP	77	168	1
NMTAP	77	192	7
NMTAP	77	216	1
NMTAP	77	240	7
NMTAP	77	264	1
NMTAP	77	288	7
NMTAP	77	300	6
NMTAP	77	312	5
NMTAP	77	336	2
NMTAP	77	360	2
NMTAP	78	0	0
NMTAP	78	12	7
NMTAP	78	24	6
NMTAP	78	48	3
NMTAP	78	72	3
NMTAP	78	96	1
NMTAP	78	108	0
NMTAP	78	120	7
NMTAP	78	144	4
NMTAP	78	168	4
NMTAP	78	192	6
NMTAP	78	216	6
NMTAP	78	240	0
NMTAP	78	264	0
NMTAP	78	288	2
NMTAP	78	312	2
NMTAP	78	336	4
NMTAP	78	360	4
BXTAP	79	0	3
BXTAP	79	0	5
NMTAP	79	96	2
NMTAP	79	96	3
NMTAP	79	120	2
NMTAP	79	120	3
NMTAP	79	168	1
NMTAP	79	168	4
NMTAP	79	216	2
NMTAP	79	216	5
NMTAP	79	264	3
NMTAP	79	264	6
NMSTR	79	288	3
NMSCL	79	288	3	96	48	0
NMTAP	79	288	6
NMTAP	79	336	2
EXTAP	80	0	3
NMSTR	80	0	6
NMSCL	80	0	6	96	48	4
NMTAP	80	48	7
NMTAP	80	96	2
EXTAP	80	96	6
NMTAP	80	144	1
NMTAP	80	192	0
NMTAP	80	216	4
NMTAP	80	240	0
NMTAP	80	264	4
NMTAP	80	288	0
NMTAP	80	300	7
NMTAP	80	312	6
NMTAP	80	324	5
NMTAP	80	336	4
NMTAP	80	348	3
NMTAP	80	360	2
NMTAP	80	372	1
EXSTR	81	0	0
BRSSL	81	0	0	96	48	4
EXSTR	81	0	7
BRSSR	81	0	7	96	48	3
BRTAP	81	96	0
BRTAP	81	96	7
NMTAP	81	192	1
NMTAP	81	192	5
NMTAP	81	240	6
NMTAP	81	264	7
NMTAP	81	288	5
NMTAP	81	312	0
NMTAP	81	336	3
NMTAP	81	360	2
NMTAP	82	0	5
NMTAP	82	24	4
NMTAP	82	48	6
NMTAP	82	72	3
NMTAP	82	96	7
NMTAP	82	120	0
NMTAP	82	144	3
NMTAP	82	168	2
NMTAP	82	192	6
NMTAP	82	216	4
NMTAP	82	240	7
NMTAP	82	264	0
NMTAP	82	288	3
NMTAP	82	312	1
NMTAP	82	336	5
NMTAP	82	360	3
NMSTR	83	0	6
BRSI_	83	0	6	96	24	2
NMTAP	83	24	4
NMTAP	83	48	6
NMTAP	83	72	4
NMTAP	83	96	6
NMSTR	83	144	1
BRSI_	83	144	1	96	24	5
NMTAP	83	168	0
NMTAP	83	192	1
NMTAP	83	216	0
NMTAP	83	240	1
NMTAP	83	288	6
NMTAP	83	312	6
NMTAP	83	336	7
EXTAP	84	0	0
EXTAP	84	0	6
EXTAP	84	48	4
EXTAP	84	48	5
EXTAP	84	96	1
EXTAP	84	96	3
EXTAP	84	120	1
EXTAP	84	120	3
NMTAP	84	168	0
NMHLD	84	168	4	72
BXTAP	84	240	7
NMTAP	84	252	6
NMTAP	84	264	5
NMTAP	84	276	4
NMSTR	84	288	3
BRSF_	84	288	3	96	48	7
NMTAP	84	300	2
NMTAP	84	312	1
NMTAP	84	324	0
NMTAP	84	336	7
NMTAP	84	348	6
NMTAP	84	360	5
NMTAP	84	372	4
NMTTP	85	0	3	A	1	M1
BXTAP	85	96	1
BXTAP	85	96	5
NMTAP	85	144	0
NMTAP	85	168	6
NMTAP	85	192	0
NMTAP	85	216	6
NMTAP	85	240	0
NMTAP	85	264	6
NMTAP	85	288	0
NMTAP	85	300	1
NMTAP	85	312	2
NMTAP	85	336	5
NMTAP	85	360	5
NMTAP	86	0	7
NMTAP	86	12	0
NMTAP	86	24	1
NMTAP	86	48	4
NMTAP	86	72	4
NMTAP	86	96	6
NMTAP	86	108	7
NMTAP	86	120	0
NMTAP	86	144	3
NMTAP	86	168	3
NMTAP	86	192	1
NMTAP	86	216	1
NMTAP	86	240	7
NMTAP	86	264	7
NMTAP	86	288	5
NMTAP	86	312	5
NMTAP	86	336	3
NMTAP	86	360	3
BXTAP	87	0	2
BXTAP	87	0	4
BXTAP	87	96	0
BRTAP	87	96	1
BRTAP	87	120	0
BXTAP	87	120	1
BRTAP	87	168	2
BXTAP	87	168	4
BXTAP	87	216	3
BRTAP	87	216	5
BXTAP	87	264	6
BRTAP	87	264	7
BRTAP	87	288	6
BXTAP	87	288	7
BRTAP	87	336	0
BXTAP	87	336	7
NMTAP	88	0	0
NMTAP	88	12	1
NMTAP	88	24	2
NMTAP	88	36	3
NMTAP	88	48	7
NMTAP	88	60	6
NMTAP	88	72	5
NMTAP	88	84	4
NMTAP	88	96	1
NMTAP	88	108	2
NMTAP	88	120	3
NMTAP	88	132	4
NMTAP	88	144	6
NMTAP	88	156	5
NMTAP	88	168	4
NMTAP	88	180	3
NMTAP	88	192	0
NMTAP	88	204	1
NMTAP	88	216	2
NMTAP	88	228	3
NMTAP	88	240	4
NMTAP	88	252	5
NMTAP	88	264	6
NMTAP	88	276	7
BRTAP	88	288	0
BXTAP	88	288	4
NMSTR	89	0	2
NMSI_	89	0	2	96	24	7
NMTAP	89	24	3
NMTAP	89	48	1
NMTAP	89	72	4
BRTAP	89	96	2
NMTAP	89	144	5
NMSTR	89	192	5
NMSI_	89	192	5	96	24	0
NMTAP	89	216	4
NMTAP	89	240	6
NMTAP	89	264	3
BRTAP	89	288	5
NMTAP	89	336	1
NMTTP	90	0	2	B	0	M1
NMTTP	90	24	6	B	0	M1
NMTTP	90	48	3	A	0	M1
NMTTP	90	72	5	A	0	M1
NMTTP	90	96	3	B	0	M1
NMTTP	90	96	4	E	0	M1
NMTTP	90	120	7	E	0	M1
NMTTP	90	144	0	B	0	M1
NMTTP	90	144	0	A	0	M1
NMTTP	90	168	5	E	0	M1
NMTTP	90	192	1	B	0	M1
NMTTP	90	192	1	A	0	M1
NMTTP	90	216	0	C	0	M1
NMTTP	90	240	2	B	0	M1
NMTTP	90	240	2	A	0	M1
NMTTP	90	264	5	B	0	M1
BRTAP	90	288	7
NMTAP	91	0	0
NMTAP	91	24	0
NMTAP	91	48	0
NMTAP	91	72	0
BRTAP	91	96	1
BRTAP	91	96	7
NMTAP	91	108	2
NMTAP	91	108	6
NMTAP	91	120	3
NMTAP	91	120	5
NMTAP	91	132	4
NMTAP	91	192	7
NMTAP	91	216	7
NMTAP	91	240	7
NMTAP	91	264	7
BRTAP	91	288	0
BRTAP	91	288	6
NMTAP	91	300	1
NMTAP	91	300	5
NMTAP	91	312	2
NMTAP	91	312	4
NMTAP	91	324	3
NMTAP	92	0	0
NMTAP	92	12	1
NMTAP	92	24	2
NMTAP	92	36	3
NMTAP	92	48	0
NMTAP	92	60	1
NMTAP	92	72	2
NMTAP	92	84	3
NMTAP	92	96	7
NMTAP	92	108	6
NMTAP	92	120	5
NMTAP	92	132	4
NMTAP	92	144	7
NMTAP	92	156	6
NMTAP	92	168	5
NMTAP	92	180	4
NMTTP	92	192	0	E	0	M1
NMTTP	92	216	1	E	0	M1
NMTTP	92	240	2	E	0	M1
NMTTP	92	264	3	E	0	M1
NMTTP	92	288	4	E	0	M1
NMTTP	92	312	5	E	0	M1
NMTTP	92	336	6	E	0	M1
NMTTP	92	360	7	E	0	M1
NMTTP	93	0	0	E	0	M1
NMTHO	93	0	0	384	C	0	M1
NMSTR	94	0	0
NMSF_	94	0	0	96	96	4

T_REC_TAP	593
T_REC_BRK	65
T_REC_XTP	95
T_REC_BXX	68
T_REC_HLD	89
T_REC_XHO	17
T_REC_BHO	9
T_REC_BXH	9
T_REC_STR	37
T_REC_BST	7
T_REC_XST	12
T_REC_XBS	4
T_REC_TTP	80
T_REC_THO	2
T_REC_SLD	60
T_REC_BSL	6
T_REC_ALL	1153
T_NUM_TAP	817
T_NUM_BRK	168
T_NUM_HLD	108
T_NUM_SLD	60
T_NUM_ALL	1153
T_JUDGE_TAP	961
T_JUDGE_HLD	218
T_JUDGE_SLD	66
T_JUDGE_ALL	1245
TTM_EACHPAIRS	176
TTM_SCR_TAP	408500
TTM_SCR_BRK	436800
TTM_SCR_HLD	108000
TTM_SCR_SLD	90000
TTM_SCR_ALL	1043300
TTM_SCR_S	995750
TTM_SCR_SS	1026500
TTM_RAT_ACV	10163

