VERSION	0.00.00	1.04.00
FES_MODE	0
BPM_DEF	155.000	155.000	155.000	155.000
MET_DEF	4	4
RESOLUTION	384
CLK_DEF	384
COMPATIBLE_CODE	MA2

BPM	0	0	155.000
MET	0	0	4	4

NMTAP	1	0	1
NMTAP	1	0	6
NMTTP	1	96	1	E	0	M1
NMTTP	1	192	2	E	0	M1
NMTTP	1	288	3	E	0	M1
NMTTP	2	0	4	E	0	M1
NMTTP	2	96	5	E	0	M1
NMTTP	2	192	6	E	0	M1
NMTAP	2	240	4
NMTAP	2	240	5
NMTAP	2	312	3
NMTAP	2	312	4
NMTAP	3	0	2
NMTAP	3	0	3
NMTTP	3	96	0	E	0	M1
NMTTP	3	192	2	E	0	M1
NMTTP	3	192	6	E	0	M1
NMTTP	3	288	4	E	0	M1
EXTAP	4	0	2
EXTAP	4	24	3
EXTAP	4	48	2
EXTAP	4	72	3
EXTAP	4	96	2
EXTAP	4	144	5
EXTAP	4	168	4
EXTAP	4	192	5
EXTAP	4	216	4
EXTAP	4	240	5
BXTAP	4	288	0
BXTAP	4	288	7
NMTAP	5	0	1
NMTAP	5	48	1
NMTAP	5	96	4
NMTAP	5	144	4
NMTAP	5	192	2
NMTAP	5	216	3
NMTAP	5	264	3
NMTAP	5	288	2
NMHLD	6	0	4	96
NMTAP	6	48	3
NMHLD	6	96	2	96
NMTAP	6	144	3
NMTAP	6	192	4
EXTAP	6	240	2
EXTAP	6	240	4
EXTAP	6	312	3
EXTAP	6	312	5
EXTAP	7	0	4
EXTAP	7	0	6
NMTAP	7	96	3
NMTAP	7	144	3
NMTAP	7	192	5
NMTAP	7	216	4
NMTAP	7	264	4
NMTAP	7	288	5
NMSTR	8	0	2
NMSXR	8	0	2	96	192	7
NMSTR	8	0	6
NMSXR	8	0	6	96	192	3
NMTAP	9	0	2
NMTAP	9	48	2
NMTAP	9	96	4
NMTAP	9	120	3
NMHLD	9	168	3	72
NMTAP	9	240	4
NMTAP	9	288	1
NMTAP	9	288	4
NMHLD	10	0	2	96
NMTAP	10	48	3
NMHLD	10	96	4	96
NMTAP	10	144	3
NMTAP	10	192	2
EXTAP	10	240	1
EXTAP	10	240	3
EXTAP	10	312	0
EXTAP	10	312	7
EXTAP	11	0	4
EXTAP	11	0	6
NMTAP	11	96	5
NMTAP	11	144	5
NMTAP	11	192	4
NMTAP	11	192	6
NMTAP	11	240	3
NMSTR	11	288	2
NMSI_	11	288	2	96	48	7
NMTAP	11	288	5
NMTAP	11	336	4
NMSTR	12	0	3
NMSI_	12	0	3	96	48	6
NMSTR	12	96	0
NMSI_	12	96	0	96	48	3
NMSI_	12	96	0	96	48	5
BRTAP	12	288	2
BRTAP	12	288	6
EXTAP	13	0	0
EXTAP	13	0	1
NMHLD	13	96	5	48
NMTAP	13	144	4
EXTAP	13	192	6
EXTAP	13	192	7
NMHLD	13	288	2	48
NMTAP	13	336	3
EXTAP	14	0	0
EXTAP	14	0	1
EXTAP	14	96	4
EXTAP	14	96	5
EXTAP	14	192	6
EXTAP	14	192	7
EXTAP	14	288	2
EXTAP	14	288	3
NMTTP	15	0	2	A	0	M1
NMTTP	15	0	4	A	0	M1
NMTTP	15	96	0	C	0	M1
NMTTP	15	192	0	A	0	M1
NMTTP	15	192	6	A	0	M1
NMSTR	15	288	1
NMSI_	15	288	1	96	48	4
NMSTR	16	0	7
NMSI_	16	0	7	96	48	3
NMSTR	16	96	0
NMSF_	16	96	0	96	48	4
BXTAP	16	288	2
BXTAP	16	288	6
EXTAP	17	0	3
EXTAP	17	24	3
EXTAP	17	48	4
EXTAP	17	72	4
EXTAP	17	96	3
EXTAP	17	120	3
EXTAP	17	144	4
EXTAP	17	168	4
EXTAP	17	192	3
NMSTR	17	288	1
NMSCR	17	288	1	96	48	4
NMSTR	17	288	5
NMSCR	17	288	5	96	48	0
EXTAP	18	96	0
EXTAP	18	96	4
EXTAP	18	168	3
EXTAP	18	168	7
EXTAP	18	240	2
EXTAP	18	240	6
EXTAP	18	288	2
EXTAP	18	288	6
NMTAP	19	0	1
NMTAP	19	0	3
NMHLD	19	48	1	96
NMHLD	19	48	3	96
NMTAP	19	192	4
NMTAP	19	192	6
NMHLD	19	240	4	96
NMHLD	19	240	6	96
EXTAP	20	0	6
EXTAP	20	0	7
EXTAP	20	72	4
EXTAP	20	72	5
EXHLD	20	144	2	72
EXHLD	20	144	7	144
NMSTR	21	0	1
NMSI_	21	0	1	96	48	4
NMTAP	21	48	1
NMSTR	21	96	6
NMSCR	21	96	6	96	192	4
NMTTP	22	0	0	C	0	M1
NMTTP	22	48	3	E	0	M1
NMTTP	22	72	5	E	0	M1
NMTTP	22	96	2	B	0	M1
NMTTP	22	120	5	B	0	M1
NMTTP	22	144	1	B	0	M1
NMTTP	22	168	6	B	0	M1
EXSTR	22	192	0
NMSI_	22	192	0	96	48	4
EXSTR	22	240	7
NMSI_	22	240	7	96	48	3
NMTAP	23	0	2
NMTAP	23	48	2
NMTAP	23	96	1
NMTAP	23	96	3
NMTAP	23	192	5
NMTAP	23	240	5
NMTAP	23	288	4
NMSTR	23	288	6
NMSXL	23	288	6	96	240	3
BXTAP	24	288	2
BXTAP	24	288	4
NMTAP	25	0	1
NMTAP	25	24	0
NMTAP	25	48	1
NMTAP	25	72	0
NMTAP	25	96	1
NMTAP	25	144	3
NMTAP	25	192	2
NMHLD	25	192	3	72
NMHLD	25	264	4	72
NMTAP	25	336	5
NMTAP	26	0	6
NMTAP	26	24	7
NMTAP	26	48	6
NMTAP	26	72	7
NMTAP	26	96	6
NMTAP	26	144	4
NMHLD	26	192	4	72
NMTAP	26	192	5
NMHLD	26	264	3	72
NMTAP	26	336	2
NMTAP	27	0	1
NMTAP	27	24	0
NMTAP	27	48	1
NMTAP	27	72	0
NMTAP	27	96	1
NMTAP	27	144	6
NMTAP	27	168	7
NMTAP	27	192	6
NMTAP	27	216	7
NMTAP	27	240	6
NMTAP	27	288	0
NMTAP	27	288	7
NMTAP	27	336	0
NMTAP	27	336	1
BXTAP	28	0	2
BXTAP	28	0	3
BXTAP	28	48	2
BXTAP	28	48	3
BXTAP	28	96	5
BXTAP	28	120	4
BXSTR	28	168	1
NMSXL	28	168	1	96	72	3
BXSTR	28	168	7
NMSXR	28	168	7	96	72	5
EXTAP	29	0	2
EXTAP	29	0	6
NMTAP	29	96	3
NMTAP	29	96	4
NMTAP	29	144	3
NMTAP	29	168	4
NMTAP	29	192	3
NMTAP	29	240	5
NMTAP	29	264	4
NMTAP	29	288	5
NMTAP	29	336	2
NMTAP	29	360	3
NMTAP	30	0	2
NMTAP	30	48	6
NMTAP	30	72	7
NMTAP	30	96	6
NMTAP	30	144	1
NMTAP	30	168	0
EXTAP	30	192	1
EXTAP	30	216	2
EXTAP	30	240	3
EXTAP	30	264	4
EXTAP	30	288	5
EXTAP	30	312	6
EXTAP	30	336	7
EXTAP	30	360	0
EXTAP	31	96	0
EXTAP	31	96	1
EXTAP	31	120	0
EXTAP	31	120	1
EXTAP	31	168	2
EXTAP	31	168	3
EXTAP	31	216	4
EXTAP	31	216	5
EXTAP	31	264	6
EXTAP	31	264	7
EXSTR	31	288	6
NMSI_	31	288	6	96	48	3
EXTAP	31	288	7
NMSTR	32	0	1
NMSI_	32	0	1	96	48	4
NMSTR	32	96	7
NMSI_	32	96	7	96	48	3
NMTAP	32	192	2
BXTAP	32	288	0
BXTAP	32	288	6
NMSTR	33	0	2
NMSCL	33	0	2	96	48	0
NMHLD	33	0	3	96
NMTAP	33	48	2
NMHLD	33	192	2	96
NMSTR	33	192	3
NMSCR	33	192	3	96	48	5
NMTAP	33	240	3
NMSTR	34	0	2
NMSCL	34	0	2	96	48	7
NMHLD	34	0	3	96
NMTAP	34	48	2
NMHLD	34	192	2	96
NMSTR	34	192	3
NMSCR	34	192	3	96	48	6
NMTAP	34	240	3
NMSTR	35	0	4
NMSCL	35	0	4	96	48	2
NMHLD	35	0	5	96
NMTAP	35	48	4
NMHLD	35	192	4	96
NMSTR	35	192	5
NMSCR	35	192	5	96	48	7
NMTAP	35	240	5
NMSTR	36	0	4
NMSCL	36	0	4	96	48	1
NMHLD	36	0	5	96
NMTAP	36	48	4
NMHLD	36	192	4	96
NMSTR	36	192	5
NMSCR	36	192	5	96	48	0
NMTAP	36	240	5
EXHLD	37	0	0	48
EXHLD	37	0	1	48
EXHLD	37	72	1	48
EXHLD	37	72	2	48
EXTAP	37	144	2
EXTAP	37	144	3
EXHLD	37	192	2	48
EXHLD	37	192	3	48
EXHLD	37	264	1	48
EXHLD	37	264	2	48
EXTAP	37	336	0
EXTAP	37	336	1
EXHLD	38	0	0	48
EXHLD	38	0	7	48
EXHLD	38	72	6	48
EXHLD	38	72	7	48
EXTAP	38	144	5
EXTAP	38	144	6
EXHLD	38	192	5	48
EXHLD	38	192	6	48
EXHLD	38	264	6	48
EXHLD	38	264	7	48
EXTAP	38	336	0
EXTAP	38	336	7
NMTAP	39	0	1
NMTAP	39	48	1
NMTAP	39	48	3
NMTAP	39	96	4
NMTAP	39	144	3
NMTAP	39	144	4
NMTAP	39	192	2
NMTAP	39	216	3
NMTAP	39	240	2
NMTAP	39	264	3
NMTAP	39	288	1
NMTAP	39	312	4
NMTAP	39	336	1
NMTAP	39	360	4
NMSTR	40	0	0
NMSI_	40	0	0	96	48	4
NMSTR	40	96	7
NMSI_	40	96	7	96	48	3
NMTAP	40	192	2
NMTAP	40	288	0
NMTAP	40	288	4
BRSTR	41	0	1
BRSI_	41	0	1	96	96	3
BRHLD	41	0	6	576
CNSI_	41	192	3	0	96	0
CNSI_	41	288	0	0	96	4
CNSI_	42	0	4	0	96	7
CNSI_	42	96	7	0	96	5
NMSTR	42	288	4
NMSI_	42	288	4	96	48	0
NMSTR	42	288	7
NMSI_	42	288	7	96	48	4
NMHLD	43	96	1	48
NMHLD	43	96	3	48
NMTAP	43	168	2
NMTAP	43	168	4
NMTAP	43	216	3
NMTAP	43	216	5
NMTAP	43	264	4
NMTAP	43	264	6
NMTAP	43	288	4
NMTAP	43	288	6
NMTAP	43	336	3
NMTAP	43	336	5
EXTAP	44	0	2
EXTAP	44	0	4
EXTAP	44	96	1
EXTAP	44	96	7
EXSTR	44	168	0
NMSV_	44	168	0	96	72	3
EXSTR	44	168	4
NMSV_	44	168	4	96	72	7
BRTAP	45	0	2
BRTAP	45	0	6
BRTAP	45	48	2
BRTAP	45	48	6
BRHLD	45	96	2	48
BRHLD	45	96	6	48
BRHLD	45	192	1	48
BRHLD	45	192	5	48
BRHLD	45	288	0	48
BRHLD	45	288	4	48
BRHLD	46	0	3	48
BRHLD	46	0	7	48
BRHLD	46	96	0	48
BRHLD	46	96	4	48
BRSTR	46	192	1
NMSI_	46	192	1	96	48	5
BRSTR	46	192	5
NMSI_	46	192	5	96	48	1
NMTTP	47	96	6	A	0	M1
NMTTP	47	96	7	E	0	M1
NMHLD	47	192	3	192
NMTTP	47	288	1	E	0	M1
NMTTP	47	288	1	A	0	M1
NMHLD	48	0	4	192
NMTTP	48	96	6	A	0	M1
NMTTP	48	96	7	E	0	M1
NMTTP	48	192	3	E	0	M1
NMTTP	48	240	2	A	0	M1
NMTTP	48	288	5	E	0	M1
NMTTP	48	336	5	A	0	M1
EXTAP	49	0	1
EXHLD	49	0	6	768
NMTAP	49	96	3
NMTAP	49	144	3
NMTAP	49	192	5
NMTAP	49	240	5
NMTAP	49	288	7
NMTAP	49	336	7
NMTAP	50	0	0
NMTAP	50	48	0
NMSTR	50	96	2
NMSXR	50	96	2	96	192	5
NMTAP	50	144	2
NMTAP	51	96	4
NMTAP	51	96	6
NMTAP	51	144	3
NMTAP	51	144	5
NMTAP	51	168	3
NMTAP	51	168	5
NMTAP	51	216	2
NMTAP	51	216	4
NMTAP	51	264	1
NMTAP	51	264	3
NMTAP	51	288	1
NMTAP	51	288	3
NMTAP	51	336	2
NMTAP	51	336	4
EXTAP	52	0	3
EXTAP	52	0	5
EXTAP	52	96	0
EXTAP	52	96	6
EXSTR	52	168	3
NMSV_	52	168	3	96	72	0
EXSTR	52	168	7
NMSV_	52	168	7	96	72	4
BRTAP	53	0	1
BRTAP	53	0	5
BRTAP	53	48	1
BRTAP	53	48	5
BRHLD	53	96	1	48
BRHLD	53	96	5	48
BRHLD	53	192	2	48
BRHLD	53	192	6	48
BRHLD	53	288	3	48
BRHLD	53	288	7	48
EXTAP	54	0	5
EXTAP	54	24	4
EXTAP	54	48	5
EXTAP	54	72	4
EXTAP	54	96	6
EXTAP	54	120	3
EXTAP	54	144	6
EXTAP	54	168	3
EXSTR	54	192	7
NMSI_	54	192	7	96	48	3
EXTAP	54	216	2
EXTAP	54	240	7
EXTAP	54	264	2
NMTTP	55	96	1	E	0	M1
NMTTP	55	96	1	A	0	M1
NMHLD	55	192	4	192
NMTTP	55	288	6	A	0	M1
NMTTP	55	288	7	E	0	M1
NMHLD	56	0	3	192
NMTTP	56	96	1	E	0	M1
NMTTP	56	96	1	A	0	M1
NMTTP	56	192	5	E	0	M1
NMTTP	56	240	5	A	0	M1
NMTTP	56	288	3	E	0	M1
NMTTP	56	336	2	A	0	M1
EXSTR	57	0	1
NMSCL	57	0	1	96	1248	1
EXTAP	57	0	6
NMHLD	61	0	4	192
NMTTP	61	192	4	B	0	M1
NMTTP	61	192	5	E	0	M1
NMHLD	62	0	3	192
NMTTP	62	192	3	B	0	M1
NMTTP	62	192	3	E	0	M1
NMTHO	63	0	0	576	C	0	M1
EXSTR	63	0	5
NMSCR	63	0	5	96	480	2
EXTAP	64	288	0
EXTAP	64	288	7
EXHLD	65	0	2	48
EXHLD	65	0	5	48
NMTTP	65	96	1	E	0	M1
NMTTP	65	120	7	E	0	M1
NMTTP	65	144	3	E	0	M1
NMTTP	65	168	5	E	0	M1
NMTTP	65	192	0	C	0	M1
EXTAP	65	240	0
EXTAP	65	240	6
EXSTR	65	336	1
NMSCR	65	336	1	96	48	4
EXSTR	65	336	5
NMSCR	65	336	5	96	48	0
EXSTR	66	192	0
NMSCL	66	192	0	96	48	5
EXSTR	66	192	4
NMSCL	66	192	4	96	48	1
EXHLD	67	0	1	48
EXHLD	67	0	5	48
NMTTP	67	96	3	E	0	M1
NMTTP	67	120	5	E	0	M1
NMTTP	67	144	1	E	0	M1
NMTTP	67	168	7	E	0	M1
NMTTP	67	192	0	C	0	M1
EXTAP	67	240	1
EXTAP	67	240	7
EXSTR	67	336	2
NMSCL	67	336	2	96	48	7
EXSTR	67	336	6
NMSCL	67	336	6	96	48	3
EXSTR	68	144	3
NMSV_	68	144	3	96	48	6
EXSTR	68	144	7
NMSV_	68	144	7	96	48	2
EXHLD	69	0	6	48
EXHLD	69	0	7	48
EXHLD	69	72	5	48
EXHLD	69	72	6	48
EXTAP	69	144	4
EXTAP	69	144	5
EXHLD	69	192	4	48
EXHLD	69	192	5	48
EXHLD	69	264	5	48
EXHLD	69	264	6	48
EXTAP	69	336	6
EXTAP	69	336	7
EXHLD	70	0	0	48
EXHLD	70	0	7	48
EXHLD	70	72	0	48
EXHLD	70	72	1	48
EXTAP	70	144	1
EXTAP	70	144	2
EXHLD	70	192	1	48
EXHLD	70	192	2	48
EXHLD	70	264	0	48
EXHLD	70	264	1	48
EXTAP	70	336	0
EXTAP	70	336	7
NMTAP	71	0	6
NMTAP	71	48	4
NMTAP	71	48	6
NMTAP	71	96	3
NMTAP	71	144	3
NMTAP	71	144	4
NMTAP	71	192	5
NMTAP	71	216	4
NMTAP	71	240	5
NMTAP	71	264	4
NMTAP	71	288	6
NMTAP	71	312	3
NMTAP	71	336	6
NMTAP	71	360	3
NMTHO	72	0	0	192	C	0	M1
NMSTR	72	288	1
NMSI_	72	288	1	96	96	6
CNSI_	73	96	6	0	96	3
CNSI_	73	192	3	0	96	0
NMSTR	73	288	4
NMSI_	73	288	4	96	96	7
CNSI_	74	96	7	0	96	2
CNSI_	74	192	2	0	96	5
NMTAP	75	0	3
NMTAP	75	24	4
NMTAP	75	48	3
NMTAP	75	72	4
NMTAP	75	96	3
NMTAP	75	144	5
NMTAP	75	168	4
NMTAP	75	192	5
NMTAP	75	216	4
NMTAP	75	240	5
NMTAP	75	288	4
NMTAP	75	288	5
NMTAP	75	336	3
NMTAP	75	336	4
BXTAP	76	0	2
BXTAP	76	0	3
BXTAP	76	48	2
BXTAP	76	48	3
BXTAP	76	96	5
BXTAP	76	120	4
BXSTR	76	168	1
NMSXL	76	168	1	96	72	3
BXSTR	76	168	7
NMSXR	76	168	7	96	72	5
EXTAP	77	0	2
EXTAP	77	0	6
NMTAP	77	96	3
NMTAP	77	96	4
NMTAP	77	144	3
NMTAP	77	168	4
NMTAP	77	192	3
NMTAP	77	240	5
NMTAP	77	264	4
NMTAP	77	288	5
NMTAP	77	336	2
NMTAP	77	360	3
NMTAP	78	0	2
NMTAP	78	48	6
NMTAP	78	72	7
NMTAP	78	96	6
NMTAP	78	144	1
NMTAP	78	168	0
EXHLD	78	192	1	72
EXHLD	78	264	3	168
EXHLD	78	336	4	96
EXTAP	79	96	2
EXTAP	79	96	3
EXTAP	79	120	2
EXTAP	79	120	3
EXTAP	79	168	0
EXTAP	79	168	1
EXTAP	79	216	6
EXTAP	79	216	7
EXTAP	79	264	4
EXTAP	79	264	5
EXSTR	79	288	4
NMSI_	79	288	4	96	48	1
EXTAP	79	288	5
NMSTR	80	0	6
NMSI_	80	0	6	96	48	3
NMTAP	80	48	6
NMTAP	80	96	0
NMTAP	80	144	0
NMTAP	80	192	1
NMTAP	80	192	4
NMSTR	80	288	2
NMSI_	80	288	2	96	48	6
NMSTR	80	288	3
NMSI_	80	288	3	96	48	7
BXTAP	81	96	0
BXTAP	81	96	5
NMHLD	81	192	0	72
NMTAP	81	192	1
NMHLD	81	264	7	72
NMTAP	81	336	6
NMTAP	82	0	5
NMTAP	82	24	4
NMTAP	82	48	5
NMTAP	82	72	4
NMTAP	82	96	5
NMTAP	82	144	6
NMTAP	82	144	7
NMTAP	82	192	6
NMHLD	82	192	7	72
NMHLD	82	264	0	72
NMTAP	82	336	1
NMTAP	83	0	2
NMTAP	83	24	3
NMTAP	83	48	2
NMTAP	83	72	3
NMTAP	83	96	2
NMTAP	83	144	5
NMTAP	83	168	4
NMTAP	83	192	5
NMTAP	83	216	4
NMTAP	83	240	5
NMTAP	83	288	3
NMTAP	83	288	6
NMTAP	83	336	2
NMTAP	83	336	5
BXTAP	84	0	1
BXTAP	84	0	4
BXTAP	84	48	1
BXTAP	84	48	4
BXTAP	84	96	2
BXTAP	84	120	3
BXSTR	84	168	0
NMSXL	84	168	0	96	72	2
BXSTR	84	168	6
NMSXR	84	168	6	96	72	4
EXTAP	85	0	1
EXTAP	85	0	5
NMTAP	85	96	3
NMTAP	85	96	4
NMTAP	85	144	4
NMTAP	85	168	3
NMTAP	85	192	4
NMTAP	85	240	2
NMTAP	85	264	3
NMTAP	85	288	2
NMTAP	85	336	5
NMTAP	85	360	4
NMTAP	86	0	5
NMTAP	86	48	1
NMTAP	86	72	0
NMTAP	86	96	1
NMTAP	86	144	6
NMTAP	86	168	7
EXHLD	86	192	6	72
EXHLD	86	264	4	72
EXTAP	86	336	3
BRTAP	87	0	2
BRTAP	87	0	3
EXTAP	87	96	4
EXTAP	87	96	5
EXTAP	87	120	4
EXTAP	87	120	5
EXTAP	87	168	6
EXTAP	87	168	7
EXTAP	87	216	0
EXTAP	87	216	1
EXTAP	87	264	2
EXTAP	87	264	3
EXTAP	87	288	2
EXSTR	87	288	3
NMSI_	87	288	3	96	48	6
NMSTR	88	0	1
NMSI_	88	0	1	96	48	4
NMTAP	88	48	1
NMTAP	88	96	7
NMTAP	88	144	7
NMTAP	88	192	3
NMTAP	88	192	6
BXTAP	88	288	0
BXTAP	88	288	1
EXSTR	89	0	2
NMSI_	89	0	2	96	48	7
NMTAP	89	24	3
EXTAP	89	48	2
NMTAP	89	72	3
EXSTR	89	192	5
NMSI_	89	192	5	96	48	0
NMTAP	89	216	4
EXTAP	89	240	5
NMTAP	89	264	4
NMTTP	90	0	0	B	0	M1
NMTTP	90	24	7	B	0	M1
NMTTP	90	48	1	B	0	M1
NMTTP	90	72	6	B	0	M1
NMTTP	90	96	2	B	0	M1
NMTTP	90	120	5	B	0	M1
NMTTP	90	144	3	B	0	M1
NMTTP	90	168	4	B	0	M1
NMTTP	90	192	1	E	0	M1
NMTTP	90	216	7	E	0	M1
NMTTP	90	240	3	E	0	M1
NMTTP	90	264	5	E	0	M1
NMTTP	90	288	0	C	0	M1
EXSTR	91	0	0
NMSI_	91	0	0	96	48	4
EXTAP	91	24	0
EXTAP	91	48	0
EXTAP	91	72	0
EXSTR	91	192	7
NMSI_	91	192	7	96	48	3
EXTAP	91	216	7
EXTAP	91	240	7
EXTAP	91	264	7
EXTAP	92	0	1
EXTAP	92	24	2
EXTAP	92	48	3
EXTAP	92	72	4
EXTAP	92	96	5
EXTAP	92	120	6
EXTAP	92	144	7
EXTAP	92	168	0
EXTAP	92	192	1
EXTAP	92	192	6
NMTHO	93	0	0	288	C	0	M1
NMTTP	93	0	2	B	0	M1
NMTTP	93	0	3	B	0	M1
NMTTP	93	0	4	B	0	M1
NMTTP	93	0	5	B	0	M1
NMSTR	93	288	7
NMSI_	93	288	7	96	48	3

T_REC_TAP	260
T_REC_BRK	12
T_REC_XTP	164
T_REC_BXX	30
T_REC_HLD	35
T_REC_XHO	44
T_REC_BHO	17
T_REC_BXH	0
T_REC_STR	35
T_REC_BST	3
T_REC_XST	24
T_REC_XBS	6
T_REC_TTP	73
T_REC_THO	3
T_REC_SLD	68
T_REC_BSL	1
T_REC_ALL	775
T_NUM_TAP	556
T_NUM_BRK	69
T_NUM_HLD	82
T_NUM_SLD	68
T_NUM_ALL	775
T_JUDGE_TAP	607
T_JUDGE_HLD	197
T_JUDGE_SLD	69
T_JUDGE_ALL	873
TTM_EACHPAIRS	172
TTM_SCR_TAP	278000
TTM_SCR_BRK	179400
TTM_SCR_HLD	82000
TTM_SCR_SLD	102000
TTM_SCR_ALL	641400
TTM_SCR_S	615500
TTM_SCR_SS	634500
TTM_RAT_ACV	10108

