VERSION	0.00.00	1.04.00
FES_MODE	0
BPM_DEF	121.000	158.000	158.000	103.500
MET_DEF	4	4
RESOLUTION	384
CLK_DEF	384
COMPATIBLE_CODE	MA2

BPM	0	0	121.000
BPM	2	192	131.000
BPM	2	288	118.000
BPM	3	96	127.000
BPM	3	192	115.000
BPM	3	288	120.000
BPM	4	192	103.500
BPM	4	288	158.000
MET	0	0	4	4
MET	2	0	4	3
MET	2	288	4	4
MET	59	288	4	2
MET	60	96	4	4

NMTAP	2	192	0
NMTAP	2	200	1
NMTAP	2	208	2
NMTAP	2	216	3
NMTAP	2	224	4
NMTAP	2	232	5
NMTAP	2	240	6
NMTAP	2	248	7
NMTAP	2	256	0
NMTAP	2	264	1
NMTAP	2	272	2
NMTAP	2	280	3
BRSTR	2	288	0
NMSCR	2	288	0	96	624	0
BRHLD	2	288	4	384
NMSTR	4	96	4
NMSSL	4	96	4	96	48	0
NMHLD	4	288	1	48
NMTAP	4	336	3
NMHLD	5	0	1	48
NMTAP	5	48	3
NMTAP	5	96	1
NMTAP	5	112	2
NMTAP	5	128	3
NMTAP	5	144	4
NMTAP	5	192	1
NMTAP	5	208	2
NMTAP	5	224	3
NMTAP	5	240	4
NMTAP	5	288	1
NMTAP	5	288	5
NMTAP	5	336	3
NMSTR	5	336	6
NMSI_	5	336	6	96	48	3
NMSTR	6	0	2
NMSXL	6	0	2	96	144	7
NMSTR	6	48	6
NMSCR	6	48	6	96	96	1
BRTAP	6	288	2
BRTAP	6	288	6
NMTAP	7	0	4
NMTAP	7	0	5
NMTAP	7	48	6
NMTAP	7	96	4
NMTAP	7	96	5
NMSTR	7	144	3
NMSI_	7	144	3	96	32	1
NMTAP	7	168	4
NMTAP	7	216	5
NMTAP	7	240	3
NMTAP	7	288	7
NMTAP	7	336	7
NMTAP	8	0	0
NMTAP	8	0	4
NMTAP	8	48	5
NMTAP	8	96	2
NMTAP	8	96	4
NMSTR	8	144	5
NMSI_	8	144	5	96	48	2
NMTAP	8	168	4
NMTAP	8	216	3
NMTAP	8	240	5
NMTAP	8	288	1
NMTAP	8	336	1
NMTAP	9	0	0
NMTAP	9	0	4
NMTAP	9	48	3
NMTAP	9	96	2
NMTAP	9	96	5
NMSTR	9	144	3
NMSI_	9	144	3	96	48	6
NMTAP	9	168	4
NMTAP	9	216	5
NMTAP	9	240	3
NMTAP	9	288	7
NMTAP	9	336	0
NMTAP	10	0	1
NMTAP	10	0	2
NMTAP	10	48	3
NMSTR	10	96	0
NMSI_	10	96	0	96	48	4
NMTAP	10	96	4
NMTAP	10	120	5
NMSTR	10	144	6
NMSI_	10	144	6	96	48	2
NMTAP	10	168	7
NMTAP	10	192	0
NMTAP	10	240	6
NMHLD	10	288	1	48
NMTAP	10	336	0
NMTAP	10	360	1
NMTAP	11	0	0
NMTAP	11	48	7
NMTAP	11	96	5
NMTAP	11	96	6
NMTAP	11	144	4
NMTAP	11	192	3
NMTAP	11	192	6
NMTAP	11	240	2
NMHLD	11	288	1	96
NMSTR	11	288	4
NMSCR	11	288	4	96	96	2
BRTAP	12	0	4
CNSXR	12	96	2	0	144	5
NMHLD	12	96	2	48
NMHLD	12	168	3	48
NMTAP	12	240	4
EXHLD	12	288	6	48
NMTAP	12	336	7
NMTAP	12	360	6
NMTAP	13	24	0
NMTAP	13	48	1
NMTAP	13	48	7
EXHLD	13	96	2	48
NMTAP	13	144	3
NMTAP	13	168	2
NMTAP	13	216	4
NMTAP	13	240	3
NMTAP	13	240	5
EXTAP	13	288	6
NMTAP	13	312	4
NMTAP	13	336	5
NMTAP	13	360	3
NMTAP	14	0	6
NMTAP	14	24	5
NMTAP	14	48	7
EXTAP	14	96	2
NMTAP	14	120	0
NMTAP	14	144	1
NMTAP	14	168	7
NMTAP	14	192	2
NMTAP	14	216	1
NMTAP	14	240	3
EXSTR	14	288	4
NMSI_	14	288	4	96	48	0
EXSTR	15	0	4
NMSCR	15	0	4	96	192	3
NMTAP	15	0	7
NMTAP	15	32	6
NMTAP	15	64	5
NMTTP	15	96	0	C	1	M1
BRTAP	15	96	4
NMHLD	15	288	0	48
NMHLD	16	0	1	48
NMHLD	16	0	7	48
NMSTR	16	96	2
NMSUL	16	96	2	96	48	4
NMTAP	16	112	6
NMTAP	16	128	2
NMSTR	16	144	6
NMSUL	16	144	6	96	48	0
NMTAP	16	160	2
NMTAP	16	176	6
NMTAP	16	192	2
EXTAP	16	288	3
NMTAP	17	0	3
NMTAP	17	48	2
NMTAP	17	48	4
NMTAP	17	96	5
NMTAP	17	120	4
NMTAP	17	144	3
NMSTR	17	192	2
NMSI_	17	192	2	96	32	4
NMTAP	17	192	4
NMTAP	17	240	1
NMSTR	17	240	5
NMSI_	17	240	5	96	48	1
NMTAP	17	288	2
NMTAP	17	336	5
NMTAP	18	0	3
NMTAP	18	48	2
NMTAP	18	72	3
NMSTR	18	96	4
NMSI_	18	96	4	96	48	0
NMSLR	18	96	4	96	48	3
NMTAP	18	192	4
NMTAP	18	288	1
EXTAP	18	288	2
EXTAP	18	360	3
NMTAP	19	48	2
EXTAP	19	48	4
NMTAP	19	96	3
EXTAP	19	120	5
NMTAP	19	144	4
NMTAP	19	192	3
EXTAP	19	192	6
NMTAP	19	240	0
EXTAP	19	264	7
NMTAP	19	288	1
EXTAP	19	336	0
NMTAP	19	336	6
NMTAP	20	0	4
EXTAP	20	24	1
NMTAP	20	48	3
NMTAP	20	72	3
EXSTR	20	96	2
NMSV_	20	96	2	96	48	5
NMTAP	20	192	2
NMSTR	20	192	5
NMSCL	20	192	5	96	72	7
NMTAP	20	240	6
BRTAP	20	288	7
NMTAP	21	0	4
NMTAP	21	0	5
NMTAP	21	48	3
NMTAP	21	96	2
NMTAP	21	120	3
NMTAP	21	144	4
NMTAP	21	192	3
NMSTR	21	192	5
NMSI_	21	192	5	96	32	3
NMSTR	21	240	2
NMSI_	21	240	2	96	48	6
NMTAP	21	240	6
NMTAP	21	288	5
NMTAP	21	336	2
NMTAP	22	0	4
NMTAP	22	48	5
NMTAP	22	72	4
NMSTR	22	96	3
NMSI_	22	96	3	96	48	7
NMSXR	22	96	3	96	72	4
NMTAP	22	192	3
EXTAP	22	288	5
NMTAP	22	288	6
EXTAP	22	360	4
EXTAP	23	48	3
NMTAP	23	48	5
NMTAP	23	96	4
EXTAP	23	120	2
NMTAP	23	144	3
EXTAP	23	192	1
NMTAP	23	192	4
NMTAP	23	240	7
EXTAP	23	264	0
NMTAP	23	288	1
NMSTR	23	288	6
NMSUL	23	288	6	96	48	1
NMSTR	24	0	2
NMSUL	24	0	2	96	48	5
BRTAP	24	0	6
BRTAP	24	96	2
NMSTR	24	96	4
NMSCR	24	96	4	96	96	3
BRTAP	24	192	3
BRTAP	24	192	4
NMTTP	24	288	0	C	1	M1
NMTAP	25	0	6
NMTAP	25	0	7
NMTAP	25	48	5
NMTAP	25	96	3
NMTAP	25	120	3
NMTAP	25	144	4
NMTAP	25	168	3
NMTAP	25	192	5
NMTAP	25	216	4
NMTAP	25	264	4
NMTAP	25	288	6
NMTAP	25	312	4
NMTAP	25	336	5
NMTAP	26	0	2
NMTAP	26	0	3
NMTAP	26	48	1
NMTAP	26	48	4
NMSTR	26	96	0
NMSCR	26	96	0	96	48	3
NMSTR	26	144	3
BRSCL	26	144	3	96	48	0
NMTAP	26	192	0
NMHLD	26	192	5	48
NMTAP	26	288	6
NMTAP	26	336	5
NMTAP	26	336	7
NMTAP	27	0	3
NMTAP	27	48	2
NMTAP	27	48	4
NMHLD	27	96	0	72
NMHLD	27	168	1	72
NMTAP	27	240	2
EXTAP	27	288	1
NMTAP	27	288	3
NMTAP	27	320	2
NMTAP	27	352	3
EXTAP	28	0	2
NMTAP	28	0	4
NMTAP	28	32	3
NMTAP	28	64	4
EXTAP	28	96	3
NMTAP	28	96	5
NMTAP	28	128	4
NMTAP	28	160	5
EXTAP	28	192	4
BRTAP	28	192	6
NMTAP	28	288	7
NMTAP	28	304	3
NMTAP	28	320	7
NMTAP	28	336	3
EXTAP	28	360	7
EXTAP	29	48	6
NMTAP	29	96	4
EXTAP	29	120	5
NMTAP	29	144	2
NMTAP	29	168	2
EXTAP	29	192	4
NMTAP	29	240	1
NMTAP	29	240	3
EXTAP	29	288	0
NMSTR	29	288	4
NMSCR	29	288	4	96	32	6
EXTAP	29	360	1
BRTAP	30	0	4
EXTAP	30	48	2
NMHLD	30	96	7	48
EXTAP	30	120	3
EXTAP	30	192	4
NMTAP	30	208	0
NMTAP	30	224	4
NMTAP	30	240	0
NMTAP	30	256	4
NMTAP	30	288	3
NMTAP	30	288	7
NMTAP	30	312	2
NMTAP	30	312	6
NMTAP	30	336	1
NMTAP	30	336	5
NMTAP	31	0	1
NMTAP	31	32	3
NMTAP	31	64	5
NMTAP	31	96	7
NMTAP	31	128	3
NMTAP	31	160	5
NMTAP	31	192	1
NMTAP	31	224	7
NMTAP	31	256	5
NMSTR	31	288	0
NMSCL	31	288	0	96	48	2
NMSTR	31	288	6
NMSLL	31	288	6	96	48	2
BRTAP	32	96	0
BRTAP	32	96	1
NMTAP	32	144	6
BRTAP	32	168	5
BRTAP	32	168	7
NMTAP	32	216	2
BRTAP	32	240	1
BRTAP	32	240	3
NMSTR	32	288	0
NMSCR	32	288	0	96	48	3
NMSTR	32	288	4
NMSCR	32	288	4	96	48	7
NMTAP	33	96	0
NMTAP	33	96	4
NMTAP	33	120	7
NMTAP	33	144	6
NMTAP	33	168	5
NMTAP	33	192	1
NMTAP	33	192	4
NMTAP	33	240	2
NMTAP	33	240	3
NMTAP	33	288	1
NMTAP	33	312	0
NMTAP	33	336	1
NMTAP	33	360	2
NMTAP	33	360	7
NMTAP	34	48	4
NMSTR	34	48	5
NMSV_	34	48	5	96	48	6
NMTAP	34	96	0
NMSTR	34	96	1
NMSV_	34	96	1	96	48	2
BRTAP	34	288	0
BRHLD	34	288	4	96
NMTTP	34	336	6	D	0	M1
NMTTP	34	348	5	D	0	M1
NMTTP	34	360	4	D	0	M1
NMTTP	34	372	3	D	0	M1
NMTTP	35	0	2	D	1	M1
NMTAP	35	96	1
NMTAP	35	120	0
NMTAP	35	144	1
NMTAP	35	168	0
NMTAP	35	192	1
NMTAP	35	192	7
NMTAP	35	240	2
NMTAP	35	264	3
NMTAP	35	288	2
NMTAP	35	312	3
NMTAP	35	336	2
NMTAP	35	336	4
NMTAP	36	0	3
NMTAP	36	0	5
NMTAP	36	48	6
NMTAP	36	72	6
NMTAP	36	72	7
NMTAP	36	120	1
NMTAP	36	144	0
NMTAP	36	144	1
NMTAP	36	192	7
NMTAP	36	216	7
NMTAP	36	240	7
NMTAP	36	264	7
NMTTP	36	288	7	A	0	M1
NMTTP	36	300	7	B	0	M1
NMTTP	36	312	3	B	0	M1
NMTTP	36	324	3	A	0	M1
NMSTR	37	0	0
NMSI_	37	0	0	96	48	4
NMSTR	37	48	1
NMSI_	37	48	1	96	32	3
NMTAP	37	96	0
NMTAP	37	144	1
NMTAP	37	192	7
NMTTP	37	240	0	A	0	M1
NMTTP	37	252	0	B	0	M1
NMTTP	37	264	4	B	0	M1
NMTTP	37	276	4	A	0	M1
NMTAP	37	288	6
NMHLD	37	336	6	24
NMTAP	37	360	5
NMHLD	38	24	5	24
NMTAP	38	48	4
NMHLD	38	96	4	24
NMTAP	38	120	3
NMTAP	38	168	3
NMTAP	38	192	2
NMTAP	38	192	4
NMTAP	38	240	7
NMTAP	38	264	7
NMTTP	38	288	1	D	0	M1
NMTTP	38	296	1	A	0	M1
NMTTP	38	304	2	D	0	M1
NMTTP	38	312	2	A	0	M1
NMTTP	38	320	3	D	0	M1
NMTTP	38	328	3	A	0	M1
NMTTP	38	336	4	D	0	M1
NMTTP	38	344	4	A	0	M1
NMTTP	38	352	5	D	0	M1
NMTTP	38	360	5	A	0	M1
NMTTP	38	368	6	D	0	M1
NMTTP	38	376	6	A	0	M1
NMTTP	39	0	7	D	1	M1
NMTAP	39	96	2
NMSTR	39	96	3
NMSV_	39	96	3	96	48	4
NMTAP	39	144	6
NMSTR	39	144	7
NMSV_	39	144	7	96	48	0
NMHLD	39	288	3	48
NMHLD	39	360	4	48
NMHLD	39	360	5	48
NMHLD	40	48	1	48
NMHLD	40	48	3	48
NMHLD	40	120	5	48
NMHLD	40	120	6	48
NMSTR	40	192	0
NMSCR	40	192	0	96	32	2
NMSTR	40	192	4
NMSCR	40	192	4	96	32	6
NMTAP	40	240	3
NMTAP	40	240	7
NMTAP	41	0	0
NMTAP	41	0	4
NMTAP	41	32	7
NMTAP	41	64	6
NMTAP	41	96	3
NMTAP	41	96	5
NMTAP	41	128	2
NMTAP	41	160	1
NMTAP	41	192	0
NMSTR	41	192	6
NMSCR	41	192	6	96	96	3
NMTAP	41	224	5
NMTAP	41	256	4
BRTAP	41	288	3
BRSTR	42	0	4
NMSUL	42	0	4	96	48	0
NMSUR	42	0	4	96	48	0
CNSV_	42	144	0	0	48	3
CNSV_	42	144	0	0	48	5
CNSCL	42	192	3	0	48	1
CNSCR	42	192	5	0	48	7
NMHLD	42	288	0	96
NMHLD	43	0	6	96
NMTAP	43	96	5
NMTAP	43	120	6
NMTAP	43	144	4
NMTAP	43	168	5
NMTAP	43	192	3
NMTAP	43	216	4
NMTAP	43	240	2
NMTAP	43	264	3
NMSTR	43	288	1
NMSI_	43	288	1	96	32	3
NMTAP	43	336	0
NMTAP	44	0	1
NMSTR	44	0	6
NMSI_	44	0	6	96	32	4
NMTAP	44	48	7
NMTAP	44	96	1
NMTAP	44	96	6
NMTAP	44	144	2
NMSTR	44	168	2
NMSXR	44	168	2	96	408	3
NMTAP	44	168	3
NMSTR	44	288	7
NMSCL	44	288	7	96	48	4
NMTAP	45	0	7
NMHLD	45	96	3	48
NMHLD	45	192	5	48
NMTAP	45	288	6
NMTAP	45	312	4
NMTAP	45	336	5
NMTAP	45	360	3
NMTAP	46	0	2
NMTAP	46	0	4
NMSTR	46	48	0
NMSCR	46	48	0	96	48	3
NMSTR	46	96	3
NMSUL	46	96	3	96	48	7
NMSV_	46	96	3	96	48	6
NMTAP	46	144	0
EXSTR	46	288	6
NMSI_	46	288	6	96	48	3
EXTAP	46	288	7
NMTAP	46	336	5
NMTAP	47	0	0
NMTAP	47	0	6
NMTAP	47	48	1
NMTAP	47	72	1
NMSTR	47	96	2
NMSCR	47	96	2	96	48	5
NMTAP	47	144	6
NMTAP	47	168	6
NMTAP	47	192	2
NMTAP	47	240	7
EXTAP	47	288	0
EXSTR	47	288	1
NMSI_	47	288	1	96	48	4
NMTAP	47	336	2
NMTAP	48	0	1
NMTAP	48	0	7
NMTAP	48	48	6
NMTAP	48	72	6
NMSTR	48	96	5
NMSCL	48	96	5	96	48	2
NMTAP	48	144	1
NMTAP	48	168	1
NMTAP	48	192	5
NMTAP	48	240	0
NMTAP	48	288	6
NMSTR	48	288	7
NMSCR	48	288	7	96	48	2
NMTAP	48	336	5
NMTAP	49	0	3
NMTAP	49	0	7
NMTAP	49	48	4
NMSTR	49	96	0
NMSCL	49	96	0	96	48	5
NMTAP	49	96	1
NMTAP	49	144	2
NMTAP	49	192	0
NMTAP	49	192	4
NMTAP	49	240	3
NMTAP	49	288	6
NMTAP	49	304	7
NMTAP	49	320	0
NMTAP	49	336	1
NMTAP	49	352	2
NMTAP	49	368	3
NMHLD	50	0	4	144
NMTAP	50	0	5
NMTAP	50	16	6
NMTAP	50	32	7
NMTAP	50	48	0
NMTAP	50	64	1
NMTAP	50	80	2
NMHLD	50	96	3	96
NMTAP	50	288	4
NMTAP	50	288	5
NMSTR	50	336	3
NMSV_	50	336	3	96	48	0
NMTAP	51	0	2
NMSTR	51	48	1
NMSCR	51	48	1	96	48	4
NMTAP	51	144	0
NMTAP	51	144	1
NMTAP	51	192	6
NMTAP	51	216	6
NMTAP	51	240	7
NMTAP	51	288	0
NMTAP	51	288	5
NMTAP	51	336	1
NMTAP	51	360	3
NMSTR	52	0	2
NMSI_	52	0	2	96	48	7
NMTAP	52	48	3
NMTAP	52	48	4
NMSTR	52	96	5
NMSCR	52	96	5	96	48	0
NMSUR	52	96	5	96	48	1
BRTAP	52	192	5
EXSTR	52	288	1
NMSI_	52	288	1	96	48	4
NMTAP	52	288	3
NMTAP	52	336	2
NMTAP	53	0	0
NMTAP	53	24	0
NMTAP	53	72	5
NMTAP	53	96	4
NMSTR	53	144	6
NMSI_	53	144	6	96	48	3
NMTAP	53	144	7
NMTAP	53	240	3
NMTAP	53	240	6
NMTAP	53	288	1
NMTAP	53	336	1
NMTAP	53	336	2
NMTAP	54	0	1
NMTAP	54	0	4
NMSTR	54	48	1
NMSI_	54	48	1	96	32	3
NMTAP	54	48	6
NMTAP	54	96	0
NMSTR	54	96	1
BRSI_	54	96	1	96	48	5
EXSTR	54	144	1
NMSI_	54	144	1	96	32	7
EXTAP	54	192	1
EXTAP	54	240	1
EXTAP	54	288	6
NMTAP	54	336	5
NMTAP	55	0	3
NMTAP	55	0	4
NMTAP	55	48	2
NMTAP	55	72	2
NMTAP	55	96	3
NMSTR	55	144	1
NMSCR	55	144	1	96	48	4
NMSTR	55	144	4
NMSCR	55	144	4	96	48	7
NMTAP	55	240	1
NMTAP	55	240	4
NMSTR	55	336	0
NMSV_	55	336	0	96	48	3
NMTAP	55	336	1
NMTAP	56	0	2
NMTAP	56	0	3
NMTAP	56	48	0
NMSTR	56	96	7
NMSV_	56	96	7	96	48	4
NMSTR	56	144	6
NMSCL	56	144	6	96	48	3
NMTAP	56	192	7
NMTAP	56	240	6
BRSTR	56	288	2
NMSLR	56	288	2	96	96	6
NMHLD	57	0	2	96
CNSI_	57	96	6	0	24	0
NMTAP	57	144	1
NMTAP	57	168	0
NMTAP	57	168	1
NMTAP	57	216	6
NMTAP	57	240	6
NMTAP	57	240	7
NMSTR	57	288	0
NMSCR	57	288	0	96	48	3
NMSTR	57	336	3
NMSI_	57	336	3	96	48	7
NMSTR	58	0	7
NMSCL	58	0	7	96	48	4
NMTAP	58	48	4
NMSTR	58	96	0
NMSF_	58	96	0	96	48	4
NMTTP	58	288	0	C	1	M1
NMTTP	58	288	2	B	0	M1
NMTTP	58	288	2	A	0	M1
NMTTP	58	288	6	B	0	M1
NMTTP	58	288	6	A	0	M1
NMTAP	62	96	1
NMTAP	62	144	2
NMTAP	62	192	3
NMHLD	62	240	4	0
NMTAP	62	288	3
NMHLD	62	336	5	0
NMTAP	63	0	4
NMHLD	63	48	6	0
NMTAP	63	96	3
NMHLD	63	96	6	0
NMTAP	63	144	2
NMHLD	63	192	0	0
NMTAP	63	192	1
NMHLD	63	240	7	0
NMHLD	63	264	7	0
NMSTR	63	288	0
NMSCR	63	288	0	96	48	3
NMHLD	63	288	6	0
NMHLD	64	0	0	0
NMTAP	64	0	4
NMTAP	64	48	5
NMHLD	64	96	4	0
NMTAP	64	96	6
NMTAP	64	192	5
NMHLD	64	240	3	0
NMTAP	64	288	4
NMHLD	64	336	2	0
NMTAP	65	0	3
NMHLD	65	48	1	0
NMTAP	65	96	1
NMHLD	65	96	7	0
NMTAP	65	144	2
NMHLD	65	144	6	0
NMTAP	65	192	3
NMHLD	65	192	5	0
NMHLD	65	240	4	0
NMHLD	65	264	4	0
NMHLD	65	288	3	0
NMTAP	65	288	5
NMTAP	66	0	2
NMHLD	66	0	4	0
NMTAP	66	48	3
EXHLD	66	96	4	0
EXTAP	66	96	6
NMTAP	66	144	5
NMTAP	66	192	4
NMHLD	66	240	3	0
NMTAP	66	288	4
NMHLD	66	336	2	0
NMTAP	67	0	3
NMHLD	67	48	1	0
EXHLD	67	96	1	0
EXTAP	67	96	4
NMTAP	67	144	5
NMTAP	67	192	6
NMHLD	67	192	7	0
EXHLD	67	240	0	0
NMHLD	67	264	0	0
NMHLD	67	288	1	0
NMSTR	67	288	7
NMSCL	67	288	7	96	48	4
NMTAP	68	0	3
NMHLD	68	0	7	0
NMTAP	68	48	2
NMSTR	68	96	1
NMSI_	68	96	1	96	288	5
BRHLD	68	96	3	0
NMTTP	68	240	6	A	0	M1
NMTTP	68	336	0	C	0	M1
NMTTP	69	48	2	A	0	M1
NMTHO	69	288	0	96	C	1	M1
NMTAP	70	96	0
NMTAP	70	96	1
NMTAP	70	144	1
NMTAP	70	160	2
NMTAP	70	176	3
NMTAP	70	192	4
NMTAP	70	192	5
NMTAP	70	240	6
NMTAP	70	240	7
BRHLD	70	288	0	48
NMSTR	70	288	5
NMSLL	70	288	5	96	64	6
NMTAP	71	0	3
NMTAP	71	0	5
NMTAP	71	48	2
NMTAP	71	96	0
NMTAP	71	96	1
NMTAP	71	144	1
NMTAP	71	160	2
NMTAP	71	176	3
NMTAP	71	192	4
NMTAP	71	192	5
NMTAP	71	240	6
NMTAP	71	240	7
NMSTR	71	288	0
NMSCR	71	288	0	96	48	3
BRHLD	71	288	5	48
NMTAP	72	0	0
NMSTR	72	0	6
NMSI_	72	0	6	96	32	4
NMTAP	72	48	7
EXTAP	72	96	3
BRSTR	72	96	6
NMSI_	72	96	6	96	48	2
NMTAP	72	192	6
NMTAP	72	192	7
NMTAP	72	240	0
NMTAP	72	288	1
BRTAP	72	288	3
NMTAP	72	336	5
NMTAP	72	352	4
NMTAP	72	368	6
NMTAP	73	0	0
NMTAP	73	48	1
NMTAP	73	48	7
NMTAP	73	96	4
BRTAP	73	96	5
NMTAP	73	144	2
NMTAP	73	160	3
NMTAP	73	176	1
BRSTR	73	192	7
NMSF_	73	192	7	96	48	3
NMTAP	73	240	0
NMTAP	73	240	6
BRTAP	73	288	7
NMTAP	74	0	1
NMTAP	74	0	5
NMTAP	74	48	2
NMTAP	74	48	3
BRTAP	74	96	6
BRTAP	74	96	7
NMTAP	74	144	6
NMTAP	74	160	5
NMTAP	74	176	4
NMTAP	74	192	2
NMTAP	74	192	3
NMTAP	74	240	0
NMTAP	74	240	1
NMSTR	74	288	2
NMSLR	74	288	2	96	64	1
BRHLD	74	288	7	48
NMTAP	75	0	2
NMTAP	75	0	4
NMTAP	75	48	5
NMTAP	75	96	6
BRTAP	75	96	7
NMTAP	75	144	6
NMTAP	75	160	5
NMTAP	75	176	4
BRTAP	75	192	2
NMTAP	75	192	3
NMTAP	75	240	0
NMTAP	75	240	1
BRTAP	75	288	2
NMSTR	75	288	7
NMSCL	75	288	7	96	48	4
NMSTR	75	336	3
NMSCL	75	336	3	96	48	0
BRTAP	76	0	7
BRTAP	76	48	3
NMSTR	76	96	6
BRSI_	76	96	6	96	32	4
NMTAP	76	144	7
NMTAP	76	168	7
BRTAP	76	192	6
NMTAP	76	240	2
NMSTR	76	288	1
BRSI_	76	288	1	96	48	4
NMTAP	76	288	3
NMTAP	76	336	0
NMTAP	76	360	0
BRTAP	77	0	1
NMTAP	77	48	6
NMTAP	77	96	5
NMSTR	77	96	7
BRSI_	77	96	7	96	48	3
NMTAP	77	144	3
NMTAP	77	168	3
BRTAP	77	192	7
NMTAP	77	240	1
NMSTR	77	288	2
NMSV_	77	288	2	96	48	7
NMSTR	77	288	6
NMSI_	77	288	6	96	48	3
BRTAP	78	0	2
BRTAP	78	0	6
BXHLD	78	96	1	96
BXHLD	78	96	5	96
NMTAP	78	240	0
NMSTR	78	240	6
NMSI_	78	240	6	96	48	3
NMTAP	78	288	7
NMTAP	78	336	3
NMTAP	78	336	6
NMTAP	79	0	2
CNSI_	79	0	3	0	48	5
NMTAP	79	48	1
NMTAP	79	96	0
NMTAP	79	96	6
NMTAP	79	144	6
NMTAP	79	160	5
NMTAP	79	176	4
NMSTR	79	192	1
NMSI_	79	192	1	96	48	5
NMTAP	79	192	3
NMTAP	79	240	7
NMTAP	79	264	7
BRSTR	79	288	1
NMSI_	79	288	1	96	32	3
NMTAP	80	0	1
BRSTR	80	0	4
NMSI_	80	0	4	96	48	7
NMTAP	80	48	6
BRHLD	80	96	0	96
BRTAP	80	96	4
NMTAP	80	192	2
NMTAP	80	240	1
NMTAP	80	240	3
NMTAP	80	288	4
NMTAP	80	336	2
NMTAP	80	336	6
NMTAP	80	352	5
NMTAP	80	368	4
NMTAP	81	0	2
NMTAP	81	0	3
NMTAP	81	48	0
NMTAP	81	48	1
NMTAP	81	96	6
NMTAP	81	96	7
NMTAP	81	144	1
NMTAP	81	144	5
NMTAP	81	160	2
NMTAP	81	168	5
NMTAP	81	176	3
NMTAP	81	192	4
NMTAP	81	192	6
NMTAP	81	240	0
NMTAP	81	264	0
NMSTR	81	288	1
NMSUL	81	288	1	96	24	4
NMSTR	81	288	7
NMSUR	81	288	7	96	24	4
BRTAP	82	0	1
BRTAP	82	0	7
CNSCL	82	24	4	0	24	2
CNSCR	82	24	4	0	24	6
EXTAP	82	96	1
EXTAP	82	96	7
NMTAP	82	144	2
NMTAP	82	160	3
NMTAP	82	176	1
NMTAP	82	192	7
NMTAP	82	240	0
NMSTR	82	240	6
NMSI_	82	240	6	96	48	2
NMTAP	82	288	1
NMTAP	82	336	2
NMTAP	82	336	6
NMTAP	83	0	0
CNSI_	83	0	2	0	48	5
NMTAP	83	48	0
CNSI_	83	48	5	0	24	3
NMTAP	83	96	1
NMTAP	83	96	7
NMTAP	83	144	5
NMTAP	83	160	4
NMTAP	83	176	6
NMSTR	83	192	1
NMSI_	83	192	1	96	32	3
NMSTR	83	240	5
NMSI_	83	240	5	96	32	7
NMSTR	83	288	1
NMSI_	83	288	1	96	48	5
NMTAP	83	336	5
NMTAP	84	0	1
EXTAP	84	48	7
NMTAP	84	96	2
BRHLD	84	96	7	48
NMTAP	84	108	3
BRTAP	84	120	4
NMTAP	84	168	2
BRHLD	84	168	7	48
NMTAP	84	180	3
BRTAP	84	192	4
NMTAP	84	240	2
BRHLD	84	240	7	48
NMTAP	84	252	3
BRTAP	84	264	4
NMTAP	84	312	2
BRHLD	84	312	7	48
NMTAP	84	324	3
BRTAP	84	336	4
NMTAP	85	0	2
BRTAP	85	0	7
BRTAP	85	48	4
BRTAP	85	48	5
NMTTP	85	192	6	A	0	M1
NMTTP	85	240	0	C	0	M1
NMTTP	85	288	2	A	0	M1
NMTTP	86	0	1	B	0	M1
NMTTP	86	0	1	A	0	M1
NMTTP	86	0	5	B	0	M1
NMTTP	86	0	5	A	0	M1
NMTTP	86	96	3	B	0	M1
NMTTP	86	96	3	E	0	M1
NMTTP	86	96	3	A	1	M1
NMTTP	86	96	4	E	0	M1
BRHLD	86	96	7	96
NMTAP	86	192	1
NMTAP	86	216	1
NMTAP	86	240	0
NMTAP	86	264	2
NMTAP	86	288	5
NMTAP	86	312	5
NMTAP	86	336	4
NMTAP	86	360	6
NMTAP	87	0	2
NMTAP	87	24	2
NMTAP	87	48	3
NMTAP	87	72	1
NMTAP	87	96	7
NMTAP	87	120	7
NMTAP	87	144	2
NMTAP	87	160	3
NMTAP	87	176	4
NMTAP	87	192	6
NMTAP	87	216	6
NMTAP	87	240	1
NMTAP	87	256	2
NMTAP	87	272	3
BRTAP	87	288	5
NMTAP	87	312	5
NMTAP	87	336	0
BRTAP	87	352	1
NMTAP	87	368	2
NMTAP	88	0	4
BRTAP	88	24	4
NMTAP	88	48	7
NMTAP	88	64	0
NMTAP	88	80	1
NMTAP	88	96	3
NMTAP	88	120	3
BRTAP	88	144	2
NMTAP	88	168	2
BRTAP	88	192	7
NMTAP	88	216	6
NMTAP	88	240	0
BRTAP	88	264	1
NMTAP	88	288	5
NMTAP	88	304	4
NMTAP	88	320	3
NMTAP	88	336	6
NMTAP	88	352	5
NMTAP	88	368	4
BXHLD	89	0	3	84
NMTTP	89	0	7	D	1	M1
NMTTP	89	12	6	D	1	M1
NMTTP	89	24	5	D	1	M1
NMTTP	89	36	4	D	1	M1
NMTTP	89	48	3	D	1	M1
NMTTP	89	60	2	D	1	M1
NMTTP	89	72	1	D	1	M1
NMTTP	89	84	0	D	1	M1
BXTAP	89	96	2
BXTAP	89	96	6
BRTAP	89	240	0
BRTAP	89	240	7
BRTAP	89	256	0
BRTAP	89	256	7
BRTAP	89	272	1
BRTAP	89	272	6
BRTAP	89	288	2
BRTAP	89	288	5

T_REC_TAP	601
T_REC_BRK	59
T_REC_XTP	41
T_REC_BXX	2
T_REC_HLD	57
T_REC_XHO	5
T_REC_BHO	12
T_REC_BXH	3
T_REC_STR	86
T_REC_BST	7
T_REC_XST	7
T_REC_XBS	0
T_REC_TTP	55
T_REC_THO	1
T_REC_SLD	100
T_REC_BSL	5
T_REC_ALL	1041
T_NUM_TAP	790
T_NUM_BRK	88
T_NUM_HLD	63
T_NUM_SLD	100
T_NUM_ALL	1041
T_JUDGE_TAP	858
T_JUDGE_HLD	107
T_JUDGE_SLD	105
T_JUDGE_ALL	1070
TTM_EACHPAIRS	189
TTM_SCR_TAP	395000
TTM_SCR_BRK	228800
TTM_SCR_HLD	63000
TTM_SCR_SLD	150000
TTM_SCR_ALL	836800
TTM_SCR_S	803200
TTM_SCR_SS	828000
TTM_RAT_ACV	10106

