VERSION	0.00.00	1.04.00
FES_MODE	0
BPM_DEF	121.000	158.000	158.000	103.500
MET_DEF	4	4
RESOLUTION	384
CLK_DEF	384
COMPATIBLE_CODE	MA2

BPM	0	0	121.000
BPM	2	192	131.000
BPM	2	288	118.000
BPM	3	96	127.000
BPM	3	192	115.000
BPM	3	288	120.000
BPM	4	192	103.500
BPM	4	288	158.000
MET	0	0	4	4
MET	2	0	4	3
MET	2	288	4	4
MET	59	288	4	2
MET	60	96	4	4

BRHLD	2	288	1	96
BRTAP	2	288	6
NMHLD	3	0	2	96
NMHLD	3	96	3	96
NMHLD	3	192	4	96
NMHLD	3	288	5	96
NMHLD	4	0	6	192
NMHLD	4	96	7	192
NMTHO	4	288	0	288	C	0	M1
NMTAP	5	288	0
NMTAP	5	336	0
NMTAP	6	0	7
NMTAP	6	48	7
NMTAP	6	96	0
NMTAP	6	144	1
NMSTR	6	192	2
NMSV_	6	192	2	96	48	7
NMSTR	6	192	3
NMSI_	6	192	3	96	48	7
BRTAP	7	0	0
BRTAP	7	0	6
NMHLD	7	96	5	72
NMHLD	7	168	4	72
NMTAP	7	240	3
NMTAP	7	288	3
NMTAP	8	0	2
NMTAP	8	0	3
NMTAP	8	48	1
NMTAP	8	48	4
NMTAP	8	96	0
NMTAP	8	96	5
NMTAP	8	192	3
NMTAP	8	192	7
NMTAP	8	288	0
NMTAP	8	288	6
NMTAP	8	336	1
NMTAP	8	336	5
NMTAP	9	0	2
NMTAP	9	0	4
NMHLD	9	96	5	72
NMHLD	9	168	4	72
NMTAP	9	240	3
NMTAP	9	288	3
NMTAP	10	0	2
NMTAP	10	0	3
NMTAP	10	48	1
NMTAP	10	48	4
NMTAP	10	96	0
NMTAP	10	96	5
NMTAP	10	192	2
NMTAP	10	192	7
NMSTR	10	288	1
NMSV_	10	288	1	96	48	4
NMTAP	11	0	5
NMTAP	11	96	5
NMTAP	11	144	4
NMTAP	11	192	3
NMTAP	11	240	2
NMTAP	11	288	2
NMTAP	11	288	5
NMTTP	12	0	3	B	0	M1
NMTTP	12	0	4	B	0	M1
NMTTP	12	0	4	E	1	M1
NMTHO	12	96	0	96	C	0	M1
NMTAP	12	288	0
NMHLD	12	288	7	72
NMHLD	12	360	6	72
NMTAP	13	48	5
NMSTR	13	96	5
NMSI_	13	96	5	96	48	0
NMHLD	13	288	1	72
NMHLD	13	360	2	72
NMTAP	14	48	3
NMHLD	14	96	4	72
NMHLD	14	168	5	72
NMTAP	14	240	6
NMTAP	14	288	6
NMTAP	14	288	7
EXTAP	15	0	0
EXTAP	15	32	0
EXTAP	15	64	7
EXHLD	15	96	0	384
NMTHO	16	96	0	96	C	0	M1
NMTAP	16	288	1
NMTAP	17	0	1
NMTAP	17	96	1
NMTAP	17	192	1
NMTAP	17	288	0
NMTAP	17	288	1
NMTAP	18	0	0
NMTAP	18	0	1
NMTAP	18	96	0
NMTAP	18	96	1
NMTAP	18	192	0
NMTAP	18	192	1
NMTTP	18	288	0	E	0	M1
NMTAP	18	288	1
NMTTP	19	0	0	C	0	M1
NMTAP	19	0	1
NMTAP	19	96	1
NMTTP	19	96	4	E	0	M1
NMTAP	19	192	1
NMTTP	19	192	3	E	0	M1
NMTAP	19	288	0
NMTAP	19	288	1
NMTAP	20	0	0
NMTAP	20	0	1
NMTAP	20	96	1
NMTAP	20	96	7
NMTAP	20	192	1
NMTAP	20	192	7
NMTTP	20	288	0	E	0	M1
NMTAP	20	288	7
NMTTP	21	0	0	C	0	M1
NMTAP	21	0	7
NMTTP	21	96	4	E	0	M1
NMTAP	21	96	7
NMTTP	21	192	5	E	0	M1
NMTAP	21	192	7
NMTAP	21	288	5
NMHLD	21	288	7	96
NMHLD	22	0	4	96
BRTAP	22	96	6
BRTAP	22	192	6
EXHLD	22	288	6	48
EXHLD	22	288	7	48
NMTAP	22	360	6
NMTAP	22	360	7
EXHLD	23	48	4	48
EXHLD	23	48	5	48
NMTAP	23	120	4
NMTAP	23	120	5
EXTAP	23	192	3
EXTAP	23	192	4
EXTAP	23	240	2
EXTAP	23	240	5
BRTAP	24	0	1
BRTAP	24	0	3
BRTAP	24	96	0
BRTAP	24	96	7
BRTAP	24	192	4
BRTAP	24	192	5
NMHLD	24	288	2	672
BRSTR	24	288	5
NMSI_	24	288	5	96	48	3
NMSTR	25	96	1
NMSI_	25	96	1	96	48	3
NMSTR	25	288	4
NMSI_	25	288	4	96	48	1
NMSTR	26	96	0
NMSI_	26	96	0	96	48	3
NMHLD	26	288	4	96
NMTAP	27	0	2
NMTAP	27	48	3
NMTAP	27	96	4
NMTAP	27	144	5
NMSTR	27	192	6
NMSSL	27	192	6	96	192	2
BRTAP	27	288	7
NMTAP	28	192	0
BRSTR	28	288	1
BRSCR	28	288	1	96	96	4
BRHLD	28	288	7	96
NMSTR	29	96	5
NMSCR	29	96	5	96	96	0
NMSTR	29	192	4
NMSCL	29	192	4	96	96	1
NMSTR	30	0	0
NMSUL	30	0	0	96	96	4
NMSTR	30	96	1
NMSCL	30	96	1	96	96	6
EXTAP	30	288	5
EXTAP	30	352	5
EXTAP	31	32	3
EXTAP	31	32	4
NMTAP	31	96	2
NMTAP	31	96	3
NMTAP	31	160	1
NMTAP	31	160	2
NMTAP	31	224	0
NMTAP	31	224	1
NMHLD	31	288	0	192
NMTAP	31	288	7
BRTAP	32	96	7
BRTAP	32	168	1
BRTAP	32	168	3
BRTAP	32	240	2
BRTAP	32	240	5
BRSTR	32	288	2
NMSUL	32	288	2	96	288	7
BRSTR	32	288	5
NMSUR	32	288	5	96	288	0
NMTAP	34	96	1
NMTAP	34	96	6
NMTAP	34	144	2
NMTAP	34	144	5
NMTAP	34	192	3
NMTAP	34	192	4
NMTAP	34	240	2
NMTAP	34	240	5
NMSTR	34	288	0
BRSI_	34	288	0	96	48	4
NMTAP	34	288	7
EXTAP	35	0	4
NMTAP	35	96	5
NMTAP	35	120	4
NMTAP	35	144	5
NMTAP	35	192	2
NMTAP	35	216	3
NMTAP	35	240	2
NMTAP	35	288	6
NMTAP	35	312	7
NMTAP	35	336	6
NMTAP	36	0	0
NMTAP	36	0	5
NMTAP	36	48	1
NMTAP	36	48	4
NMTAP	36	96	2
NMTAP	36	96	3
NMTAP	36	144	2
NMTAP	36	144	3
NMTAP	36	192	5
NMTAP	36	216	4
NMTAP	36	240	5
NMSTR	36	288	3
NMSCL	36	288	3	96	48	0
NMHLD	36	288	6	96
NMTAP	37	96	6
NMTAP	37	120	7
NMTAP	37	144	6
NMTAP	37	192	5
NMTAP	37	216	4
NMTAP	37	240	5
NMHLD	37	288	4	48
NMHLD	37	288	5	48
NMHLD	37	360	6	48
NMHLD	37	360	7	48
NMHLD	38	48	0	48
NMHLD	38	48	1	48
NMHLD	38	120	2	48
NMHLD	38	120	3	48
NMTAP	38	192	1
NMSTR	38	192	4
NMSI_	38	192	4	96	48	0
NMSTR	38	288	1
NMSI_	38	288	1	96	48	5
BRTAP	39	0	7
NMTAP	39	96	6
NMTAP	39	120	7
NMTAP	39	144	6
NMTAP	39	192	1
NMTAP	39	216	0
NMTAP	39	240	1
NMHLD	39	288	2	48
NMHLD	39	288	7	48
NMHLD	39	360	4	48
NMHLD	39	360	6	48
NMHLD	40	48	2	48
NMHLD	40	48	3	48
NMHLD	40	120	4	48
NMHLD	40	120	5	48
BRTAP	40	192	0
BRSTR	40	192	7
NMSI_	40	192	7	96	96	5
NMTAP	40	288	0
NMTAP	41	0	0
CNSI_	41	0	5	0	96	1
CNSI_	41	96	1	0	96	3
NMTAP	41	96	7
NMTAP	41	192	7
NMTAP	41	288	0
NMTTP	41	288	4	E	0	M1
NMTAP	42	0	0
NMTTP	42	0	5	B	0	M1
NMTAP	42	96	0
NMTTP	42	96	2	E	0	M1
NMTTP	42	96	2	D	1	M1
NMSTR	42	288	3
NMSI_	42	288	3	96	48	5
NMTAP	42	288	5
NMSTR	43	0	6
NMSI_	43	0	6	96	48	2
EXSTR	43	96	7
NMSI_	43	96	7	96	48	1
NMTAP	43	192	3
NMSTR	43	288	4
NMSI_	43	288	4	96	48	6
NMSTR	44	0	0
NMSLR	44	0	0	96	96	4
EXTAP	44	96	7
NMTAP	44	192	7
NMSTR	44	288	7
NMSI_	44	288	7	96	48	1
NMSTR	45	0	2
NMSI_	45	0	2	96	48	6
EXSTR	45	96	3
NMSI_	45	96	3	96	48	5
NMTAP	45	192	7
NMSTR	45	288	0
NMSI_	45	288	0	96	48	2
NMSTR	46	0	4
NMSLR	46	0	4	96	96	0
EXTAP	46	96	3
NMTAP	46	288	1
NMTAP	46	336	1
NMTAP	47	0	2
NMTAP	47	0	3
NMTAP	47	48	4
NMTAP	47	96	5
NMTAP	47	144	5
NMTAP	47	192	4
NMTAP	47	192	6
NMTAP	47	240	7
NMTAP	47	288	0
NMTAP	47	336	0
NMTAP	48	0	1
NMTAP	48	0	7
NMTAP	48	48	2
NMTAP	48	96	4
NMTAP	48	144	4
NMTAP	48	192	3
NMTAP	48	192	5
NMTAP	48	240	2
NMTAP	48	288	7
NMTAP	48	336	6
NMTAP	49	0	3
NMTAP	49	0	5
NMTAP	49	48	2
NMTAP	49	96	4
NMTAP	49	144	5
NMSTR	49	192	0
NMSCL	49	192	0	96	192	5
NMTAP	49	240	1
NMTAP	49	288	2
BXTAP	50	144	0
BXTAP	50	192	0
NMHLD	50	288	1	768
NMTAP	50	288	7
NMTAP	51	0	3
NMTAP	51	48	3
NMTAP	51	96	4
NMTAP	51	192	0
NMTAP	51	288	7
NMTAP	52	0	3
NMTAP	52	48	3
NMTAP	52	96	4
BRTAP	52	192	0
NMHLD	52	288	6	768
NMTAP	53	0	4
NMTAP	53	48	4
NMTAP	53	96	3
NMTAP	53	192	7
NMTAP	53	288	0
NMTAP	54	0	4
NMTAP	54	48	4
EXTAP	54	96	3
BRTAP	54	192	7
BXHLD	54	288	2	288
NMTTP	55	0	0	E	0	M1
NMTTP	55	48	1	E	0	M1
NMTTP	55	96	2	E	0	M1
NMHLD	55	192	5	288
NMTTP	55	288	7	E	0	M1
NMTTP	55	336	6	E	0	M1
NMTTP	56	0	5	E	0	M1
NMHLD	56	96	0	192
NMTTP	56	192	2	B	0	M1
NMTTP	56	192	3	B	0	M1
NMTTP	56	192	3	E	0	M1
BRHLD	56	288	6	192
NMTAP	57	0	4
NMTAP	57	48	3
NMHLD	57	96	2	192
NMTTP	57	192	2	B	0	M1
NMTTP	57	192	2	E	0	M1
NMTTP	57	192	3	B	0	M1
NMTAP	57	288	7
NMTAP	57	336	7
NMTAP	58	0	1
NMTAP	58	48	2
NMTAP	58	96	3
NMTAP	58	96	6
NMTAP	58	144	2
NMTAP	58	144	5
NMSTR	58	192	1
NMSUR	58	192	1	96	384	4
NMTAP	58	192	4
NMTTP	58	288	0	C	1	M1
CNSCR	59	288	4	0	576	3
EXTAP	61	288	2
EXTAP	61	288	5
NMHLD	62	0	2	96
NMSTR	62	0	5
NMSXL	62	0	5	96	240	0
NMSTR	63	0	1
NMSXL	63	0	1	96	240	5
NMSTR	64	0	6
NMSUL	64	0	6	96	216	4
NMSTR	65	0	2
NMSI_	65	0	2	96	96	0
EXSTR	65	0	3
NMSI_	65	0	3	96	96	7
CNSI_	65	192	0	0	96	4
CNSI_	65	192	7	0	96	5
NMSTR	66	0	4
NMSI_	66	0	4	96	96	2
NMSTR	66	0	5
NMSI_	66	0	5	96	96	1
CNSI_	66	192	1	0	96	7
CNSI_	66	192	2	0	96	6
NMSTR	67	0	6
NMSI_	67	0	6	96	96	4
NMSTR	67	0	7
NMSI_	67	0	7	96	96	3
CNSI_	67	192	3	0	96	1
CNSI_	67	192	4	0	96	0
NMSTR	68	0	0
NMSCL	68	0	0	96	336	1
NMTAP	68	0	1
NMTHO	68	96	0	336	C	0	M1
BRTAP	69	288	3
BRTAP	69	288	4
BRTAP	70	0	0
BRTAP	70	0	7
NMSTR	70	96	1
NMSI_	70	96	1	96	48	4
NMTAP	70	96	6
NMTAP	70	144	1
NMSTR	70	192	5
NMSCR	70	192	5	96	72	1
NMTAP	70	240	5
EXTAP	70	288	3
NMTAP	71	0	2
NMTAP	71	48	2
NMTAP	71	96	2
NMTAP	71	96	3
NMTAP	71	144	1
NMTAP	71	144	4
NMSTR	71	192	0
BRSI_	71	192	0	96	48	4
NMTAP	71	240	0
NMTAP	71	288	7
NMTAP	72	0	5
NMTAP	72	48	4
NMTAP	72	96	3
NMTAP	72	96	6
NMTAP	72	144	2
NMTAP	72	192	1
NMTAP	72	192	3
NMTAP	72	240	4
NMTAP	72	288	3
NMTAP	72	288	5
NMTAP	72	336	2
NMTAP	72	336	6
NMTAP	73	0	1
NMTAP	73	0	7
NMTAP	73	48	1
NMTAP	73	48	7
NMTAP	73	96	0
NMTAP	73	120	6
NMTAP	73	144	0
NMTAP	73	168	6
NMTAP	73	192	0
NMTAP	73	216	6
NMTAP	73	240	0
NMTAP	73	264	6
BRTAP	73	288	1
BRTAP	73	288	5
NMTAP	74	0	2
NMTAP	74	0	3
NMTAP	74	48	4
NMSTR	74	96	5
NMSI_	74	96	5	96	48	0
NMTAP	74	144	5
NMSTR	74	192	1
NMSCR	74	192	1	96	72	5
NMTAP	74	240	1
EXTAP	74	288	7
NMTAP	75	0	6
NMTAP	75	48	6
NMTAP	75	96	6
NMTAP	75	96	7
NMTAP	75	144	0
NMTAP	75	144	5
NMSTR	75	192	4
NMSI_	75	192	4	96	48	0
NMTAP	75	240	4
NMTAP	75	288	2
NMTAP	75	336	2
NMTAP	76	0	7
NMTAP	76	48	6
NMTAP	76	96	4
NMTAP	76	96	5
NMTAP	76	144	3
NMTAP	76	192	2
NMTAP	76	192	4
NMTAP	76	240	2
NMTAP	76	240	4
NMTAP	76	288	1
NMTAP	76	336	0
NMSTR	77	0	6
NMSUR	77	0	6	96	120	5
NMSTR	77	0	7
NMSCR	77	0	7	96	120	4
NMTAP	77	48	6
NMTAP	77	48	7
NMTAP	77	288	6
NMTAP	77	288	7
NMTAP	77	336	6
NMTAP	77	336	7
BRTAP	78	0	0
BRTAP	78	0	5
NMSTR	78	96	6
NMSI_	78	96	6	96	48	3
NMTAP	78	144	6
NMSTR	78	192	2
NMSCL	78	192	2	96	120	6
NMTAP	78	240	2
EXTAP	78	288	4
NMTAP	79	0	5
NMTAP	79	48	5
NMTAP	79	96	4
NMTAP	79	96	5
NMTAP	79	144	3
NMTAP	79	144	6
NMSTR	79	192	7
BRSI_	79	192	7	96	48	3
NMTAP	79	240	7
NMTAP	79	288	0
NMSTR	80	0	2
NMSCL	80	0	2	96	48	7
NMTAP	80	48	2
NMTAP	80	96	3
NMSTR	80	192	5
NMSCL	80	192	5	96	48	2
NMTAP	80	240	5
NMTAP	80	288	4
NMSTR	81	0	1
NMSI_	81	0	1	96	48	5
NMTAP	81	48	1
NMSTR	81	96	0
NMSI_	81	96	0	96	48	4
NMTAP	81	144	0
NMTAP	81	192	2
NMTAP	81	240	2
NMTAP	81	288	1
NMTAP	81	288	5
BRTAP	82	0	6
BRTAP	82	0	7
NMTAP	82	48	0
NMSTR	82	96	1
NMSI_	82	96	1	96	48	4
NMTAP	82	144	1
NMSTR	82	192	6
NMSCR	82	192	6	96	120	2
NMTAP	82	240	6
NMTAP	82	288	5
NMTAP	83	0	3
NMTAP	83	48	3
NMSTR	83	96	5
NMSI_	83	96	5	96	48	2
NMTAP	83	144	5
NMSTR	83	192	1
NMSI_	83	192	1	96	48	5
NMTAP	83	240	1
NMSTR	83	288	7
NMSI_	83	288	7	96	48	3
NMTAP	83	336	7
BRTAP	84	0	0
NMHLD	84	96	2	48
EXHLD	84	96	3	48
NMHLD	84	168	4	48
EXHLD	84	168	5	48
EXHLD	84	240	1	48
NMHLD	84	240	3	48
EXHLD	84	312	5	48
NMHLD	84	312	7	48
EXTAP	85	0	5
NMTAP	85	0	7
NMTAP	85	48	0
NMTAP	85	48	6
NMSTR	85	96	1
NMSI_	85	96	1	96	48	4
NMSTR	85	96	7
NMSI_	85	96	7	96	48	2
NMSTR	85	288	3
NMSF_	85	288	3	96	48	7
BRTAP	86	96	1
BRTAP	86	96	5
NMTAP	86	192	2
NMTAP	86	192	3
NMTAP	86	240	2
NMTAP	86	240	3
NMTAP	86	288	1
NMTAP	86	336	1
NMTAP	86	360	3
NMTAP	87	24	3
NMTAP	87	48	2
NMTAP	87	96	3
NMTAP	87	96	4
NMTAP	87	144	5
NMTAP	87	168	4
NMTAP	87	216	4
NMTAP	87	240	6
BRTAP	87	288	0
BRTAP	87	288	7
NMTAP	87	336	1
NMTAP	87	336	6
NMTAP	88	0	2
NMTAP	88	0	5
NMTAP	88	96	6
NMTAP	88	120	7
NMTAP	88	144	6
NMTAP	88	168	7
NMTAP	88	192	6
NMTAP	88	216	7
NMTAP	88	240	6
NMTAP	88	264	7
NMTAP	88	288	6
NMTAP	88	312	5
NMTAP	88	336	4
NMTAP	88	360	3
NMTAP	89	0	2
NMTAP	89	24	1
NMTAP	89	48	0
NMTAP	89	72	7
NMTHO	89	96	0	192	C	1	M1
NMTAP	89	96	6
NMTTP	89	240	5	E	0	M1
NMTTP	89	252	4	E	0	M1
NMTTP	89	264	3	E	0	M1
NMTTP	89	276	2	E	0	M1

T_REC_TAP	334
T_REC_BRK	36
T_REC_XTP	21
T_REC_BXX	2
T_REC_HLD	48
T_REC_XHO	9
T_REC_BHO	3
T_REC_BXH	1
T_REC_STR	58
T_REC_BST	5
T_REC_XST	3
T_REC_XBS	0
T_REC_TTP	32
T_REC_THO	5
T_REC_SLD	62
T_REC_BSL	4
T_REC_ALL	623
T_NUM_TAP	448
T_NUM_BRK	51
T_NUM_HLD	62
T_NUM_SLD	62
T_NUM_ALL	623
T_JUDGE_TAP	491
T_JUDGE_HLD	189
T_JUDGE_SLD	66
T_JUDGE_ALL	746
TTM_EACHPAIRS	122
TTM_SCR_TAP	224000
TTM_SCR_BRK	132600
TTM_SCR_HLD	62000
TTM_SCR_SLD	93000
TTM_SCR_ALL	511600
TTM_SCR_S	491350
TTM_SCR_SS	506500
TTM_RAT_ACV	10100

