VERSION	0.00.00	1.04.00
FES_MODE	0
BPM_DEF	190.000	190.000	190.000	190.000
MET_DEF	4	4
RESOLUTION	384
CLK_DEF	384
COMPATIBLE_CODE	MA2

BPM	0	0	190.000
MET	0	0	4	4
MET	52	0	4	7
MET	62	192	4	2
MET	63	0	4	4

NMTTP	1	0	5	A	0	M1
NMTTP	1	24	5	E	0	M1
NMTTP	1	48	4	E	0	M1
NMTTP	1	72	3	A	0	M1
NMTTP	1	96	6	E	0	M1
NMTTP	1	120	5	B	0	M1
NMTTP	1	144	3	B	0	M1
NMTTP	1	168	3	E	0	M1
NMTTP	1	192	7	E	0	M1
NMTTP	1	216	7	B	0	M1
NMTTP	1	240	1	B	0	M1
NMTTP	1	264	2	E	0	M1
NMTTP	1	288	7	A	0	M1
NMTTP	1	312	0	E	0	M1
NMTTP	1	336	1	E	0	M1
NMTTP	1	360	1	A	0	M1
NMTHO	2	0	0	384	C	0	M1
NMTTP	3	0	5	B	0	M1
NMTTP	3	0	6	B	0	M1
NMTTP	3	96	1	B	0	M1
NMTTP	3	96	2	B	0	M1
NMTTP	3	192	4	E	1	M1
EXTAP	3	288	0
EXTAP	3	288	7
NMTAP	3	336	0
BXTAP	4	0	1
BXTAP	4	0	4
NMTAP	4	48	2
NMTAP	4	72	3
NMTAP	4	96	2
NMTAP	4	144	1
NMTAP	4	144	4
NMTAP	4	192	0
NMTAP	4	240	7
NMTAP	4	288	1
NMTAP	4	288	6
EXTAP	4	336	5
NMTAP	5	0	3
NMTAP	5	0	4
NMTAP	5	48	2
NMTAP	5	96	3
NMTAP	5	96	5
NMSTR	5	144	6
NMSI_	5	144	6	96	48	2
NMTAP	5	192	4
EXTAP	5	240	6
EXTAP	5	336	0
NMTAP	6	0	0
NMTAP	6	0	4
NMTAP	6	48	1
NMTAP	6	72	3
NMTAP	6	96	2
NMTAP	6	144	5
NMTAP	6	168	4
NMTAP	6	192	5
NMTAP	6	240	2
NMTAP	6	264	3
NMSTR	6	288	1
NMSI_	6	288	1	96	48	4
NMTAP	6	336	1
EXTAP	7	0	4
CNSCL	7	48	4	0	48	3
CNSI_	7	96	3	0	96	7
NMSTR	7	192	6
BRSI_	7	192	6	96	48	3
BXTAP	7	288	0
NMTAP	7	336	0
NMTAP	8	0	1
NMTAP	8	0	4
NMTAP	8	48	2
NMTAP	8	72	3
NMTAP	8	96	2
NMTAP	8	144	1
NMTAP	8	144	4
NMTAP	8	192	0
NMTAP	8	240	7
NMTAP	8	288	4
NMTAP	8	288	6
NMTAP	8	336	5
NMTAP	9	0	3
NMTAP	9	0	4
NMTAP	9	48	2
NMSTR	9	96	3
NMSI_	9	96	3	96	48	1
NMSTR	9	96	5
NMSI_	9	96	5	96	48	7
NMTAP	9	144	6
NMTAP	9	192	3
NMTAP	9	192	5
EXTAP	9	288	0
NMTAP	9	336	7
NMSTR	10	0	6
BRSI_	10	0	6	96	48	4
NMTAP	10	48	6
NMSTR	10	96	1
BRSI_	10	96	1	96	48	3
NMTAP	10	144	1
NMSTR	10	192	7
BRSCL	10	192	7	96	48	5
NMTAP	10	240	7
NMTAP	10	288	0
NMTAP	10	336	0
NMTAP	11	0	1
NMTAP	11	0	4
NMTAP	11	48	1
NMTAP	11	48	4
NMTAP	11	96	2
NMTAP	11	96	5
NMTAP	11	144	3
NMTAP	11	144	6
NMSTR	11	192	4
NMSV_	11	192	4	96	48	7
NMTAP	11	192	7
EXTAP	11	288	5
EXSTR	12	0	5
NMSI_	12	0	5	96	48	7
EXSTR	12	0	6
NMSI_	12	0	6	96	48	4
BXTAP	12	96	5
BXTAP	12	96	6
EXTAP	12	192	3
NMTAP	12	240	3
NMTAP	12	288	3
NMSTR	13	0	1
NMSI_	13	0	1	96	48	3
NMSTR	13	0	2
NMSI_	13	0	2	96	48	0
BXTAP	13	96	1
BXTAP	13	96	2
EXTAP	13	192	4
NMTAP	13	240	4
NMTAP	13	288	4
NMHLD	14	0	5	24
NMHLD	14	48	5	24
NMHLD	14	96	4	24
NMHLD	14	144	4	24
NMHLD	14	192	3	24
NMHLD	14	240	3	24
NMHLD	14	288	2	24
NMHLD	14	336	2	24
NMSTR	15	0	1
NMSI_	15	0	1	96	48	3
NMTAP	15	0	3
NMTAP	15	96	4
CNSV_	15	144	3	0	48	4
CNSI_	15	192	4	0	48	6
NMTAP	15	192	7
NMTAP	15	240	7
NMTAP	15	288	7
NMHLD	16	0	2	96
NMSTR	16	0	7
NMSCR	16	0	7	96	48	1
BXTAP	16	96	7
EXTAP	16	192	3
NMTAP	16	240	3
NMTAP	16	288	3
NMTAP	16	336	3
NMSTR	17	0	3
NMSCR	17	0	3	96	48	5
NMHLD	17	0	6	96
BXTAP	17	96	3
NMHLD	17	192	2	96
NMSTR	17	192	7
NMSCR	17	192	7	96	48	1
BXTAP	17	288	7
EXTAP	18	0	3
NMTAP	18	96	2
NMTAP	18	96	4
NMTAP	18	144	2
NMTAP	18	144	4
EXSTR	18	192	2
NMSI_	18	192	2	96	48	0
NMTAP	18	192	4
NMTAP	18	288	5
EXTAP	19	0	0
NMTAP	19	0	6
EXTAP	19	48	0
EXTAP	19	96	0
NMTTP	19	96	4	B	0	M1
NMTTP	19	96	5	E	0	M1
EXTAP	19	144	0
EXTAP	19	192	0
NMTTP	19	192	2	B	1	M1
NMTTP	19	192	3	E	0	M1
BXTAP	19	240	0
BXTAP	19	288	0
NMHLD	20	0	1	72
NMTAP	20	0	6
BRTAP	20	48	7
NMHLD	20	96	5	72
BRTAP	20	144	0
NMHLD	20	192	2	72
BRTAP	20	240	7
NMHLD	20	288	4	72
BRTAP	20	336	1
NMHLD	21	0	3	72
BRTAP	21	48	6
NMHLD	21	96	5	72
BRTAP	21	144	1
NMHLD	21	192	3	72
BRTAP	21	240	7
NMTAP	21	288	4
NMTAP	21	288	6
BRTAP	21	336	4
NMTAP	21	336	6
NMTAP	22	0	5
NMTAP	22	24	3
NMTAP	22	48	5
NMTAP	22	72	3
NMTAP	22	96	5
NMTAP	22	120	3
NMTAP	22	144	5
NMTAP	22	168	3
NMTAP	22	192	6
NMTAP	22	216	4
NMTAP	22	240	6
NMTAP	22	264	4
NMTAP	22	288	7
NMTAP	22	312	4
NMTAP	22	336	7
NMTAP	22	360	4
NMHLD	23	0	7	96
NMTTP	23	96	2	B	0	M1
NMTTP	23	96	3	E	1	M1
EXTAP	23	192	1
NMTTP	23	192	4	B	1	M1
NMTTP	23	192	5	E	0	M1
EXTAP	23	288	0
EXTAP	23	288	7
NMTAP	24	0	3
NMTAP	24	0	6
NMTAP	24	48	5
NMTAP	24	72	4
NMTAP	24	96	5
NMTAP	24	144	2
NMTAP	24	168	3
NMTAP	24	192	1
NMTAP	24	240	5
NMTAP	24	264	4
NMTAP	24	288	6
NMTAP	24	336	1
NMTAP	24	336	7
NMTAP	25	0	2
NMTAP	25	0	6
NMTAP	25	48	5
NMTAP	25	72	4
NMTAP	25	96	6
NMTAP	25	144	2
NMTAP	25	168	3
NMTAP	25	192	1
NMTAP	25	240	0
NMTAP	25	264	7
NMSTR	25	288	0
NMSI_	25	288	0	96	48	4
NMTAP	25	312	7
NMTAP	25	336	0
NMTAP	25	360	7
BRTAP	26	0	0
NMTAP	26	96	3
NMTAP	26	96	7
BRTAP	26	144	2
BRHLD	26	144	6	96
NMTAP	26	240	0
BRTAP	26	288	1
BRTAP	26	288	7
NMTAP	26	336	2
NMTAP	26	336	6
BRSTR	27	0	3
NMSI_	27	0	3	96	48	7
NMSCR	27	0	3	96	48	6
BRTAP	27	0	5
BXHLD	27	192	0	1728
BXTAP	27	192	5
NMSTR	28	0	3
NMSI_	28	0	3	96	144	5
CNSI_	28	240	5	0	96	2
CNSI_	28	336	2	0	144	6
CNSI_	29	96	6	0	96	1
CNSI_	29	192	1	0	96	7
CNSI_	29	288	7	0	96	1
CNSI_	30	0	1	0	96	6
CNSI_	30	96	6	0	96	2
CNSI_	30	192	2	0	144	5
CNSI_	30	336	5	0	144	3
NMTHO	32	0	0	768	C	0	M1
NMTTP	33	0	0	E	0	M1
NMTTP	33	96	1	E	0	M1
NMTTP	33	192	2	E	0	M1
NMTTP	33	288	3	E	0	M1
NMSTR	34	0	3
NMSCL	34	0	3	96	96	2
NMSCR	34	0	3	96	96	4
CNSI_	34	192	2	0	96	5
CNSI_	34	192	4	0	96	1
CNSI_	34	288	1	0	144	6
CNSI_	34	288	5	0	144	0
NMTAP	35	192	0
NMTAP	35	216	1
NMTAP	35	240	2
NMTAP	35	264	3
NMTAP	35	288	7
NMTAP	35	312	6
NMTAP	35	336	5
NMTAP	35	360	4
BXHLD	36	0	0	48
NMHLD	36	96	2	48
NMTAP	36	96	3
NMTAP	36	144	4
NMHLD	36	192	0	48
NMTAP	36	192	5
NMHLD	36	288	2	48
NMTAP	36	288	7
NMTAP	36	336	6
NMHLD	37	0	0	48
NMTAP	37	0	5
NMSTR	37	96	2
NMSI_	37	96	2	96	48	0
NMTAP	37	96	3
NMTAP	37	144	4
NMHLD	37	192	5	48
BXTAP	37	288	0
NMHLD	38	0	1	24
NMHLD	38	0	7	24
NMHLD	38	48	1	24
NMHLD	38	48	7	24
NMHLD	38	96	2	24
NMHLD	38	96	6	24
NMHLD	38	144	2	24
NMHLD	38	144	6	24
NMHLD	38	192	3	24
NMHLD	38	192	5	24
NMHLD	38	240	3	24
NMHLD	38	240	5	24
BRTAP	38	288	4
NMTAP	39	0	6
NMTAP	39	24	6
NMTAP	39	48	7
NMTAP	39	96	0
NMTAP	39	96	5
NMTAP	39	144	1
NMTAP	39	168	3
NMTAP	39	216	5
NMTAP	39	240	4
BXHLD	39	288	2	48
BXHLD	39	288	6	48
NMTAP	40	0	1
NMHLD	40	0	7	48
NMTAP	40	96	4
NMHLD	40	96	5	48
NMTAP	40	144	3
NMTAP	40	192	2
NMHLD	40	192	7	48
NMTAP	40	288	0
NMHLD	40	288	5	48
NMTAP	40	336	1
NMTAP	41	0	2
NMHLD	41	0	7	48
NMTAP	41	96	4
NMSTR	41	96	5
NMSI_	41	96	5	96	48	7
NMTAP	41	144	3
NMHLD	41	192	2	96
BXTAP	41	288	7
NMTAP	42	0	6
NMTAP	42	24	0
NMTAP	42	48	6
NMTAP	42	72	0
NMTAP	42	96	5
NMTAP	42	120	1
NMTAP	42	144	5
NMTAP	42	168	1
NMTAP	42	192	4
NMTAP	42	216	2
NMTAP	42	240	4
NMTAP	42	264	2
EXTAP	42	288	3
EXTAP	43	0	5
EXTAP	43	48	7
EXTAP	43	96	0
EXTAP	43	144	2
BRTAP	43	192	3
BRTAP	43	192	4
NMTAP	43	240	6
BRTAP	43	264	6
BRTAP	43	264	7
NMTAP	43	312	1
BRTAP	43	336	0
BRTAP	43	336	1
EXSTR	44	0	2
NMSI_	44	0	2	96	48	7
EXTAP	44	0	7
NMHLD	44	96	5	48
NMSTR	44	192	1
NMSI_	44	192	1	96	48	6
NMHLD	44	192	6	48
NMHLD	44	288	4	48
NMSTR	45	0	0
NMSI_	45	0	0	96	48	5
NMHLD	45	0	5	48
NMHLD	45	96	3	48
BXTAP	45	192	4
EXTAP	45	288	1
EXTAP	45	288	7
NMHLD	46	0	0	24
NMHLD	46	0	6	24
NMHLD	46	48	0	24
NMHLD	46	48	6	24
NMHLD	46	96	1	24
NMHLD	46	96	5	24
NMHLD	46	144	1	24
NMHLD	46	144	5	24
NMHLD	46	192	2	24
NMHLD	46	192	4	24
NMHLD	46	240	2	24
NMHLD	46	240	4	24
BRTAP	46	288	3
NMTAP	47	0	5
NMTAP	47	24	5
NMTAP	47	48	4
NMTAP	47	96	3
NMTAP	47	96	6
NMTAP	47	144	1
NMTAP	47	168	0
NMTAP	47	216	6
NMTAP	47	240	7
BXHLD	47	288	1	48
BXHLD	47	288	4	48
NMHLD	48	0	0	48
EXSTR	48	0	5
NMSI_	48	0	5	96	48	0
NMHLD	48	96	2	48
NMHLD	48	192	1	48
NMSTR	48	192	6
NMSI_	48	192	6	96	48	1
NMHLD	48	288	3	48
NMHLD	49	0	2	48
NMSTR	49	0	7
NMSI_	49	0	7	96	48	2
NMHLD	49	96	4	48
BRTAP	49	192	3
NMTAP	49	288	0
NMTAP	49	288	6
BRTAP	50	0	7
NMTAP	50	24	1
NMTAP	50	48	7
NMTAP	50	72	1
NMTAP	50	96	7
NMTAP	50	120	1
NMTAP	50	144	7
NMTAP	50	168	1
BRTAP	50	192	6
NMTAP	50	216	2
NMTAP	50	240	6
NMTAP	50	264	2
BRTAP	50	288	6
NMTAP	50	312	2
NMTAP	50	336	6
NMTAP	50	360	2
NMTTP	51	0	5	E	0	M1
NMTTP	51	12	4	E	0	M1
NMTTP	51	24	3	E	0	M1
NMTTP	51	36	2	E	0	M1
NMTTP	51	48	1	E	0	M1
NMTTP	51	60	0	E	0	M1
NMTTP	51	72	7	E	0	M1
NMTTP	51	84	6	E	0	M1
NMTTP	51	96	5	D	0	M1
NMTTP	51	108	4	D	0	M1
NMTTP	51	120	3	D	0	M1
NMTTP	51	132	2	D	0	M1
NMTTP	51	144	1	D	0	M1
NMTTP	51	156	0	D	0	M1
NMTTP	51	168	7	D	0	M1
NMTTP	51	180	6	D	0	M1
NMTTP	51	192	0	C	1	M1
NMTTP	51	192	5	D	0	M1
BRTAP	51	288	0
BRTAP	51	288	7
NMTAP	52	0	0
NMTAP	52	0	1
NMTAP	52	48	0
NMSTR	52	48	1
NMSI_	52	48	1	96	48	4
NMTAP	52	144	7
NMSTR	52	192	6
NMSI_	52	192	6	96	48	1
NMTAP	52	288	4
NMSTR	52	336	3
NMSI_	52	336	3	96	48	6
NMTAP	53	48	1
NMSTR	53	96	0
BRSCR	53	96	0	96	48	3
NMTAP	53	192	0
NMTAP	53	192	7
NMTAP	53	288	4
NMTAP	53	288	5
NMHLD	53	336	4	48
NMHLD	53	336	5	48
NMTAP	54	48	0
NMTAP	54	48	6
NMHLD	54	96	0	48
NMHLD	54	96	6	48
NMTAP	54	192	2
NMTAP	54	192	3
NMHLD	54	240	2	48
NMHLD	54	240	3	48
NMTAP	54	336	1
NMTAP	54	336	7
NMSTR	55	0	1
NMSI_	55	0	1	96	48	5
NMSTR	55	0	7
NMSCR	55	0	7	96	48	2
BXTAP	55	192	4
EXSTR	55	240	4
NMSI_	55	240	4	96	48	1
NMTAP	55	336	5
NMSTR	56	0	6
NMSI_	56	0	6	96	48	3
NMTAP	56	96	7
NMSTR	56	144	0
NMSI_	56	144	0	96	48	5
NMTAP	56	240	1
NMSTR	56	288	2
BRSCL	56	288	2	96	48	7
BRTAP	57	0	2
NMTAP	57	0	3
NMTAP	57	96	5
NMSTR	57	144	5
BRSCL	57	144	5	96	48	2
NMTAP	57	192	0
BRTAP	57	240	5
NMTAP	57	336	1
NMSTR	58	0	1
BRSI_	58	0	1	96	48	4
NMTAP	58	48	3
BRTAP	58	96	1
NMTAP	58	192	7
NMSTR	58	240	7
BRSI_	58	240	7	96	48	3
NMTAP	58	288	4
BRTAP	58	336	7
NMTAP	59	48	1
NMTAP	59	96	1
NMTAP	59	144	0
NMTAP	59	144	1
NMTAP	59	192	0
NMTAP	59	192	1
NMTAP	59	240	2
NMTAP	59	240	3
NMTAP	59	288	2
NMTAP	59	288	3
NMTAP	59	336	4
NMTAP	59	336	5
NMTAP	60	0	4
NMTAP	60	0	5
NMTAP	60	48	6
NMTAP	60	48	7
NMTAP	60	96	6
NMTAP	60	96	7
NMTAP	60	144	6
NMTAP	60	144	7
NMSTR	60	192	6
BRSSR	60	192	6	96	96	2
NMSTR	60	192	7
BRSSR	60	192	7	96	96	3
NMTAP	60	240	0
NMTAP	60	240	5
BRTAP	60	288	6
BRTAP	60	288	7
EXHLD	62	0	2	1536
NMTTP	63	0	3	E	0	M1
NMTTP	63	16	3	D	0	M1
NMTTP	64	0	2	E	0	M1
NMTTP	64	16	2	D	0	M1
NMTTP	65	0	3	B	0	M1
NMTTP	65	16	3	A	0	M1
NMTHO	66	0	0	384	C	1	M1
EXHLD	67	0	0	96
NMTTP	67	192	2	B	0	M1
NMTTP	67	192	3	B	0	M1
NMTTP	67	192	3	E	1	M1
EXHLD	67	192	6	96
EXHLD	68	0	1	96
NMTTP	68	0	4	B	0	M1
NMTTP	68	0	5	B	0	M1
NMTTP	68	0	5	E	1	M1
NMTTP	68	192	0	C	1	M1
EXTAP	68	192	7
NMHLD	69	0	6	48
NMHLD	69	0	7	48
NMHLD	69	96	6	48
NMHLD	69	96	7	48
NMHLD	69	192	5	48
NMHLD	69	192	6	48
NMHLD	69	288	5	48
NMHLD	69	288	6	48
NMTAP	70	0	4
NMTAP	70	0	5
NMTAP	70	48	4
NMTAP	70	48	5
NMTAP	70	96	4
NMTAP	70	96	5
NMTAP	70	144	4
NMTAP	70	144	5
NMTAP	70	192	3
NMTAP	70	216	4
NMTAP	70	240	3
NMTAP	70	264	4
NMTAP	70	288	3
NMTAP	70	312	4
NMTAP	70	336	3
NMTAP	70	360	4
NMTAP	71	0	2
NMTAP	71	24	3
NMTAP	71	48	2
NMTAP	71	72	3
NMTAP	71	96	2
NMTAP	71	120	3
NMTAP	71	144	2
NMTAP	71	168	3
NMTAP	71	192	1
NMTAP	71	216	2
NMTAP	71	240	1
NMTAP	71	264	2
NMTAP	71	288	1
NMTAP	71	312	2
NMTAP	71	336	1
NMTAP	71	360	2
NMTAP	72	0	0
NMTAP	72	24	1
NMTAP	72	48	0
NMTAP	72	72	1
NMTAP	72	96	0
NMTAP	72	120	1
NMTAP	72	144	0
NMTAP	72	168	1
NMTAP	72	192	0
NMTAP	72	216	1
NMTAP	72	240	0
NMTAP	72	264	1
NMSTR	72	288	0
NMSSL	72	288	0	96	120	4
NMTAP	72	312	1
NMTAP	72	336	0
NMTAP	72	360	1
BRTAP	73	0	0
NMTTP	74	0	5	A	0	M1
NMTTP	74	48	4	A	0	M1
NMTTP	74	96	3	A	0	M1
NMTTP	74	144	2	A	0	M1
NMTTP	74	192	6	E	0	M1
NMTTP	74	240	5	E	0	M1
NMTTP	74	288	3	E	0	M1
NMTTP	74	336	2	E	0	M1
NMTTP	75	0	3	A	0	M1
NMTTP	75	0	4	E	0	M1
NMTTP	75	0	4	A	0	M1
NMTTP	75	96	1	B	0	M1
NMTTP	75	96	1	A	0	M1
NMTTP	75	96	6	B	0	M1
NMTTP	75	96	6	A	0	M1
NMTHO	75	192	0	96	C	1	M1
NMTTP	75	288	2	B	0	M1
NMTTP	75	288	2	A	0	M1
NMTTP	75	288	3	E	0	M1
NMTTP	75	288	5	B	0	M1
NMTTP	75	288	5	E	0	M1
NMTTP	75	288	5	A	0	M1
EXTAP	76	0	7
EXTAP	76	96	7
NMHLD	76	192	0	48
NMHLD	76	192	7	48
NMTAP	76	288	0
NMTAP	76	288	7
NMTAP	76	336	0
BXTAP	77	0	1
BXTAP	77	0	4
NMTAP	77	48	2
NMTAP	77	72	3
NMTAP	77	96	2
NMTAP	77	144	1
NMTAP	77	144	4
NMTAP	77	192	0
NMTAP	77	240	7
NMTAP	77	288	4
NMTAP	77	288	6
EXTAP	77	336	5
NMTAP	78	0	3
NMTAP	78	0	4
NMTAP	78	48	2
NMTAP	78	96	3
NMTAP	78	96	5
NMSTR	78	144	6
NMSI_	78	144	6	96	48	0
NMTAP	78	192	4
NMSTR	78	240	6
NMSI_	78	240	6	96	48	4
NMTAP	78	288	1
NMTAP	78	336	6
NMTAP	79	0	0
NMTAP	79	48	1
NMTAP	79	72	3
NMTAP	79	96	2
NMTAP	79	144	4
NMTAP	79	168	3
NMTAP	79	192	4
NMTAP	79	240	2
NMTAP	79	264	3
NMSTR	79	288	1
NMSI_	79	288	1	96	48	4
NMTAP	79	336	1
EXTAP	80	0	4
CNSCL	80	48	4	0	48	3
CNSI_	80	96	3	0	96	6
EXSTR	80	192	7
BRSI_	80	192	7	96	48	3
BXTAP	80	288	0
BRTAP	80	288	7
NMTAP	80	336	0
NMTAP	81	0	1
NMTAP	81	0	4
NMTAP	81	48	2
NMTAP	81	72	3
NMTAP	81	96	2
NMTAP	81	144	1
NMTAP	81	192	0
NMTAP	81	192	6
NMTAP	81	240	0
NMTAP	81	240	6
NMTAP	81	288	1
NMTAP	81	288	5
NMTAP	81	336	2
NMTAP	81	336	4
NMTAP	82	0	3
NMTAP	82	0	5
NMTAP	82	48	2
NMTAP	82	48	6
NMSTR	82	96	1
NMSI_	82	96	1	96	48	5
NMSTR	82	96	7
NMSI_	82	96	7	96	48	3
NMTAP	82	144	0
BRTAP	82	192	1
BRTAP	82	192	7
EXTAP	82	288	4
EXTAP	82	336	2
NMTAP	83	0	1
NMTAP	83	0	5
NMTAP	83	48	0
NMTAP	83	72	7
NMTAP	83	96	0
NMTAP	83	144	1
NMTAP	83	144	5
NMTAP	83	192	2
NMTAP	83	192	4
NMTAP	83	240	5
NMTAP	83	264	4
NMSTR	83	288	6
NMSI_	83	288	6	96	48	0
NMTAP	83	336	6
NMSTR	84	0	1
NMSI_	84	0	1	96	48	5
NMTAP	84	48	1
NMTAP	84	96	7
NMTAP	84	144	7
NMSTR	84	192	3
NMSCL	84	192	3	96	48	0
BRSTR	84	288	6
BRSI_	84	288	6	96	48	3
BXSTR	85	0	1
BRSI_	85	0	1	96	48	4
BXTAP	85	0	6
BXTAP	85	96	1
BXSTR	85	96	5
BRSI_	85	96	5	96	48	0
BXTAP	85	192	5
NMTAP	85	240	1
BXTAP	85	288	7
NMTAP	85	336	3
BXTAP	86	0	1
BXSTR	86	0	5
BRSI_	86	0	5	96	48	1
BXSTR	86	96	2
BRSI_	86	96	2	96	48	7
BXTAP	86	96	5
BXTAP	86	192	2
NMTAP	86	240	6
BXTAP	86	288	0
NMTAP	86	336	4
BRTAP	87	0	1
NMHLD	87	0	3	24
NMTAP	87	48	1
NMHLD	87	48	3	24
BRTAP	87	96	2
NMHLD	87	96	4	24
NMTAP	87	144	2
NMHLD	87	144	4	24
BRTAP	87	192	3
NMHLD	87	192	5	24
NMTAP	87	240	3
NMHLD	87	240	5	24
BRTAP	87	288	4
NMHLD	87	288	6	24
NMTAP	87	336	4
NMHLD	87	336	6	24
BRSTR	88	0	3
BRSCL	88	0	3	96	48	0
BRSTR	88	0	7
BRSCL	88	0	7	96	48	4
BRSTR	88	96	3
BRSUR	88	96	3	96	48	7
BRSTR	88	96	7
BRSUR	88	96	7	96	48	3
BRTAP	88	192	3
BRTAP	88	192	7
BXSTR	88	288	1
BRSI_	88	288	1	96	48	4
BXTAP	88	288	5
BRTAP	89	0	1
BRSTR	89	0	6
BRSI_	89	0	6	96	48	3
BRSTR	89	96	2
BRSI_	89	96	2	96	48	7
BRTAP	89	96	6
BRTAP	89	192	2
NMTAP	89	240	6
BRTAP	89	288	0
NMTAP	89	336	4
BRSTR	90	0	2
BRSI_	90	0	2	96	48	6
BRTAP	90	0	6
BRTAP	90	96	2
BRSTR	90	96	5
BRSI_	90	96	5	96	48	0
BRTAP	90	192	5
NMTAP	90	240	1
BRTAP	90	288	7
NMTAP	90	336	3
NMSTR	91	0	6
NMSCL	91	0	6	96	120	1
NMTAP	91	96	1
NMTAP	91	144	0
NMSTR	91	192	7
NMSF_	91	192	7	96	48	3
NMTHO	92	0	0	192	C	1	M1
NMTTP	92	0	1	B	0	M1
NMTTP	92	0	2	B	0	M1
NMTTP	92	0	4	B	0	M1
NMTTP	92	0	5	B	0	M1
NMTAP	92	192	7
BXTAP	92	240	7
BXTAP	92	288	7
NMTAP	93	0	1
NMHLD	93	0	6	72
BRTAP	93	48	0
NMHLD	93	96	2	72
BRTAP	93	144	7
NMHLD	93	192	5	72
BRTAP	93	240	0
NMHLD	93	288	3	72
BRTAP	93	336	6
NMHLD	94	0	4	72
BRTAP	94	48	1
NMHLD	94	96	2	72
BRTAP	94	144	6
NMHLD	94	192	4	72
BRTAP	94	240	0
NMTAP	94	288	1
NMTAP	94	288	3
NMTAP	94	336	1
BRTAP	94	336	3
NMTAP	95	0	2
NMTAP	95	24	4
NMTAP	95	48	2
NMTAP	95	72	4
NMTAP	95	96	2
NMTAP	95	120	4
NMTAP	95	144	2
NMTAP	95	168	4
NMTAP	95	192	1
NMTAP	95	216	3
NMTAP	95	240	1
NMTAP	95	264	3
NMTAP	95	288	0
NMTAP	95	312	2
NMTAP	95	336	0
NMTAP	95	360	2
NMHLD	96	0	0	96
NMTTP	96	96	4	B	1	M1
NMTTP	96	96	5	E	0	M1
NMTTP	96	192	2	B	1	M1
NMTTP	96	192	3	E	0	M1
EXTAP	96	192	6
EXTAP	96	288	0
EXTAP	96	288	7
NMSTR	97	0	6
NMSI_	97	0	6	96	48	2
NMTAP	97	48	6
NMSTR	97	96	7
NMSI_	97	96	7	96	48	3
NMTAP	97	144	7
NMSTR	97	192	0
NMSI_	97	192	0	96	48	4
NMTAP	97	240	0
NMSTR	97	288	1
NMSI_	97	288	1	96	48	5
NMTAP	97	336	1
NMSTR	98	0	0
NMSI_	98	0	0	96	48	4
NMTAP	98	48	0
NMSTR	98	96	7
NMSI_	98	96	7	96	48	3
NMTAP	98	144	7
NMSTR	98	192	6
NMSI_	98	192	6	96	48	2
NMTAP	98	240	6
NMTAP	98	288	1
NMTAP	98	336	1
NMTAP	99	0	1
NMTAP	99	24	0
NMTAP	99	48	1
NMTAP	99	72	0
NMTAP	99	96	1
NMTAP	99	120	0
NMTAP	99	144	1
NMTAP	99	168	0
NMTAP	99	192	1
NMTAP	99	204	2
NMTAP	99	216	3
NMTAP	99	228	4
NMTAP	99	240	5
NMTAP	99	252	6
NMTAP	99	264	7
NMTAP	99	276	0
NMTAP	99	288	1
NMTAP	99	300	2
NMTAP	99	312	3
NMTAP	99	324	4
NMTAP	99	336	5
NMTAP	99	348	6
NMTAP	99	360	7
NMTAP	99	372	0
BRSTR	100	0	1
BRSF_	100	0	1	96	48	5
BXTAP	100	192	3
BXTAP	100	192	7
NMTAP	101	0	2
NMTAP	101	48	5
NMTAP	101	96	4
NMHLD	101	144	3	96
NMTAP	101	240	5
NMTAP	101	288	3
NMTAP	101	336	4
NMTAP	102	0	2
NMTAP	102	0	5
NMTTP	102	192	0	B	0	M1
NMTTP	102	192	0	C	1	M1
NMTTP	102	192	0	E	0	M1
NMTTP	102	192	0	A	0	M1
NMTTP	102	192	0	D	0	M1
NMTTP	102	192	1	B	0	M1
NMTTP	102	192	1	E	0	M1
NMTTP	102	192	1	A	0	M1
NMTTP	102	192	1	D	0	M1
NMTTP	102	192	2	B	0	M1
NMTTP	102	192	2	E	0	M1
NMTTP	102	192	2	A	0	M1
NMTTP	102	192	2	D	0	M1
NMTTP	102	192	3	B	0	M1
NMTTP	102	192	3	E	0	M1
NMTTP	102	192	3	A	0	M1
NMTTP	102	192	3	D	0	M1
NMTTP	102	192	4	B	0	M1
NMTTP	102	192	4	E	0	M1
NMTTP	102	192	4	A	0	M1
NMTTP	102	192	4	D	0	M1
NMTTP	102	192	5	B	0	M1
NMTTP	102	192	5	E	0	M1
NMTTP	102	192	5	A	0	M1
NMTTP	102	192	5	D	0	M1
NMTTP	102	192	6	B	0	M1
NMTTP	102	192	6	E	0	M1
NMTTP	102	192	6	A	0	M1
NMTTP	102	192	6	D	0	M1
NMTTP	102	192	7	B	0	M1
NMTTP	102	192	7	E	0	M1
NMTTP	102	192	7	A	0	M1
NMTTP	102	192	7	D	0	M1

T_REC_TAP	439
T_REC_BRK	59
T_REC_XTP	38
T_REC_BXX	33
T_REC_HLD	98
T_REC_XHO	4
T_REC_BHO	1
T_REC_BXH	6
T_REC_STR	56
T_REC_BST	11
T_REC_XST	7
T_REC_XBS	5
T_REC_TTP	126
T_REC_THO	5
T_REC_SLD	54
T_REC_BSL	27
T_REC_ALL	969
T_NUM_TAP	666
T_NUM_BRK	142
T_NUM_HLD	107
T_NUM_SLD	54
T_NUM_ALL	969
T_JUDGE_TAP	774
T_JUDGE_HLD	238
T_JUDGE_SLD	81
T_JUDGE_ALL	1093
TTM_EACHPAIRS	160
TTM_SCR_TAP	333000
TTM_SCR_BRK	369200
TTM_SCR_HLD	107000
TTM_SCR_SLD	81000
TTM_SCR_ALL	890200
TTM_SCR_S	849750
TTM_SCR_SS	876000
TTM_RAT_ACV	10162

