VERSION	0.00.00	1.04.00
FES_MODE	0
BPM_DEF	190.000	190.000	190.000	190.000
MET_DEF	4	4
RESOLUTION	384
CLK_DEF	384
COMPATIBLE_CODE	MA2

BPM	0	0	190.000
MET	0	0	4	4
MET	52	0	4	7
MET	62	192	4	2
MET	63	0	4	4

EXTAP	1	0	0
EXTAP	1	48	1
EXTAP	1	96	2
EXTAP	1	144	3
EXTAP	1	192	4
EXTAP	1	240	5
EXTAP	1	288	6
EXTAP	1	336	7
EXTAP	2	0	0
NMTAP	2	192	3
NMTAP	2	192	4
NMTTP	3	0	5	A	0	M1
NMTTP	3	0	6	E	0	M1
NMTTP	3	0	6	D	0	M1
NMTTP	3	96	0	C	0	M1
NMTTP	3	96	3	B	0	M1
NMTTP	3	96	4	B	0	M1
NMTTP	3	192	2	E	1	M1
NMTTP	3	192	2	A	0	M1
NMTTP	3	192	2	D	0	M1
NMTAP	3	288	0
NMTAP	3	288	7
NMTAP	3	336	0
NMTAP	3	336	7
NMTAP	4	48	0
NMTAP	4	48	1
NMSTR	4	96	0
NMSUR	4	96	0	96	48	5
NMSTR	4	96	1
NMSCR	4	96	1	96	48	4
EXTAP	4	288	6
EXHLD	4	336	6	96
NMTAP	5	48	7
NMTAP	5	96	7
NMTAP	5	192	1
NMTAP	5	192	4
NMTAP	5	240	1
NMTAP	5	240	4
NMTAP	5	336	3
NMTAP	5	336	6
NMTAP	6	0	3
NMHLD	6	0	6	96
NMHLD	6	96	4	96
NMHLD	6	192	3	96
BXSTR	6	288	1
BRSCR	6	288	1	96	192	6
NMTTP	7	0	4	E	1	M1
BRTAP	7	288	0
BRTAP	7	288	7
NMTAP	7	336	0
NMTAP	7	336	7
NMTAP	8	48	6
NMTAP	8	48	7
NMSTR	8	96	6
NMSCL	8	96	6	96	48	3
NMSTR	8	96	7
NMSUL	8	96	7	96	48	2
EXTAP	8	288	1
EXHLD	8	336	1	96
NMTAP	9	48	0
NMTAP	9	96	0
NMTAP	9	192	3
NMTAP	9	192	6
NMHLD	9	288	4	96
NMSTR	9	288	5
NMSI_	9	288	5	96	48	7
NMSTR	10	96	2
NMSI_	10	96	2	96	48	0
NMHLD	10	96	3	96
NMTAP	10	288	4
NMTAP	10	288	5
NMHLD	11	0	6	96
NMHLD	11	96	5	96
NMTAP	11	192	4
BRTAP	11	288	3
BRTAP	11	288	6
NMTAP	12	0	7
NMTTP	12	96	4	B	0	M1
NMTTP	12	96	4	A	0	M1
NMTTP	12	96	5	B	0	M1
NMTTP	12	96	5	E	0	M1
NMTTP	12	96	5	A	1	M1
NMTAP	12	192	2
NMTAP	12	240	2
NMTAP	12	288	1
NMTAP	12	288	3
NMTAP	13	0	0
NMTTP	13	96	2	B	0	M1
NMTTP	13	96	2	A	1	M1
NMTTP	13	96	3	B	0	M1
NMTTP	13	96	3	E	0	M1
NMTTP	13	96	3	A	0	M1
NMTAP	13	192	5
NMTAP	13	240	5
NMSTR	13	288	4
NMSCR	13	288	4	96	192	3
NMTAP	13	288	6
NMTTP	14	192	0	C	1	M1
NMTTP	14	192	3	B	0	M1
NMTTP	14	192	4	B	0	M1
NMHLD	15	0	0	48
NMHLD	15	0	7	48
NMHLD	15	96	0	48
NMHLD	15	96	1	48
NMHLD	15	192	0	48
NMHLD	15	192	7	48
NMHLD	15	288	6	48
NMHLD	15	288	7	48
NMTAP	16	0	0
NMTTP	16	96	2	B	0	M1
NMTTP	16	96	2	A	1	M1
NMTTP	16	96	3	B	0	M1
NMTTP	16	96	3	E	0	M1
NMTTP	16	96	3	A	0	M1
NMTAP	16	192	5
NMTAP	16	240	5
NMTAP	16	288	4
NMTAP	16	288	6
EXTAP	17	0	6
NMTTP	17	96	4	B	0	M1
NMTTP	17	96	4	A	0	M1
NMTTP	17	96	5	B	0	M1
NMTTP	17	96	5	E	0	M1
NMTTP	17	96	5	A	1	M1
EXTAP	17	192	1
NMTTP	17	288	2	B	0	M1
NMTTP	17	288	2	A	1	M1
NMTTP	17	288	3	B	0	M1
NMTTP	17	288	3	E	0	M1
NMTTP	17	288	3	A	0	M1
NMHLD	18	0	5	96
NMHLD	18	96	6	96
NMHLD	18	192	7	96
NMHLD	18	288	0	96
NMHLD	19	0	1	96
NMHLD	19	96	2	96
BRHLD	19	192	3	96
NMTAP	19	288	4
NMTAP	20	0	3
NMTAP	20	0	4
NMTAP	20	48	3
NMTAP	20	48	4
NMTAP	20	144	4
NMTAP	20	144	6
NMTAP	20	240	2
NMTAP	20	240	4
NMTAP	20	336	6
NMTAP	20	336	7
NMTAP	21	48	1
NMTAP	21	48	2
NMTAP	21	144	4
NMTAP	21	144	5
NMTAP	21	240	1
NMTAP	21	240	3
NMTAP	21	336	3
NMTAP	21	336	5
NMTAP	22	48	0
NMTAP	22	48	1
NMSTR	22	144	2
NMSCL	22	144	2	96	144	5
NMSTR	22	144	3
NMSUL	22	144	3	96	144	4
BXTAP	23	96	4
BXTAP	23	96	5
BXTAP	23	192	0
BXTAP	23	192	7
BXTAP	23	288	2
BXTAP	23	288	3
NMTAP	24	0	5
NMTAP	24	48	5
NMTAP	24	96	4
NMTAP	24	144	6
NMTAP	24	192	2
NMTAP	24	240	2
NMTAP	24	288	3
NMTAP	24	336	1
NMTAP	25	0	5
NMTAP	25	48	5
NMTAP	25	96	4
NMTAP	25	144	7
NMTAP	25	192	2
NMTAP	25	240	2
NMSTR	25	288	3
NMSCL	25	288	3	96	96	0
CNSUL	26	96	0	0	192	7
CNSCL	26	288	7	0	96	4
BRTAP	27	192	1
BRTAP	27	192	6
NMHLD	28	0	4	144
NMHLD	28	192	3	144
NMHLD	29	0	2	144
NMHLD	29	0	4	144
NMHLD	29	192	2	144
NMHLD	29	192	4	144
NMHLD	30	0	3	144
NMHLD	30	192	4	144
NMHLD	31	0	3	144
NMHLD	31	0	5	144
NMHLD	31	192	3	144
NMHLD	31	192	5	144
NMHLD	32	0	4	144
NMHLD	32	192	3	144
NMHLD	33	0	2	144
NMHLD	33	0	4	144
NMHLD	33	192	2	144
NMHLD	33	192	4	144
NMHLD	34	0	3	144
NMHLD	34	192	4	144
NMHLD	35	0	3	144
NMHLD	35	0	5	144
NMTAP	35	192	3
NMTAP	35	192	5
BRTAP	35	288	3
BRTAP	35	288	5
NMHLD	36	0	2	96
NMTAP	36	96	3
NMTAP	36	144	3
NMTAP	36	192	0
NMTAP	36	240	0
NMTAP	36	288	2
NMTAP	36	336	2
NMTAP	37	0	1
NMTAP	37	48	1
NMTAP	37	96	3
NMTAP	37	192	0
NMTAP	37	192	4
NMTAP	37	288	2
NMSTR	37	288	6
NMSCL	37	288	6	96	48	4
NMSTR	38	0	0
NMSCR	38	0	0	96	48	2
NMSTR	38	96	7
NMSI_	38	96	7	96	48	3
NMSTR	38	192	0
NMSI_	38	192	0	96	48	4
NMSTR	38	288	6
NMSUL	38	288	6	96	192	4
EXTAP	39	288	3
EXTAP	39	288	4
NMHLD	40	0	5	96
NMTAP	40	96	4
NMTAP	40	144	4
NMTAP	40	192	7
NMTAP	40	240	7
NMTAP	40	288	5
NMTAP	40	336	5
NMTAP	41	0	6
NMTAP	41	48	6
NMTAP	41	96	4
NMTAP	41	192	3
NMTAP	41	192	7
NMSTR	41	288	1
NMSCR	41	288	1	96	48	3
NMTAP	41	288	5
NMSTR	42	0	7
NMSCL	42	0	7	96	48	5
NMSTR	42	96	0
NMSI_	42	96	0	96	48	4
NMSTR	42	192	7
NMSI_	42	192	7	96	48	3
NMTAP	42	288	0
NMTAP	42	336	0
NMTAP	43	0	6
NMTAP	43	48	6
NMTAP	43	96	2
NMTAP	43	144	2
BRTAP	43	192	7
BRTAP	43	240	7
BRTAP	43	288	1
BRTAP	43	288	7
NMHLD	44	0	2	96
NMTAP	44	96	3
NMTAP	44	144	3
NMTAP	44	192	0
NMTAP	44	240	0
NMTAP	44	288	2
NMTAP	44	336	2
NMTAP	45	0	1
NMTAP	45	48	1
NMTAP	45	96	3
NMTAP	45	192	0
NMTAP	45	192	4
NMTAP	45	288	2
NMTAP	45	288	6
NMTAP	46	0	5
NMTAP	46	48	4
NMTAP	46	96	3
NMTAP	46	144	2
NMTAP	46	192	5
NMTAP	46	240	4
NMTAP	46	288	3
NMTAP	46	336	2
NMTAP	47	0	2
NMTAP	47	48	3
NMTAP	47	96	4
NMTAP	47	144	5
NMTAP	47	192	2
NMTAP	47	240	3
NMTAP	47	288	4
NMTAP	47	336	5
NMHLD	48	0	5	96
NMTAP	48	96	4
NMTAP	48	144	4
NMTAP	48	192	7
NMTAP	48	240	7
NMTAP	48	288	5
NMTAP	48	336	5
NMTAP	49	0	6
NMTAP	49	48	6
NMTAP	49	96	4
NMTAP	49	192	3
NMTAP	49	192	7
NMTAP	49	288	1
NMTAP	49	288	5
NMTAP	50	0	2
NMTAP	50	48	3
NMTAP	50	96	4
NMTAP	50	144	5
NMTAP	50	192	2
NMTAP	50	240	3
NMTAP	50	288	4
NMTAP	50	336	5
NMTAP	51	0	5
NMTAP	51	48	4
NMTAP	51	96	3
NMTAP	51	144	2
NMTAP	51	192	1
NMTAP	51	240	0
BRTAP	51	288	7
NMTAP	52	0	3
NMTAP	52	0	5
NMTAP	52	48	3
NMTAP	52	48	5
NMTAP	52	144	2
NMTAP	52	144	4
NMTAP	52	192	2
NMTAP	52	192	4
NMTAP	52	288	3
NMTAP	52	288	6
NMTAP	52	336	3
NMTAP	52	336	6
NMTAP	53	48	1
NMTAP	53	48	4
NMTAP	53	96	1
NMTAP	53	96	4
NMTAP	53	192	2
NMTAP	53	192	3
BRTAP	53	288	0
BRTAP	53	288	1
NMTAP	53	336	0
NMTAP	53	336	1
NMTAP	54	48	4
NMTAP	54	48	5
NMTAP	54	96	4
NMTAP	54	96	5
NMTAP	54	192	6
NMTAP	54	192	7
NMTAP	54	240	6
NMTAP	54	240	7
NMTAP	54	336	2
NMTAP	54	336	3
NMTAP	55	0	2
NMTAP	55	0	3
NMTAP	55	96	3
NMTAP	55	96	4
BRTAP	55	192	4
BRTAP	55	192	5
NMTAP	55	240	4
NMTAP	55	240	5
NMTAP	55	336	0
NMTAP	55	336	6
NMTAP	56	0	0
NMTAP	56	0	6
NMTAP	56	96	2
NMTAP	56	96	3
NMTAP	56	144	2
NMTAP	56	144	3
NMTAP	56	240	1
NMTAP	56	240	7
NMTAP	56	288	1
NMTAP	56	288	7
BRTAP	57	0	0
NMTAP	57	96	5
NMTAP	57	144	5
NMTAP	57	192	4
NMTAP	57	192	6
NMTAP	57	240	4
NMTAP	57	240	6
NMTAP	57	336	1
NMTAP	57	336	3
NMTAP	58	0	1
NMTAP	58	0	3
NMTAP	58	48	2
NMTAP	58	96	2
NMTAP	58	192	7
NMTAP	58	240	7
NMTAP	58	288	0
BXTAP	58	336	0
NMTAP	59	48	1
NMTAP	59	48	7
NMTAP	59	96	1
NMTAP	59	96	7
NMTAP	59	144	1
NMTAP	59	144	7
NMTAP	59	192	1
NMTAP	59	192	7
NMTAP	59	240	1
NMTAP	59	240	7
BXTAP	59	288	1
BXTAP	59	288	7
EXTAP	59	336	1
EXTAP	59	336	7
BXTAP	60	0	1
BXTAP	60	0	7
EXTAP	60	48	1
EXTAP	60	48	7
BXTAP	60	96	1
BXTAP	60	96	7
BXTAP	60	144	1
BXTAP	60	144	7
BXTAP	60	192	1
BXTAP	60	192	7
BXTAP	60	240	1
BXTAP	60	240	7
BXHLD	60	288	1	480
BXHLD	60	288	7	480
NMHLD	63	0	5	384
NMTTP	63	192	4	E	0	M1
NMHLD	64	0	2	384
NMTTP	64	192	4	E	0	M1
NMHLD	65	0	6	384
NMTTP	65	192	4	B	0	M1
NMHLD	66	0	1	192
NMTAP	66	192	3
NMTTP	67	0	0	B	0	M1
NMTTP	67	0	0	E	1	M1
NMTTP	67	0	0	A	0	M1
NMTTP	67	0	7	B	0	M1
NMTTP	67	0	7	A	0	M1
NMTTP	67	192	5	B	0	M1
NMTTP	67	192	5	A	0	M1
NMTTP	67	192	6	B	0	M1
NMTTP	67	192	6	E	1	M1
NMTTP	67	192	6	A	0	M1
NMTTP	68	0	1	B	0	M1
NMTTP	68	0	1	A	0	M1
NMTTP	68	0	2	B	0	M1
NMTTP	68	0	2	E	1	M1
NMTTP	68	0	2	A	0	M1
NMTTP	68	192	3	B	0	M1
NMTTP	68	192	3	A	0	M1
NMTTP	68	192	4	B	0	M1
NMTTP	68	192	4	E	1	M1
NMTTP	68	192	4	A	0	M1
NMHLD	69	0	1	96
NMHLD	69	96	3	96
NMHLD	69	192	4	96
NMHLD	69	288	6	96
NMTAP	70	0	2
NMTAP	70	48	2
NMTAP	70	96	0
NMTAP	70	144	0
NMTAP	70	192	7
NMTAP	70	240	7
NMTAP	70	288	5
NMTAP	70	336	5
EXTAP	71	0	1
NMTAP	71	48	1
NMTAP	71	96	3
NMTAP	71	144	3
EXTAP	71	192	4
NMTAP	71	240	4
NMTAP	71	288	6
NMTAP	71	336	6
NMTAP	72	0	0
NMTAP	72	24	7
NMTAP	72	48	0
NMTAP	72	72	7
NMTAP	72	96	0
NMTAP	72	120	7
NMTAP	72	144	0
NMTAP	72	168	7
NMTAP	72	192	0
NMTAP	72	216	7
NMTAP	72	240	0
NMTAP	72	264	7
NMTAP	72	288	0
NMTAP	72	312	7
NMTAP	72	336	0
NMTAP	72	360	7
EXTAP	73	0	0
EXTAP	73	48	1
EXTAP	73	96	2
EXTAP	73	144	3
EXTAP	73	192	4
EXTAP	73	240	5
EXTAP	73	288	6
EXTAP	73	336	7
EXTAP	74	0	0
NMTAP	74	192	3
NMTAP	74	192	4
NMTTP	75	0	5	A	0	M1
NMTTP	75	0	6	E	0	M1
NMTTP	75	0	6	D	0	M1
NMTTP	75	96	0	C	0	M1
NMTTP	75	96	3	B	0	M1
NMTTP	75	96	4	B	0	M1
NMTTP	75	192	2	E	1	M1
NMTTP	75	192	2	A	0	M1
NMTTP	75	192	2	D	0	M1
NMTAP	76	0	3
NMTAP	76	0	4
NMTAP	76	96	3
NMTAP	76	96	4
NMTAP	76	192	3
NMTAP	76	192	4
NMTAP	76	288	6
NMHLD	76	336	6	96
NMTAP	77	48	7
NMSTR	77	96	6
NMSCL	77	96	6	96	48	3
NMSTR	77	96	7
NMSUL	77	96	7	96	48	2
NMTAP	77	288	1
NMHLD	77	336	1	96
NMTAP	78	48	0
NMTAP	78	96	0
NMTAP	78	96	1
NMTAP	78	192	0
NMTAP	78	192	6
NMTAP	78	240	0
NMTAP	78	240	6
NMTAP	78	336	1
NMTAP	78	336	7
NMTAP	79	0	1
NMSTR	79	0	7
NMSI_	79	0	7	96	48	3
NMSTR	79	96	0
NMSI_	79	96	0	96	48	2
NMSTR	79	192	6
NMSI_	79	192	6	96	48	4
BXSTR	79	288	1
BRSXL	79	288	1	96	192	0
NMHLD	80	0	3	288
EXTAP	80	288	0
EXTAP	80	336	0
NMTAP	81	48	0
NMTAP	81	48	1
NMSTR	81	96	0
NMSUR	81	96	0	96	48	5
NMSTR	81	96	1
NMSCR	81	96	1	96	48	4
NMTAP	81	288	6
NMHLD	81	336	6	96
NMTAP	82	48	7
NMTAP	82	96	6
NMTAP	82	96	7
NMTAP	82	192	1
NMTAP	82	192	5
NMTAP	82	288	4
NMTAP	82	288	5
NMTAP	83	0	6
NMTAP	83	0	7
NMTAP	83	96	0
NMTAP	83	96	1
NMTAP	83	192	2
NMTAP	83	240	2
NMTAP	83	288	3
NMTAP	84	0	0
NMTAP	84	0	1
NMTAP	84	96	6
NMTAP	84	96	7
NMTAP	84	192	4
NMTAP	84	192	5
BRTAP	84	288	3
BRTAP	84	288	6
NMHLD	85	0	2	48
NMHLD	85	0	3	48
NMHLD	85	96	2	48
NMHLD	85	96	3	48
BRHLD	85	192	0	48
BRHLD	85	192	6	48
BRHLD	85	288	2	48
BRHLD	85	288	4	48
NMHLD	86	0	4	48
NMHLD	86	0	5	48
NMHLD	86	96	4	48
NMHLD	86	96	5	48
BRHLD	86	192	1	48
BRHLD	86	192	7	48
BRHLD	86	288	3	48
BRHLD	86	288	5	48
NMHLD	87	0	2	48
NMHLD	87	0	3	48
NMHLD	87	96	2	48
NMHLD	87	96	3	48
BRHLD	87	192	0	48
BRHLD	87	192	1	48
BRHLD	87	288	4	48
BRHLD	87	288	5	48
NMHLD	88	0	6	48
NMHLD	88	0	7	48
NMHLD	88	96	6	48
NMHLD	88	96	7	48
BRHLD	88	192	2	48
BRHLD	88	192	3	48
BRHLD	88	288	1	48
BRHLD	88	288	4	48
NMHLD	89	0	4	48
NMHLD	89	0	5	48
NMHLD	89	96	4	48
NMHLD	89	96	5	48
BRHLD	89	192	1	48
BRHLD	89	192	7	48
BRHLD	89	288	3	48
BRHLD	89	288	5	48
NMHLD	90	0	2	48
NMHLD	90	0	3	48
NMHLD	90	96	2	48
NMHLD	90	96	3	48
BRHLD	90	192	0	48
BRHLD	90	192	6	48
BRHLD	90	288	2	48
BRHLD	90	288	4	48
NMHLD	91	0	4	48
NMHLD	91	0	5	48
NMHLD	91	96	4	48
NMHLD	91	96	5	48
NMHLD	91	192	6	48
NMHLD	91	192	7	48
NMHLD	91	288	2	48
NMHLD	91	288	3	48
NMHLD	92	0	0	48
NMHLD	92	0	1	48
NMHLD	92	96	4	48
NMHLD	92	96	5	48
NMHLD	92	192	6	48
NMHLD	92	192	7	48
BRTAP	92	288	0
BRTAP	92	288	5
NMTAP	93	0	2
NMTAP	93	0	4
NMTAP	93	48	2
NMTAP	93	48	4
NMTAP	93	144	0
NMTAP	93	144	7
NMTAP	93	240	5
NMTAP	93	240	6
NMTAP	93	336	2
NMTAP	93	336	3
NMTAP	94	48	0
NMTAP	94	48	1
NMTAP	94	144	6
NMTAP	94	144	7
NMTAP	94	240	1
NMTAP	94	240	2
NMTAP	94	336	3
NMTAP	94	336	5
NMTAP	95	48	0
NMTAP	95	48	7
NMTAP	95	144	5
NMTAP	95	144	6
NMTAP	95	240	2
NMTAP	95	240	3
NMTAP	95	336	4
NMTAP	95	336	5
NMTAP	96	0	4
NMTAP	96	0	5
BRTAP	96	96	0
BRTAP	96	96	7
BRTAP	96	192	3
BRTAP	96	192	4
BRTAP	96	288	1
BRTAP	96	288	6
NMTAP	97	0	4
NMTAP	97	48	3
NMTAP	97	96	2
NMTAP	97	144	1
NMTAP	97	192	0
NMTAP	97	240	7
NMTAP	97	288	6
NMTAP	97	336	5
NMTAP	98	0	4
NMTAP	98	48	3
NMTAP	98	96	2
NMTAP	98	144	1
NMTAP	98	192	0
NMTAP	98	240	7
NMTAP	98	288	6
NMTAP	98	336	5
NMTAP	99	0	3
NMTAP	99	24	4
NMTAP	99	48	3
NMTAP	99	72	4
NMTAP	99	96	3
NMTAP	99	120	4
NMTAP	99	144	3
NMTAP	99	168	4
NMTAP	99	192	2
NMTAP	99	216	5
NMTAP	99	240	2
NMTAP	99	264	5
NMTAP	99	288	1
NMTAP	99	312	6
NMTAP	99	336	1
NMTAP	99	360	6
NMHLD	100	0	0	192
NMTTP	100	192	0	C	1	M1
NMTTP	101	0	6	E	0	M1
NMTTP	101	96	5	E	0	M1
NMTTP	101	192	4	E	0	M1
NMTTP	101	288	3	E	0	M1
NMTTP	102	0	2	E	0	M1
NMTTP	102	192	0	C	1	M1
NMTTP	102	192	2	B	0	M1
NMTTP	102	192	2	A	0	M1
NMTTP	102	192	3	B	0	M1
NMTTP	102	192	3	E	0	M1
NMTTP	102	192	3	A	0	M1
NMTTP	102	192	3	D	0	M1
NMTTP	102	192	4	B	0	M1
NMTTP	102	192	4	E	0	M1
NMTTP	102	192	4	A	0	M1
NMTTP	102	192	4	D	0	M1
NMTTP	102	192	5	B	0	M1
NMTTP	102	192	5	E	0	M1
NMTTP	102	192	5	A	0	M1
NMTTP	102	192	5	D	0	M1

T_REC_TAP	373
T_REC_BRK	28
T_REC_XTP	32
T_REC_BXX	19
T_REC_HLD	98
T_REC_XHO	2
T_REC_BHO	25
T_REC_BXH	2
T_REC_STR	26
T_REC_BST	0
T_REC_XST	0
T_REC_XBS	2
T_REC_TTP	91
T_REC_THO	0
T_REC_SLD	26
T_REC_BSL	2
T_REC_ALL	726
T_NUM_TAP	522
T_NUM_BRK	78
T_NUM_HLD	100
T_NUM_SLD	26
T_NUM_ALL	726
T_JUDGE_TAP	571
T_JUDGE_HLD	248
T_JUDGE_SLD	28
T_JUDGE_ALL	847
TTM_EACHPAIRS	173
TTM_SCR_TAP	261000
TTM_SCR_BRK	202800
TTM_SCR_HLD	100000
TTM_SCR_SLD	39000
TTM_SCR_ALL	602800
TTM_SCR_S	577150
TTM_SCR_SS	595000
TTM_RAT_ACV	10131

