VERSION	0.00.00	1.04.00
FES_MODE	0
BPM_DEF	 79.000	279.000	279.000	 79.000
MET_DEF	4	4
RESOLUTION	384
CLK_DEF	288
COMPATIBLE_CODE	MA2

BPM	0	0	 79.000
BPM	2	0	 85.000
BPM	2	288	 95.000
BPM	3	192	115.000
BPM	4	96	135.000
BPM	4	192	155.000
BPM	4	288	180.000
BPM	5	0	210.000
BPM	5	96	250.000
BPM	5	192	279.000
BPM	70	336	179.000
BPM	78	144	140.000
BPM	78	240	 85.000
BPM	78	336	 79.000
BPM	79	192	 85.000
BPM	80	96	 95.000
BPM	80	336	110.000
BPM	81	96	135.000
BPM	81	192	165.000
BPM	81	240	180.000
BPM	81	288	205.000
BPM	81	336	225.000
BPM	82	0	250.000
BPM	82	48	279.000
MET	0	0	4	3
MET	3	0	4	4
MET	17	0	8	7
MET	17	336	4	4
MET	20	336	8	7
MET	21	288	4	4
MET	24	288	8	5
MET	25	144	4	4
MET	29	144	8	15
MET	35	0	4	4
MET	70	0	8	7
MET	70	336	4	5
MET	75	336	4	3
MET	82	240	4	4
MET	114	240	4	7
MET	116	144	8	15

BXSTR	1	192	1
NMSCL	1	192	1	96	288	2
BXSTR	2	96	2
NMSCL	2	96	2	96	288	3
BXSTR	3	0	3
NMSCL	3	0	3	96	288	4
EXTAP	3	72	5
EXTAP	3	144	4
EXTAP	3	216	3
EXTAP	3	288	2
EXTAP	3	336	1
EXTAP	4	0	0
EXTAP	4	48	7
EXTAP	4	96	6
EXTAP	4	120	5
EXTAP	4	144	4
EXTAP	4	168	3
EXTAP	4	192	2
EXTAP	4	216	1
EXTAP	4	240	0
EXTAP	4	264	7
EXTAP	4	288	6
EXTAP	4	312	5
EXTAP	4	336	4
EXTAP	4	360	3
EXTAP	5	0	2
EXTAP	5	24	1
EXTAP	5	48	0
EXTAP	5	72	7
EXTAP	5	96	6
EXTAP	5	120	5
EXTAP	5	144	4
EXTAP	5	168	3
EXTAP	5	192	2
EXTAP	5	216	1
EXTAP	5	240	0
EXTAP	5	264	7
EXTAP	5	288	6
EXTAP	5	312	5
NMTTP	5	336	3	B	0	M1
NMTTP	5	336	4	B	0	M1
NMTTP	5	336	4	E	1	M1
NMSTR	6	96	1
NMSI_	6	96	1	96	48	4
NMSTR	6	192	7
NMSI_	6	192	7	96	48	4
NMSTR	6	288	0
NMSI_	6	288	0	96	48	3
NMSTR	7	0	6
NMSI_	7	0	6	96	48	3
NMSTR	7	96	1
NMSCR	7	96	1	96	48	3
NMTAP	7	192	5
NMHLD	7	240	5	96
BXTAP	7	336	4
NMTAP	8	48	6
NMSTR	8	96	6
NMSI_	8	96	6	96	48	3
NMSTR	8	192	0
NMSI_	8	192	0	96	48	3
NMSTR	8	288	7
NMSI_	8	288	7	96	48	4
NMSTR	9	0	1
NMSI_	9	0	1	96	48	4
NMSTR	9	96	6
NMSCL	9	96	6	96	48	4
NMTAP	9	192	2
NMHLD	9	240	2	96
NMTTP	9	336	3	B	0	M1
NMTTP	9	336	4	B	0	M1
NMTTP	9	336	4	E	1	M1
NMTAP	10	48	0
NMSTR	10	96	0
NMSI_	10	96	0	96	48	3
NMSTR	10	192	6
NMSI_	10	192	6	96	48	3
NMSTR	10	288	7
NMSI_	10	288	7	96	48	2
NMSTR	11	0	5
NMSI_	11	0	5	96	48	0
NMTAP	11	96	1
NMTAP	11	192	3
NMTAP	11	240	3
NMTAP	11	288	6
NMTAP	12	0	0
NMTAP	12	0	5
NMTAP	12	48	0
NMTAP	12	48	5
NMTAP	12	144	3
NMTAP	12	144	4
NMTAP	12	192	3
NMTAP	12	192	4
NMTAP	12	288	2
NMTAP	12	288	7
NMTAP	12	336	2
NMTAP	12	336	7
NMTAP	13	48	3
NMTAP	13	48	4
NMTAP	13	96	3
NMTAP	13	96	4
NMTAP	13	192	6
NMTAP	13	240	2
NMTAP	13	288	6
BRTAP	13	336	1
BRTAP	13	336	7
NMTAP	14	48	0
NMSTR	14	96	0
NMSCR	14	96	0	96	96	4
NMSTR	14	192	4
NMSCR	14	192	4	96	96	0
NMSTR	14	288	0
NMSCR	14	288	0	96	96	4
NMTAP	15	0	4
NMTAP	15	96	6
NMTAP	15	192	7
NMTAP	15	240	7
NMTAP	15	336	0
NMTAP	15	336	6
NMTAP	16	48	7
NMSTR	16	96	7
NMSCL	16	96	7	96	96	3
NMSTR	16	192	3
NMSCL	16	192	3	96	96	7
NMSTR	16	288	7
NMSCL	16	288	7	96	96	3
NMTAP	17	0	3
NMTAP	17	96	1
NMTAP	17	144	1
NMTAP	17	240	5
NMTAP	17	288	5
NMTAP	18	0	0
NMSTR	18	48	0
NMSI_	18	48	0	96	48	3
NMSTR	18	144	7
NMSI_	18	144	7	96	48	4
NMSTR	18	240	2
NMSUR	18	240	2	96	192	5
EXTAP	19	144	6
EXHLD	19	192	6	96
NMTAP	19	288	4
NMTAP	20	0	3
NMSTR	20	48	3
NMSI_	20	48	3	96	48	0
NMSTR	20	144	4
NMSI_	20	144	4	96	48	7
NMSTR	20	240	1
NMSUL	20	240	1	96	192	6
BXHLD	21	144	5	96
EXTAP	21	240	4
NMTAP	21	336	6
NMTAP	22	0	7
NMTAP	22	48	6
NMTAP	22	96	7
NMTAP	22	144	5
NMTAP	22	192	0
NMTAP	22	240	5
NMTAP	22	288	0
NMTAP	22	336	6
NMTAP	23	0	7
NMTAP	23	48	6
NMTAP	23	96	7
NMHLD	23	144	5	96
NMTAP	23	240	2
NMTAP	23	336	1
NMTAP	24	0	0
NMTAP	24	48	1
NMTAP	24	96	0
NMTAP	24	144	2
NMTAP	24	192	7
NMTAP	24	240	2
NMTAP	24	288	7
NMTAP	24	336	1
NMTAP	25	0	0
NMTAP	25	48	1
EXSTR	25	96	2
NMSI_	25	96	2	96	72	0
NMSXL	25	96	2	96	144	3
EXTAP	25	96	7
CNSI_	25	264	0	0	72	3
NMTAP	26	48	1
NMTAP	26	48	6
NMTAP	26	144	2
NMTAP	26	144	5
NMTAP	26	240	3
NMTAP	26	240	4
NMTTP	26	336	4	D	0	M1
NMTTP	26	348	3	E	0	M1
NMTTP	26	348	5	E	0	M1
NMTTP	26	360	2	E	0	M1
NMTTP	26	360	6	E	0	M1
NMTTP	27	0	1	E	0	M1
NMTTP	27	0	7	E	0	M1
NMTTP	27	12	0	D	0	M1
EXTAP	27	96	2
EXTAP	27	96	6
NMTAP	27	192	1
NMTAP	27	240	0
NMTAP	27	288	2
NMTAP	27	336	7
NMTAP	28	0	3
NMTAP	28	48	6
NMTAP	28	96	4
NMSTR	28	144	5
NMSCR	28	144	5	96	48	1
NMTAP	28	192	3
CNSV_	28	288	1	0	144	3
NMHLD	28	288	2	96
BXTAP	29	96	0
NMTAP	29	192	6
NMHLD	29	240	6	96
NMHLD	29	336	7	96
NMHLD	30	48	0	96
NMHLD	30	144	1	96
NMHLD	30	240	2	96
NMSTR	30	336	3
NMSI_	30	336	3	96	48	7
BXTAP	31	48	6
NMTAP	31	144	5
NMHLD	31	192	5	96
NMHLD	31	288	4	96
NMHLD	32	0	3	96
NMHLD	32	96	2	96
NMHLD	32	192	1	96
NMSTR	32	288	0
NMSI_	32	288	0	96	48	3
BXTAP	33	0	4
NMTAP	33	96	5
NMHLD	33	144	5	96
NMHLD	33	240	6	96
NMHLD	33	336	7	96
NMHLD	34	48	0	96
NMHLD	34	144	1	96
NMSTR	34	240	2
NMSI_	34	240	2	96	48	6
BXTAP	34	336	3
NMTAP	35	48	4
NMHLD	35	96	4	96
NMTAP	35	192	0
NMTAP	35	240	5
NMTAP	35	288	1
NMTAP	35	336	6
EXTAP	36	0	2
EXSTR	36	0	7
NMSV_	36	0	7	96	96	4
EXTAP	36	192	3
EXTAP	36	240	2
EXTAP	36	288	1
BXTAP	36	336	0
NMTTP	36	336	4	B	0	M1
NMTTP	36	336	5	B	0	M1
NMTTP	36	336	5	E	1	M1
NMTAP	37	48	1
NMSTR	37	96	1
NMSCR	37	96	1	96	48	3
NMSTR	37	192	0
NMSI_	37	192	0	96	48	4
NMSTR	37	288	7
NMSI_	37	288	7	96	48	3
NMSTR	38	0	6
NMSCL	38	0	6	96	48	4
NMSTR	38	96	0
NMSCR	38	96	0	96	48	3
NMTAP	38	192	7
NMHLD	38	240	7	96
NMTTP	38	336	0	B	0	M1
NMTTP	38	336	1	B	0	M1
NMTTP	38	336	1	E	1	M1
NMTAP	39	48	6
NMSTR	39	96	6
NMSCL	39	96	6	96	48	4
NMSTR	39	192	7
NMSI_	39	192	7	96	48	3
NMSTR	39	288	0
NMSI_	39	288	0	96	48	4
NMSTR	40	0	1
NMSCR	40	0	1	96	48	3
NMSTR	40	96	7
NMSCL	40	96	7	96	48	4
NMTAP	40	192	0
NMHLD	40	240	0	96
NMTTP	40	336	6	B	0	M1
NMTTP	40	336	7	B	0	M1
NMTTP	40	336	7	E	1	M1
NMTAP	41	48	2
NMSTR	41	96	2
NMSCR	41	96	2	96	48	4
NMSTR	41	192	1
NMSI_	41	192	1	96	48	5
NMSTR	41	288	0
NMSI_	41	288	0	96	48	4
NMSTR	42	0	7
NMSCL	42	0	7	96	48	5
NMSTR	42	96	1
NMSCR	42	96	1	96	48	4
NMTAP	42	192	0
NMHLD	42	240	0	96
NMTTP	42	336	1	B	0	M1
NMTTP	42	336	2	B	0	M1
NMTTP	42	336	2	E	1	M1
NMTAP	43	48	5
NMTAP	43	96	3
NMTAP	43	144	3
NMTAP	43	192	4
NMTAP	43	240	4
NMTAP	43	288	2
NMSTR	43	336	2
NMSXR	43	336	2	96	192	6
NMTAP	44	192	4
NMTAP	44	288	5
BRTAP	44	336	5
NMTAP	45	48	0
NMSTR	45	96	0
NMSI_	45	96	0	96	48	3
NMSTR	45	192	6
NMSI_	45	192	6	96	48	1
NMSTR	45	288	2
NMSI_	45	288	2	96	48	5
NMSTR	46	0	7
NMSI_	46	0	7	96	48	4
NMSTR	46	96	3
NMSI_	46	96	3	96	48	7
NMHLD	46	192	5	144
NMTAP	46	288	0
BRTAP	46	336	1
NMTAP	47	48	4
NMSTR	47	96	4
NMSI_	47	96	4	96	48	7
NMSTR	47	192	2
NMSI_	47	192	2	96	48	5
NMSTR	47	288	6
NMSI_	47	288	6	96	48	1
NMSTR	48	0	3
NMSI_	48	0	3	96	48	0
NMSTR	48	96	7
NMSI_	48	96	7	96	48	3
NMHLD	48	192	2	144
NMTAP	48	288	4
BRTAP	48	336	5
NMTAP	49	48	1
NMSTR	49	96	1
NMSCR	49	96	1	96	96	5
NMSTR	49	192	5
NMSCR	49	192	5	96	96	1
NMSTR	49	288	1
NMSCR	49	288	1	96	96	5
NMSTR	50	0	5
NMSCR	50	0	5	96	96	1
NMTAP	50	96	1
NMTAP	50	192	5
NMTAP	50	240	6
NMTAP	50	288	7
NMTAP	51	0	2
NMTAP	51	24	3
NMTAP	51	48	2
NMTAP	51	144	5
NMTAP	51	168	4
NMTAP	51	192	5
NMTAP	51	288	1
NMTAP	51	312	3
NMTAP	51	336	1
NMTAP	52	48	6
NMTAP	52	72	4
NMTAP	52	96	6
EXTAP	52	192	0
EXTAP	52	240	1
EXTAP	52	288	2
BXTAP	52	336	3
NMTTP	52	336	4	B	0	M1
NMTTP	52	336	5	B	0	M1
NMTTP	52	336	5	E	1	M1
NMTAP	53	48	6
NMSTR	53	96	6
NMSCL	53	96	6	96	48	4
NMSTR	53	192	7
NMSUL	53	192	7	96	48	3
NMSTR	53	288	0
NMSUR	53	288	0	96	48	4
NMSTR	54	0	1
NMSCR	54	0	1	96	48	3
NMSTR	54	96	7
NMSCL	54	96	7	96	48	4
NMTAP	54	192	0
NMHLD	54	240	0	96
NMTTP	54	336	6	B	0	M1
NMTTP	54	336	7	B	0	M1
NMTTP	54	336	7	E	1	M1
NMTAP	55	48	1
NMSTR	55	96	1
NMSCR	55	96	1	96	48	3
NMSTR	55	192	0
NMSUR	55	192	0	96	48	4
NMSTR	55	288	7
NMSUL	55	288	7	96	48	3
NMSTR	56	0	6
NMSCL	56	0	6	96	48	4
NMSTR	56	96	0
NMSCR	56	96	0	96	48	3
NMTAP	56	192	7
NMHLD	56	240	7	96
NMTTP	56	336	0	B	0	M1
NMTTP	56	336	1	B	0	M1
NMTTP	56	336	1	E	1	M1
NMTAP	57	48	5
NMSTR	57	96	5
NMSCL	57	96	5	96	48	3
NMSTR	57	192	6
NMSUL	57	192	6	96	48	2
NMSTR	57	288	7
NMSUR	57	288	7	96	48	3
NMSTR	58	0	0
NMSCR	58	0	0	96	48	2
NMSTR	58	96	6
NMSCL	58	96	6	96	48	3
NMTAP	58	192	7
NMSTR	58	240	7
NMSSR	58	240	7	96	144	3
NMHLD	58	336	5	144
NMTAP	59	192	2
NMTAP	59	192	7
NMSTR	59	288	0
NMSI_	59	288	0	96	48	4
NMSTR	59	288	1
NMSI_	59	288	1	96	48	5
NMTAP	60	0	0
NMTAP	60	0	1
NMTAP	60	192	2
NMTAP	60	240	2
NMTAP	60	288	3
BRTAP	60	336	1
BRTAP	60	336	4
NMTAP	61	48	5
NMTAP	61	96	4
NMTAP	61	144	4
NMTAP	61	192	6
NMTAP	61	240	6
NMTAP	61	288	3
NMTAP	61	336	3
NMTAP	62	0	7
NMTAP	62	48	7
NMTAP	62	96	2
NMTAP	62	144	2
NMTAP	62	192	0
NMTAP	62	240	0
NMTAP	62	288	1
NMTAP	62	288	7
NMTAP	62	336	1
NMTAP	62	336	7
NMTAP	63	48	2
NMTAP	63	96	3
NMTAP	63	144	3
NMTAP	63	192	1
NMTAP	63	240	1
NMTAP	63	288	4
NMTAP	63	336	4
NMTAP	64	0	0
NMSTR	64	48	0
NMSI_	64	48	0	96	48	3
NMSI_	64	48	0	96	48	5
NMTAP	64	144	0
NMTAP	64	288	4
NMTAP	64	336	4
NMTAP	65	48	1
NMSTR	65	96	1
NMSI_	65	96	1	96	48	6
NMSTR	65	192	5
NMSI_	65	192	5	96	48	2
NMSTR	65	288	7
NMSI_	65	288	7	96	48	2
NMSTR	66	0	4
NMSI_	66	0	4	96	48	0
NMSTR	66	96	1
NMSI_	66	96	1	96	72	5
NMTAP	66	192	7
NMTAP	66	240	7
NMTAP	66	336	2
NMTAP	66	336	6
NMTAP	66	360	5
NMTAP	67	0	4
NMTAP	67	24	3
NMTAP	67	48	2
NMTAP	67	72	1
NMTAP	67	96	0
NMTAP	67	120	7
NMTAP	67	144	6
NMTAP	67	168	5
NMTAP	67	192	4
NMTAP	67	216	3
NMTAP	67	240	2
NMTAP	67	264	1
NMSTR	67	288	0
NMSI_	67	288	0	96	48	4
NMTAP	67	312	7
NMTAP	67	336	6
NMTAP	67	360	5
NMTAP	68	0	0
NMTAP	68	0	4
NMTAP	68	192	2
NMTAP	68	240	4
NMTAP	68	288	2
BRTAP	68	336	1
BRHLD	68	336	5	144
NMTAP	69	48	7
NMSTR	69	96	0
NMSI_	69	96	0	96	48	4
NMTAP	69	192	0
NMSTR	69	192	6
NMSI_	69	192	6	96	48	2
NMSTR	69	288	1
NMSI_	69	288	1	96	48	5
NMTAP	69	288	6
NMTAP	70	0	1
NMSTR	70	0	4
NMSI_	70	0	4	96	48	7
NMSTR	70	96	3
NMSCL	70	96	3	96	48	0
NMTAP	70	96	4
EXTAP	70	192	6
EXTAP	70	240	5
EXTAP	70	288	4
EXTAP	70	336	3
EXTAP	70	336	7
NMHLD	73	144	2	384
NMTAP	74	144	3
NMHLD	74	240	5	384
NMTAP	75	240	4
EXHLD	75	336	2	288
NMHLD	76	240	3	288
NMHLD	77	144	4	96
NMHLD	77	240	5	96
NMHLD	77	336	6	96
NMHLD	78	48	7	192
NMTTP	78	144	0	B	0	M1
NMTHO	78	240	0	96	C	1	M1
BXSTR	78	336	6
NMSCR	78	336	6	96	288	5
BXSTR	79	240	5
NMSCR	79	240	5	96	288	4
BXSTR	80	144	4
NMSCR	80	144	4	96	192	3
NMTAP	80	216	2
NMTAP	80	288	3
NMTAP	80	360	4
NMTAP	81	48	5
NMTAP	81	72	6
NMTAP	81	96	7
NMTAP	81	120	0
NMTAP	81	144	1
NMTAP	81	168	2
NMTAP	81	192	3
NMTAP	81	216	4
NMTAP	81	240	5
NMTAP	81	264	6
NMTAP	81	288	7
NMTAP	81	312	0
NMTAP	81	336	1
NMTAP	81	360	2
NMTAP	82	0	3
NMTAP	82	24	4
NMTAP	82	48	5
NMTAP	82	72	6
NMTAP	82	96	7
NMTAP	82	120	0
NMTAP	82	144	1
NMTAP	82	168	2
EXTAP	82	192	3
EXHLD	82	192	7	672
NMTAP	82	288	5
NMTAP	82	336	5
NMTAP	83	48	4
NMTAP	83	144	3
NMTAP	83	240	2
NMTAP	83	336	1
EXTAP	84	48	0
EXTAP	84	96	0
BRTAP	84	192	6
BRTAP	84	192	7
NMTAP	84	288	5
NMSTR	84	336	5
NMSCL	84	336	5	96	48	3
NMSTR	85	48	6
NMSUL	85	48	6	96	48	2
NMSTR	85	144	7
NMSUR	85	144	7	96	48	3
NMSTR	85	240	0
NMSCR	85	240	0	96	48	2
NMSTR	85	336	6
NMSCL	85	336	6	96	48	3
EXTAP	86	48	1
EXHLD	86	96	1	96
NMTTP	86	192	4	B	0	M1
NMTTP	86	192	5	B	0	M1
NMTTP	86	192	5	E	1	M1
NMTAP	86	288	2
NMSTR	86	336	2
NMSCR	86	336	2	96	48	4
NMSTR	87	48	1
NMSUR	87	48	1	96	48	5
NMSTR	87	144	0
NMSUL	87	144	0	96	48	4
NMSTR	87	240	7
NMSCL	87	240	7	96	48	5
NMSTR	87	336	1
NMSCR	87	336	1	96	48	4
NMTAP	88	48	0
NMHLD	88	96	0	96
NMTTP	88	192	1	B	0	M1
NMTTP	88	192	2	B	0	M1
NMTTP	88	192	2	E	1	M1
NMTAP	88	288	6
NMTAP	88	336	4
NMTAP	89	0	4
NMTAP	89	48	5
NMTAP	89	96	5
NMTAP	89	144	3
NMTAP	89	192	3
BXSTR	89	240	2
NMSI_	89	240	2	96	96	7
BXSTR	89	240	4
NMSI_	89	240	4	96	96	7
NMTAP	90	144	1
NMTAP	90	144	5
BRTAP	90	192	1
BRTAP	90	192	5
NMTAP	90	288	4
NMSTR	90	336	4
NMSI_	90	336	4	96	48	7
NMSTR	91	48	2
NMSI_	91	48	2	96	48	5
NMSTR	91	144	6
NMSI_	91	144	6	96	48	1
NMSTR	91	240	3
NMSI_	91	240	3	96	48	0
NMSTR	91	336	7
NMSI_	91	336	7	96	48	3
NMHLD	92	48	1	144
NMTAP	92	144	4
BRTAP	92	192	5
NMTAP	92	288	0
NMSTR	92	336	0
NMSI_	92	336	0	96	48	3
NMSTR	93	48	6
NMSI_	93	48	6	96	48	1
NMSTR	93	144	2
NMSI_	93	144	2	96	48	5
NMSTR	93	240	7
NMSI_	93	240	7	96	48	4
NMSTR	93	336	3
NMSI_	93	336	3	96	48	7
NMHLD	94	48	5	144
NMTAP	94	144	0
BRTAP	94	192	1
NMTAP	94	288	6
NMSTR	94	336	6
NMSCL	94	336	6	96	96	2
NMSTR	95	48	2
NMSCL	95	48	2	96	96	6
NMSTR	95	144	6
NMSCL	95	144	6	96	96	2
NMSTR	95	240	2
NMSCL	95	240	2	96	96	6
NMTAP	95	336	6
NMTAP	96	48	2
NMTAP	96	96	1
NMTAP	96	144	0
NMTAP	96	240	5
NMTAP	96	264	4
NMTAP	96	288	5
NMTAP	97	0	2
NMTAP	97	24	3
NMTAP	97	48	2
NMTAP	97	144	6
NMTAP	97	168	4
NMTAP	97	192	6
NMTAP	97	288	1
NMTAP	97	312	3
NMTAP	97	336	1
EXTAP	98	48	7
EXTAP	98	96	6
EXTAP	98	144	5
NMTTP	98	192	2	B	0	M1
NMTTP	98	192	3	B	0	M1
NMTTP	98	192	3	E	1	M1
BXTAP	98	192	4
NMHLD	98	336	6	96
NMHLD	99	48	7	96
NMHLD	99	144	0	96
NMHLD	99	240	1	96
NMHLD	99	336	2	96
NMTAP	100	48	3
NMTAP	100	96	3
NMTAP	100	144	4
NMTAP	100	192	4
NMSTR	100	240	1
BRSI_	100	240	1	96	48	5
NMTAP	100	288	1
NMSTR	100	336	6
BRSI_	100	336	6	96	48	2
NMTAP	101	0	6
NMSTR	101	48	3
BRSI_	101	48	3	96	48	7
NMTAP	101	96	3
NMSTR	101	144	4
BRSI_	101	144	4	96	48	0
NMTAP	101	192	4
NMSTR	101	240	1
BRSI_	101	240	1	96	48	5
NMTAP	101	288	1
NMTAP	101	336	6
NMTAP	102	0	6
NMTAP	102	48	3
NMTAP	102	96	3
NMTAP	102	144	4
BXHLD	102	192	4	144
NMTAP	102	336	7
NMTAP	102	360	0
NMTAP	103	0	1
NMTAP	103	24	2
NMTAP	103	48	3
NMTAP	103	48	7
NMTAP	103	72	6
NMTAP	103	96	5
NMTAP	103	120	4
NMTAP	103	144	3
NMTAP	103	144	7
NMTAP	103	168	0
NMTAP	103	192	1
NMTAP	103	216	2
NMTAP	103	240	3
NMTAP	103	240	7
NMTAP	103	264	6
NMTAP	103	288	5
NMTAP	103	312	4
NMTAP	103	336	3
NMTAP	103	336	7
NMSTR	104	48	5
NMSCR	104	48	5	96	96	1
NMTAP	104	144	3
NMTAP	104	192	3
CNSV_	104	240	1	0	96	3
NMTAP	104	336	2
NMTAP	105	0	2
NMTAP	105	48	4
NMTAP	105	96	4
NMTAP	105	144	1
NMTAP	105	192	1
BRTAP	105	240	0
BRTAP	105	240	6
NMTAP	106	48	5
NMTAP	106	96	5
NMTAP	106	144	3
NMTAP	106	192	3
BRTAP	106	240	2
BRTAP	106	240	4
NMSTR	106	336	1
NMSI_	106	336	1	96	48	5
NMTAP	106	360	3
NMTAP	107	0	1
NMTAP	107	24	3
NMTAP	107	48	1
NMSTR	107	144	6
NMSI_	107	144	6	96	48	2
NMTAP	107	168	4
NMTAP	107	192	6
NMTAP	107	216	4
NMTAP	107	240	6
NMTAP	107	336	3
NMTAP	108	48	1
NMTAP	108	48	7
NMTAP	108	144	0
NMTAP	108	144	6
NMSTR	108	240	5
NMSI_	108	240	5	96	48	1
NMTAP	108	264	7
NMTAP	108	288	5
NMTAP	108	312	7
NMTAP	108	336	5
NMSTR	109	48	2
NMSI_	109	48	2	96	48	6
NMTAP	109	72	0
NMTAP	109	96	2
NMTAP	109	120	0
NMTAP	109	144	2
NMTAP	109	240	7
NMSTR	109	288	7
NMSI_	109	288	7	96	48	2
NMSI_	109	288	7	96	48	4
BRTAP	110	0	7
NMTAP	110	144	5
NMTAP	110	192	5
NMTAP	110	288	2
NMSTR	110	336	2
NMSI_	110	336	2	96	48	7
NMSTR	111	48	6
NMSI_	111	48	6	96	48	3
NMSTR	111	144	0
NMSI_	111	144	0	96	48	3
NMSTR	111	240	4
NMSI_	111	240	4	96	48	0
NMSTR	111	336	1
NMSI_	111	336	1	96	48	5
NMTAP	112	48	7
NMTAP	112	96	7
NMTAP	112	192	2
NMTAP	112	192	6
NMTAP	112	216	5
NMTAP	112	240	4
NMTAP	112	264	3
NMTAP	112	288	2
NMTAP	112	312	1
NMTAP	112	336	0
NMTAP	112	360	7
NMTAP	113	0	6
NMTAP	113	24	5
NMTAP	113	48	4
NMTAP	113	72	3
NMTAP	113	96	2
NMTAP	113	120	1
NMSTR	113	144	0
NMSI_	113	144	0	96	48	4
NMTAP	113	168	7
NMTAP	113	192	6
NMTAP	113	216	5
NMTAP	113	240	0
NMTAP	113	240	4
NMTAP	114	48	5
NMTAP	114	96	4
NMTAP	114	144	5
BRTAP	114	192	3
BRTAP	114	192	6
NMTAP	114	288	1
NMSTR	114	336	0
NMSI_	114	336	0	96	48	4
NMTAP	115	48	0
NMSTR	115	48	6
NMSI_	115	48	6	96	48	2
NMSTR	115	144	1
NMSI_	115	144	1	96	48	5
NMTAP	115	144	6
NMTAP	115	240	1
NMSTR	115	240	3
NMSI_	115	240	3	96	48	6
NMTAP	115	336	0
NMTAP	115	336	3
NMTAP	116	48	1
BRHLD	116	96	2	96
NMTAP	116	192	6
NMSTR	116	240	7
NMSI_	116	240	7	96	48	3
NMSTR	116	336	1
NMSI_	116	336	1	96	48	5
NMTAP	116	336	7
NMTAP	117	48	1
NMSTR	117	48	6
NMSI_	117	48	6	96	48	2
NMSTR	117	144	4
NMSI_	117	144	4	96	48	1
NMTAP	117	144	6
NMTAP	117	240	4
NMTAP	117	240	7
NMTAP	117	336	6
NMTAP	118	0	5
BRTAP	118	48	0
BRHLD	118	48	4	144
NMTAP	118	192	7
NMTAP	118	216	0
NMTAP	118	240	1
NMTAP	118	264	2
NMTAP	118	288	3
NMTAP	118	288	7
NMTAP	118	312	6
NMTAP	118	336	5
NMTAP	118	360	4
NMTAP	119	0	3
NMTAP	119	0	7
NMTAP	119	24	0
NMTAP	119	48	1
NMTAP	119	72	2
NMTAP	119	96	3
NMTAP	119	96	7
NMTAP	119	120	6
NMTAP	119	144	5
NMTAP	119	168	4
NMTAP	119	192	3
NMTAP	119	192	7
NMTAP	119	216	0
NMTAP	119	240	1
NMTAP	119	264	2
NMTAP	119	288	3
NMTAP	119	288	7
NMTAP	120	0	1
NMTAP	120	0	5
BRTAP	120	48	0
BRTAP	120	48	4

T_REC_TAP	402
T_REC_BRK	24
T_REC_XTP	57
T_REC_BXX	8
T_REC_HLD	43
T_REC_XHO	4
T_REC_BHO	3
T_REC_BXH	2
T_REC_STR	139
T_REC_BST	0
T_REC_XST	2
T_REC_XBS	8
T_REC_TTP	45
T_REC_THO	1
T_REC_SLD	147
T_REC_BSL	5
T_REC_ALL	890
T_NUM_TAP	645
T_NUM_BRK	50
T_NUM_HLD	48
T_NUM_SLD	147
T_NUM_ALL	890
T_JUDGE_TAP	685
T_JUDGE_HLD	100
T_JUDGE_SLD	152
T_JUDGE_ALL	937
TTM_EACHPAIRS	62
TTM_SCR_TAP	322500
TTM_SCR_BRK	130000
TTM_SCR_HLD	48000
TTM_SCR_SLD	220500
TTM_SCR_ALL	721000
TTM_SCR_S	694550
TTM_SCR_SS	716000
TTM_RAT_ACV	10069

