VERSION	0.00.00	1.04.00
FES_MODE	0
BPM_DEF	 79.000	279.000	279.000	 79.000
MET_DEF	4	4
RESOLUTION	384
CLK_DEF	288
COMPATIBLE_CODE	MA2

BPM	0	0	 79.000
BPM	2	0	 85.000
BPM	2	288	 95.000
BPM	3	192	115.000
BPM	4	96	135.000
BPM	4	192	155.000
BPM	4	288	180.000
BPM	5	0	210.000
BPM	5	96	250.000
BPM	5	192	279.000
BPM	70	336	179.000
BPM	78	144	140.000
BPM	78	240	 85.000
BPM	78	336	 79.000
BPM	79	192	 85.000
BPM	80	96	 95.000
BPM	80	336	110.000
BPM	81	96	135.000
BPM	81	192	165.000
BPM	81	240	180.000
BPM	81	288	205.000
BPM	81	336	225.000
BPM	82	0	250.000
BPM	82	48	279.000
MET	0	0	4	3
MET	3	0	4	4
MET	17	0	8	7
MET	17	336	4	4
MET	20	336	8	7
MET	21	288	4	4
MET	24	288	8	5
MET	25	144	4	4
MET	29	144	8	15
MET	35	0	4	4
MET	70	0	8	7
MET	70	336	4	5
MET	75	336	4	3
MET	82	240	4	4
MET	114	240	4	7
MET	116	144	8	15

NMTTP	1	192	0	B	0	M1
NMTTP	1	192	0	C	0	M1
NMTTP	1	288	1	B	0	M1
NMTTP	2	0	2	B	0	M1
NMTTP	2	96	0	C	0	M1
NMTTP	2	96	4	B	0	M1
NMTTP	2	192	5	B	0	M1
NMTTP	2	288	6	B	0	M1
NMTTP	3	0	0	C	1	M1
BRTAP	5	336	0
BRTAP	5	336	7
NMTAP	6	96	0
NMTAP	6	192	0
NMTAP	6	288	1
NMTAP	6	288	7
NMTAP	7	0	2
NMTAP	7	96	2
NMHLD	7	192	2	144
NMHLD	7	192	3	96
NMTAP	8	96	1
NMTAP	8	96	4
NMTAP	8	192	1
NMTAP	8	192	4
NMTAP	8	288	2
NMTAP	8	288	5
NMTAP	9	0	2
NMTAP	9	0	5
NMTAP	9	96	3
NMTAP	9	96	6
NMTAP	9	192	3
NMTAP	9	192	6
BXTAP	9	288	7
BXTAP	9	336	7
NMTAP	10	96	6
NMTAP	10	192	6
NMTAP	10	288	5
NMTAP	10	288	7
NMTAP	11	0	4
NMTAP	11	96	4
NMTAP	11	192	0
NMTAP	11	192	4
NMTAP	11	288	0
NMTAP	11	288	4
EXHLD	12	0	0	96
EXHLD	12	0	4	576
EXHLD	12	144	0	96
EXHLD	12	288	0	96
EXHLD	13	48	0	96
BXTAP	13	192	0
EXHLD	13	336	1	1536
EXTAP	13	336	5
NMTAP	14	192	3
NMTAP	14	288	3
NMTAP	15	0	3
NMTAP	15	192	2
NMTAP	15	288	2
NMTAP	16	0	2
NMTAP	16	192	0
NMTAP	16	288	0
NMTAP	17	0	0
NMTAP	17	192	7
EXTAP	17	288	6
EXHLD	17	336	6	1440
NMTAP	18	144	4
NMTAP	18	240	4
NMTAP	18	336	4
NMTAP	19	144	5
NMTAP	19	240	5
NMTAP	19	336	5
NMTAP	20	144	7
NMTAP	20	240	7
NMTAP	20	336	7
NMTAP	21	144	0
EXTAP	21	240	1
EXHLD	21	288	1	1392
NMTAP	22	96	2
NMTAP	22	192	2
NMTAP	22	288	2
NMTAP	23	96	0
NMTAP	23	192	0
NMTAP	23	288	0
NMTAP	24	96	2
NMTAP	24	192	2
NMTAP	24	288	3
NMTAP	25	0	3
EXTAP	25	96	5
EXHLD	25	144	5	1152
NMTAP	25	336	4
NMTAP	26	48	4
NMTAP	26	144	4
NMTAP	26	336	6
NMTAP	27	48	6
NMTAP	27	144	6
NMTAP	27	336	4
NMTAP	28	48	4
NMTAP	28	144	3
NMTAP	28	240	3
BXTAP	28	336	3
BXTAP	28	336	4
BXTAP	29	48	3
BXTAP	29	48	4
NMSTR	29	144	3
NMSCL	29	144	3	96	96	0
NMSTR	29	336	7
NMSCL	29	336	7	96	96	4
NMSTR	30	144	3
NMSCL	30	144	3	96	96	0
NMTAP	30	336	7
NMTAP	31	0	7
EXSTR	31	96	6
NMSCL	31	96	6	96	96	3
NMSTR	31	288	2
NMSCL	31	288	2	96	96	7
NMSTR	32	96	6
NMSCL	32	96	6	96	96	3
NMTAP	32	288	2
NMTAP	32	336	2
EXSTR	33	48	1
NMSCL	33	48	1	96	96	6
NMSTR	33	240	5
NMSCL	33	240	5	96	96	2
NMSTR	34	48	1
NMSCL	34	48	1	96	96	6
NMTAP	34	240	5
NMTAP	34	288	5
EXSTR	35	0	4
NMSCR	35	0	4	96	384	3
BXTAP	36	336	0
BXTAP	36	336	7
NMTAP	37	96	2
NMTAP	37	96	3
NMTAP	37	192	2
NMTAP	37	192	3
NMTAP	37	288	4
NMTAP	37	288	5
NMTAP	38	0	4
NMTAP	38	0	5
NMTAP	38	96	0
NMTAP	38	96	7
NMTAP	38	192	0
NMTAP	38	192	7
BXTAP	38	288	1
BXTAP	38	336	1
NMTAP	39	96	0
NMTAP	39	96	7
NMTAP	39	192	0
NMTAP	39	192	7
NMTAP	39	288	4
NMTAP	39	288	5
NMTAP	40	0	4
NMTAP	40	0	5
NMTAP	40	96	2
NMTAP	40	96	3
NMTAP	40	192	2
NMTAP	40	192	3
BXTAP	40	288	6
BXTAP	40	336	6
NMTAP	41	96	0
NMTAP	41	96	1
NMTAP	41	192	0
NMTAP	41	192	1
NMTAP	41	288	3
NMTAP	41	288	4
NMTAP	42	0	3
NMTAP	42	0	4
NMTAP	42	96	6
NMTAP	42	96	7
NMTAP	42	192	6
NMTAP	42	192	7
BXTAP	42	288	0
BXSTR	42	336	0
NMSSL	42	336	0	96	240	4
BXTAP	44	0	3
BXTAP	44	0	5
NMTAP	44	192	1
NMTAP	44	192	2
BXTAP	44	288	7
BXTAP	44	336	7
NMTAP	45	96	4
NMTAP	45	96	5
NMTAP	45	192	4
NMTAP	45	192	5
NMTAP	45	288	0
NMTAP	45	288	1
NMTAP	46	0	6
NMTAP	46	0	7
NMTAP	46	96	2
NMTAP	46	96	3
NMTAP	46	192	2
NMTAP	46	192	3
BXTAP	46	288	6
BXTAP	46	336	6
NMTAP	47	96	0
NMTAP	47	96	1
NMTAP	47	192	0
NMTAP	47	192	1
NMTAP	47	288	4
NMTAP	47	288	5
NMTAP	48	0	2
NMTAP	48	0	3
NMTAP	48	96	6
NMTAP	48	96	7
NMTAP	48	192	6
NMTAP	48	192	7
BXTAP	48	288	1
BXTAP	48	336	1
NMTAP	49	96	2
NMTAP	49	96	3
NMTAP	49	192	4
NMTAP	49	288	5
NMTAP	50	0	6
NMTAP	50	96	7
NMTAP	50	192	0
NMTAP	50	288	1
NMHLD	51	0	2	96
NMHLD	51	0	3	96
NMHLD	51	144	1	96
NMHLD	51	144	4	96
NMHLD	51	288	0	96
NMHLD	51	288	7	96
NMHLD	52	48	1	96
NMHLD	52	48	6	96
NMHLD	52	192	4	96
NMHLD	52	192	5	96
BXTAP	52	336	3
BXHLD	52	336	6	768
NMTAP	53	96	1
NMTAP	53	192	1
NMTAP	53	288	4
NMTAP	54	0	7
NMTAP	54	96	5
NMTAP	54	192	5
BXTAP	54	288	3
BXHLD	54	336	3	768
NMTAP	55	96	6
NMTAP	55	192	6
NMTAP	55	288	4
NMTAP	56	0	0
NMTAP	56	96	2
NMTAP	56	192	2
BXTAP	56	288	4
BXHLD	56	336	4	624
NMTAP	57	96	0
NMTAP	57	192	0
NMTAP	57	288	6
NMTAP	58	0	2
NMTAP	58	96	3
NMTAP	58	192	3
EXSTR	58	336	3
NMSI_	58	336	3	96	240	7
EXSTR	58	336	4
NMSI_	58	336	4	96	240	0
BXTAP	60	0	1
BXTAP	60	0	6
NMTAP	60	192	0
NMTAP	60	192	5
NMTAP	60	240	0
NMTAP	60	240	5
BXHLD	60	336	1	768
BXTAP	60	336	7
NMTAP	61	96	0
NMTAP	61	192	0
NMTAP	61	288	2
NMTAP	62	0	7
NMTAP	62	96	5
NMTAP	62	192	5
BXTAP	62	288	4
BXHLD	62	336	4	576
NMTAP	63	96	7
NMTAP	63	192	7
NMTAP	63	288	5
NMTAP	64	0	0
NMTAP	64	48	0
NMTAP	64	144	2
NMTAP	64	240	3
NMTAP	64	240	4
BXHLD	64	336	3	144
BXTAP	64	336	4
NMHLD	65	96	2	96
NMHLD	65	192	1	96
NMHLD	65	288	0	96
NMHLD	66	0	7	96
NMHLD	66	96	6	96
NMHLD	66	192	5	96
NMSTR	66	288	4
NMSSL	66	288	4	96	240	0
BXTAP	68	0	0
BXTAP	68	0	7
NMHLD	68	192	0	144
NMHLD	68	336	1	144
NMHLD	69	96	2	96
NMHLD	69	192	3	96
NMHLD	69	288	4	96
NMHLD	70	0	5	96
NMHLD	70	96	6	96
NMTAP	70	192	7
NMTAP	70	288	6
NMTAP	70	288	7
NMSTR	70	336	6
NMSXL	70	336	6	96	720	3
NMTAP	70	336	7
EXSTR	73	144	1
NMSI_	73	144	1	96	240	5
CNSI_	74	96	5	0	240	0
CNSI_	74	336	0	0	240	3
NMSTR	75	336	7
NMSCL	75	336	7	96	192	3
NMSTR	76	240	0
NMSCR	76	240	0	96	192	4
NMTAP	77	144	7
NMTAP	77	240	3
NMTAP	77	240	7
NMSTR	77	336	2
NMSXL	77	336	2	96	216	1
NMSTR	77	336	6
NMSXL	77	336	6	96	216	5
NMTTP	78	336	0	B	0	M1
NMTTP	78	336	0	C	0	M1
NMTTP	79	48	1	B	0	M1
NMTTP	79	144	2	B	0	M1
NMTTP	79	240	0	C	0	M1
NMTTP	79	240	4	B	0	M1
NMTTP	79	336	5	B	0	M1
NMTTP	80	48	6	B	0	M1
NMTHO	80	144	0	816	C	1	M1
NMTTP	82	192	0	B	0	M1
NMTTP	82	192	0	E	0	M1
NMTTP	82	192	1	B	0	M1
NMTTP	82	192	1	E	0	M1
NMTTP	82	192	6	B	0	M1
NMTTP	82	192	7	B	0	M1
NMTTP	82	192	7	E	0	M1
BXTAP	84	192	0
BXTAP	84	192	7
NMTAP	84	336	4
NMTAP	84	336	5
NMTAP	85	48	4
NMTAP	85	48	5
NMTAP	85	144	1
NMTAP	85	144	3
NMTAP	85	240	0
NMTAP	85	240	7
NMTAP	85	336	4
NMTAP	85	336	5
NMTAP	86	48	2
NMTAP	86	48	3
BXTAP	86	144	0
BXTAP	86	192	0
NMTAP	86	336	6
NMTAP	86	336	7
NMTAP	87	48	6
NMTAP	87	48	7
NMTAP	87	144	0
NMTAP	87	144	2
NMTAP	87	240	3
NMTAP	87	240	4
NMTAP	87	336	6
NMTAP	87	336	7
NMTAP	88	48	0
NMTAP	88	48	1
BXTAP	88	144	3
BXSTR	88	192	3
NMSSR	88	192	3	96	240	7
BXTAP	89	240	0
BXTAP	89	240	6
NMTAP	90	48	4
NMTAP	90	48	5
BXTAP	90	144	3
BXTAP	90	192	3
NMTAP	90	336	2
NMTAP	90	336	3
NMTAP	91	48	2
NMTAP	91	48	3
NMTAP	91	144	5
NMTAP	91	144	7
NMTAP	91	240	0
NMTAP	91	240	1
NMTAP	91	336	3
NMTAP	91	336	5
NMTAP	92	48	6
NMTAP	92	48	7
BXTAP	92	144	0
BXTAP	92	192	0
NMTAP	92	336	0
NMTAP	92	336	1
NMTAP	93	48	0
NMTAP	93	48	1
NMTAP	93	144	4
NMTAP	93	144	6
NMTAP	93	240	0
NMTAP	93	240	7
NMTAP	93	336	1
NMTAP	93	336	3
NMTAP	94	48	4
NMTAP	94	48	5
BXTAP	94	144	7
BXTAP	94	192	7
NMTAP	94	336	7
NMTAP	95	48	6
NMTAP	95	144	5
NMTAP	95	144	7
NMTAP	95	240	4
NMTAP	95	336	3
NMTAP	96	48	1
NMTAP	96	48	2
NMTAP	96	144	1
NMTAP	96	144	2
NMHLD	96	240	0	96
NMHLD	96	240	1	96
NMHLD	97	0	4	96
NMHLD	97	0	6	96
NMHLD	97	144	1	96
NMHLD	97	144	3	96
NMHLD	97	288	6	96
NMHLD	97	288	7	96
NMTAP	98	48	0
NMTAP	98	48	7
BRTAP	98	192	0
BRTAP	98	192	7
NMTAP	98	336	2
NMTAP	98	336	3
NMTAP	99	48	4
NMTAP	99	48	6
NMTAP	99	144	1
NMTAP	99	144	2
NMTAP	99	240	0
NMTAP	99	240	6
NMTAP	99	336	4
NMTAP	99	336	5
NMTAP	100	48	1
NMTAP	100	48	3
BRTAP	100	144	7
BRTAP	100	192	7
NMTAP	100	336	4
NMTAP	100	336	5
NMTAP	101	48	1
NMTAP	101	48	3
NMTAP	101	144	5
NMTAP	101	144	6
NMTAP	101	240	1
NMTAP	101	240	7
NMTAP	101	336	2
NMTAP	101	336	3
NMTAP	102	48	4
NMTAP	102	48	6
BRTAP	102	144	0
BRTAP	102	192	0
NMTAP	102	336	2
NMTAP	102	336	3
NMTAP	103	48	1
NMTAP	103	48	7
NMTAP	103	144	5
NMTAP	103	144	6
NMTAP	103	240	2
NMTAP	103	240	4
NMTAP	103	336	0
NMTAP	103	336	1
NMTAP	104	48	6
NMTAP	104	48	7
BXTAP	104	144	3
BXTAP	104	144	4
BXSTR	104	192	3
NMSCL	104	192	3	96	192	0
BXSTR	104	192	4
NMSCR	104	192	4	96	192	7
BRTAP	105	240	0
BRTAP	105	240	7
NMTAP	106	48	2
NMTAP	106	48	6
BRTAP	106	144	5
BRTAP	106	192	5
NMTAP	106	336	0
NMTAP	106	336	1
NMTAP	107	48	2
NMTAP	107	48	4
NMTAP	107	144	6
NMTAP	107	144	7
NMTAP	107	240	3
NMTAP	107	240	5
NMTAP	107	336	0
NMTAP	107	336	1
NMTAP	108	48	3
NMTAP	108	48	5
BRTAP	108	144	7
BRTAP	108	192	7
NMTAP	108	336	0
NMTAP	108	336	5
NMTAP	109	48	2
NMTAP	109	48	3
NMTAP	109	144	1
NMTAP	109	144	7
NMTAP	109	240	3
NMTAP	109	240	4
NMTAP	109	288	3
NMTAP	109	288	4
NMTAP	110	0	5
NMTAP	110	0	6
NMTAP	110	96	0
NMTAP	110	96	2
BRTAP	110	192	0
BRTAP	110	192	7
NMTAP	110	336	5
NMTAP	110	336	6
NMTAP	111	48	1
NMTAP	111	48	2
NMTAP	111	144	0
NMTAP	111	144	7
NMTAP	111	240	3
NMTAP	111	240	4
NMTAP	111	336	0
NMTAP	111	336	2
NMTAP	112	48	4
NMTAP	112	48	6
NMSTR	112	144	0
NMSCR	112	144	0	96	240	7
BRTAP	113	240	0
BRTAP	113	240	7
EXTAP	114	48	2
EXTAP	114	48	3
EXTAP	114	96	2
EXTAP	114	96	3
BXTAP	114	192	1
BXTAP	114	192	4
NMTAP	114	336	6
NMTAP	114	336	7
NMTAP	115	48	4
NMTAP	115	48	5
NMTAP	115	144	2
NMTAP	115	144	3
NMTAP	115	240	0
NMTAP	115	240	1
NMTAP	115	336	6
NMTAP	115	336	7
NMTAP	116	48	4
NMTAP	116	48	5
BRTAP	116	96	3
BRTAP	116	96	6
NMTAP	116	240	0
NMTAP	116	240	1
NMTAP	116	336	2
NMTAP	116	336	3
NMTAP	117	48	4
NMTAP	117	48	5
NMTAP	117	144	6
NMTAP	117	144	7
NMTAP	117	240	0
NMTAP	117	240	1
NMTAP	117	336	2
NMTAP	117	336	3
NMTAP	118	0	2
NMTAP	118	0	3
BRTAP	118	48	1
BRTAP	118	48	4
BRTAP	118	192	5
BRTAP	118	192	7
BRTAP	118	288	2
BRTAP	118	288	4
BRTAP	119	0	1
BRTAP	119	0	7
BRTAP	119	96	4
BRTAP	119	96	6
BRTAP	119	192	1
BRTAP	119	192	3
BRTAP	119	288	0
BRTAP	119	288	7
BRSTR	119	336	0
BRSI_	119	336	0	96	48	4
BRTAP	119	336	7
BRTAP	120	48	6

T_REC_TAP	351
T_REC_BRK	36
T_REC_XTP	8
T_REC_BXX	49
T_REC_HLD	33
T_REC_XHO	9
T_REC_BHO	0
T_REC_BXH	6
T_REC_STR	14
T_REC_BST	1
T_REC_XST	6
T_REC_XBS	4
T_REC_TTP	24
T_REC_THO	1
T_REC_SLD	24
T_REC_BSL	1
T_REC_ALL	567
T_NUM_TAP	403
T_NUM_BRK	97
T_NUM_HLD	43
T_NUM_SLD	24
T_NUM_ALL	567
T_JUDGE_TAP	493
T_JUDGE_HLD	165
T_JUDGE_SLD	25
T_JUDGE_ALL	683
TTM_EACHPAIRS	172
TTM_SCR_TAP	201500
TTM_SCR_BRK	252200
TTM_SCR_HLD	43000
TTM_SCR_SLD	36000
TTM_SCR_ALL	532700
TTM_SCR_S	507350
TTM_SCR_SS	523000
TTM_RAT_ACV	10185

