VERSION	0.00.00	1.04.00
FES_MODE	0
BPM_DEF	 79.000	279.000	279.000	 79.000
MET_DEF	4	4
RESOLUTION	384
CLK_DEF	288
COMPATIBLE_CODE	MA2

BPM	0	0	 79.000
BPM	2	0	 85.000
BPM	2	288	 95.000
BPM	3	192	115.000
BPM	4	96	135.000
BPM	4	192	155.000
BPM	4	288	180.000
BPM	5	0	210.000
BPM	5	96	250.000
BPM	5	192	279.000
BPM	70	336	179.000
BPM	78	144	140.000
BPM	78	240	 85.000
BPM	78	336	 79.000
BPM	79	192	 85.000
BPM	80	96	 95.000
BPM	80	336	110.000
BPM	81	96	135.000
BPM	81	192	165.000
BPM	81	240	180.000
BPM	81	288	205.000
BPM	81	336	225.000
BPM	82	0	250.000
BPM	82	48	279.000
MET	0	0	4	3
MET	3	0	4	4
MET	17	0	8	7
MET	17	336	4	4
MET	20	336	8	7
MET	21	288	4	4
MET	24	288	8	5
MET	25	144	4	4
MET	29	144	8	15
MET	35	0	4	4
MET	70	0	8	7
MET	70	336	4	5
MET	75	336	4	3
MET	82	240	4	4
MET	114	240	4	7
MET	116	144	8	15

EXTAP	1	192	4
EXTAP	1	192	5
EXTAP	2	96	2
EXTAP	2	96	3
EXHLD	3	0	3	960
EXHLD	3	0	4	960
NMTAP	6	0	5
NMTAP	6	96	5
NMTAP	6	192	5
NMTAP	7	0	6
NMTAP	7	96	6
NMTAP	7	192	6
NMTAP	8	0	7
NMTAP	8	96	7
NMTAP	8	192	7
NMTAP	9	0	0
NMTAP	9	0	7
NMTAP	10	0	1
NMTAP	10	96	1
NMTAP	10	192	1
NMTAP	11	0	2
NMTAP	11	96	2
NMTAP	11	192	2
EXHLD	12	0	3	576
EXHLD	12	0	4	576
NMHLD	14	0	5	192
NMTAP	14	192	4
NMHLD	15	0	2	192
NMTAP	15	192	3
NMHLD	16	0	1	192
NMTAP	16	192	0
EXTAP	17	0	0
EXTAP	17	0	1
NMHLD	17	336	2	192
NMTAP	18	144	3
NMHLD	18	336	5	192
NMTAP	19	144	4
NMHLD	19	336	6	192
NMTAP	20	144	7
EXTAP	20	336	6
EXTAP	20	336	7
NMHLD	21	288	6	192
NMTAP	22	96	7
NMHLD	22	288	1	192
NMTAP	23	96	0
NMHLD	23	288	2	192
NMTAP	24	96	3
EXTAP	24	288	2
EXTAP	24	288	3
EXHLD	25	144	1	192
NMTAP	25	336	0
NMHLD	26	144	6	192
NMTAP	26	336	7
NMHLD	27	144	5	192
NMTAP	27	336	4
EXTAP	28	144	4
EXTAP	28	144	5
NMTTP	29	144	4	B	0	L1
NMTTP	29	336	5	B	0	L1
NMTTP	30	144	6	B	0	L1
NMTTP	30	144	7	B	0	L1
NMTTP	31	96	3	B	0	L1
NMTTP	31	288	2	B	0	L1
NMTTP	32	96	0	B	0	L1
NMTTP	32	96	1	B	0	L1
NMTTP	33	48	4	B	0	L1
NMTTP	33	240	5	B	0	L1
NMTTP	34	48	6	B	0	L1
NMTTP	34	48	7	B	0	L1
NMTTP	35	0	0	C	1	L1
NMTAP	37	0	2
NMTAP	37	96	2
NMTAP	37	192	1
NMTAP	37	288	1
NMTAP	38	0	0
NMTAP	38	96	0
NMTAP	38	192	6
NMTAP	38	192	7
NMTAP	39	0	5
NMTAP	39	96	5
NMTAP	39	192	6
NMTAP	39	288	6
NMTAP	40	0	7
NMTAP	40	96	7
NMTAP	40	192	0
NMTAP	40	192	1
NMTAP	41	0	1
NMTAP	41	96	1
NMTAP	41	192	2
NMTAP	41	288	2
NMTAP	42	0	3
NMTAP	42	96	3
NMTAP	42	192	4
NMTAP	42	192	5
NMTAP	43	0	5
NMTAP	43	96	5
NMTAP	43	192	6
NMTAP	43	288	6
BRTAP	44	0	0
BRTAP	44	0	7
NMTAP	45	0	6
NMTAP	45	96	6
NMTAP	45	192	6
NMTAP	45	288	6
NMTAP	45	288	7
NMTAP	46	0	5
NMTAP	46	96	5
NMTAP	46	192	5
NMTAP	46	288	4
NMTAP	46	288	5
NMTAP	47	0	3
NMTAP	47	96	3
NMTAP	47	192	3
NMTAP	47	288	2
NMTAP	47	288	3
NMTAP	48	0	1
NMTAP	48	96	1
NMTAP	48	192	0
NMTAP	48	192	1
NMTAP	49	0	2
NMTAP	49	96	3
NMTAP	49	192	4
NMTAP	49	288	5
NMTAP	50	0	6
NMTAP	50	96	7
NMTAP	50	192	0
NMTAP	50	192	1
EXTAP	51	0	1
EXTAP	51	0	3
EXTAP	51	144	2
EXTAP	51	144	4
EXTAP	51	288	3
EXTAP	51	288	5
EXHLD	52	48	4	144
EXHLD	52	48	6	144
NMTAP	53	0	5
NMTAP	53	96	5
NMTAP	53	192	6
NMTAP	53	288	6
NMTAP	54	0	7
NMTAP	54	96	7
NMTAP	54	192	0
NMTAP	54	192	1
NMTAP	55	0	2
NMTAP	55	96	2
NMTAP	55	192	1
NMTAP	55	288	1
NMTAP	56	0	0
NMTAP	56	96	0
NMTAP	56	192	6
NMTAP	56	192	7
NMTAP	57	0	6
NMTAP	57	96	6
NMTAP	57	192	5
NMTAP	57	288	5
NMTAP	58	0	4
NMTAP	58	96	4
NMTAP	58	192	2
NMTAP	58	192	3
NMTAP	59	0	2
NMTAP	59	96	2
NMTAP	59	192	1
NMTAP	59	288	1
BRTAP	60	0	0
BRTAP	60	0	7
NMTAP	61	0	1
NMTAP	61	96	1
NMTAP	61	192	1
NMTAP	61	288	0
NMTAP	61	288	1
NMTAP	62	0	2
NMTAP	62	96	2
NMTAP	62	192	2
NMTAP	62	288	2
NMTAP	62	288	3
NMTAP	63	0	4
NMTAP	63	96	4
NMTAP	63	192	4
NMTAP	63	288	4
NMTAP	63	288	5
NMTAP	64	0	6
NMTAP	64	96	6
NMTAP	64	192	0
NMTAP	64	192	7
NMTAP	65	0	6
NMTAP	65	0	7
NMTAP	65	96	6
NMTAP	65	96	7
NMTAP	65	192	4
NMTAP	65	192	5
NMTAP	65	288	4
NMTAP	65	288	5
NMTAP	66	0	2
NMTAP	66	0	3
NMTAP	66	96	2
NMTAP	66	96	3
NMHLD	66	192	0	576
NMHLD	66	192	1	576
NMTAP	69	0	1
NMTAP	69	96	2
NMTAP	69	192	3
NMTAP	69	288	4
NMTAP	70	0	5
NMTAP	70	96	6
EXTAP	70	192	0
EXTAP	70	192	7
NMSTR	70	336	1
NMSI_	70	336	1	96	192	5
NMSTR	72	48	6
NMSI_	72	48	6	96	192	2
NMSTR	73	144	1
NMSI_	73	144	1	96	192	4
NMSTR	74	240	6
NMSI_	74	240	6	96	192	3
NMTAP	75	336	2
NMTAP	76	48	2
NMTAP	76	240	3
NMTAP	76	336	3
NMTAP	77	144	4
NMTAP	77	240	4
NMTAP	78	48	5
NMTAP	78	144	5
EXTAP	78	336	4
EXTAP	78	336	6
EXTAP	79	240	1
EXTAP	79	240	3
EXHLD	80	144	3	576
EXHLD	80	144	4	576
NMTAP	82	240	5
NMTAP	82	336	5
NMTAP	83	48	6
NMTAP	83	48	7
NMTAP	83	144	6
NMTAP	83	144	7
NMTAP	83	240	0
NMTAP	83	336	0
NMTAP	84	48	0
NMTAP	84	48	1
NMTAP	84	240	2
NMTAP	84	336	2
NMTAP	85	48	0
NMTAP	85	48	1
NMTAP	85	144	0
NMTAP	85	144	1
NMTAP	85	240	7
NMTAP	85	336	7
NMTAP	86	48	6
NMTAP	86	48	7
NMTAP	86	240	6
NMTAP	86	336	6
NMTAP	87	48	4
NMTAP	87	48	5
NMTAP	87	144	4
NMTAP	87	144	5
NMTAP	87	240	3
NMTAP	87	336	3
NMTAP	88	48	2
NMTAP	88	48	3
NMTAP	88	240	2
NMTAP	88	336	2
NMTAP	89	48	1
NMTAP	89	144	1
BRTAP	89	240	0
BRTAP	89	240	7
NMTAP	90	240	1
NMTAP	90	336	1
NMTAP	91	48	0
NMTAP	91	48	1
NMTAP	91	144	0
NMTAP	91	144	1
NMTAP	91	240	2
NMTAP	91	336	2
NMTAP	92	48	2
NMTAP	92	48	3
NMTAP	92	144	2
NMTAP	92	144	3
NMTAP	92	240	4
NMTAP	92	336	4
NMTAP	93	48	4
NMTAP	93	48	5
NMTAP	93	144	4
NMTAP	93	144	5
NMTAP	93	240	6
NMTAP	93	336	6
NMTAP	94	48	6
NMTAP	94	48	7
NMTAP	94	240	5
NMTAP	94	336	4
NMTAP	95	48	3
NMTAP	95	144	2
NMTAP	95	240	1
NMTAP	95	336	0
NMTAP	96	48	6
NMTAP	96	48	7
EXTAP	96	240	4
EXTAP	96	240	6
EXTAP	97	0	3
EXTAP	97	0	5
EXTAP	97	144	2
EXTAP	97	144	4
EXHLD	97	288	1	144
EXHLD	97	288	3	144
NMTAP	98	240	2
NMTAP	98	336	2
NMTAP	99	48	0
NMTAP	99	48	1
NMTAP	99	144	0
NMTAP	99	144	1
NMTAP	99	240	7
NMTAP	99	336	7
NMTAP	100	48	6
NMTAP	100	48	7
NMTAP	100	240	5
NMTAP	100	336	5
NMTAP	101	48	6
NMTAP	101	48	7
NMTAP	101	144	6
NMTAP	101	144	7
NMTAP	101	240	0
NMTAP	101	336	0
NMTAP	102	48	0
NMTAP	102	48	1
NMTAP	102	240	1
NMTAP	102	336	1
NMTAP	103	48	2
NMTAP	103	48	3
NMTAP	103	144	2
NMTAP	103	144	3
NMTAP	103	240	4
NMTAP	103	336	4
NMTAP	104	48	4
NMTAP	104	48	5
NMTAP	104	240	5
NMTAP	104	336	5
NMTAP	105	48	6
NMTAP	105	144	6
BRTAP	105	240	0
BRTAP	105	240	7
NMTAP	106	240	6
NMTAP	106	336	6
NMTAP	107	48	6
NMTAP	107	48	7
NMTAP	107	144	6
NMTAP	107	144	7
NMTAP	107	240	5
NMTAP	107	336	5
NMTAP	108	48	4
NMTAP	108	48	5
NMTAP	108	144	4
NMTAP	108	144	5
NMTAP	108	240	3
NMTAP	108	336	3
NMTAP	109	48	2
NMTAP	109	48	3
NMTAP	109	144	2
NMTAP	109	144	3
NMTAP	109	240	1
NMTAP	109	336	1
NMTAP	110	48	0
NMTAP	110	48	7
NMTAP	110	240	0
NMTAP	110	240	1
NMTAP	110	336	0
NMTAP	110	336	1
NMTAP	111	48	2
NMTAP	111	48	3
NMTAP	111	144	2
NMTAP	111	144	3
NMTAP	111	240	4
NMTAP	111	240	5
NMTAP	111	336	4
NMTAP	111	336	5
NMHLD	112	48	6	576
NMHLD	112	48	7	576
EXTAP	114	192	4
EXTAP	114	192	6
NMTAP	114	336	6
NMTAP	115	48	5
NMTAP	115	144	4
NMTAP	115	240	3
NMTAP	115	336	2
EXTAP	116	96	1
EXTAP	116	96	3
NMTAP	116	240	1
NMTAP	116	336	2
NMTAP	117	48	3
NMTAP	117	144	4
NMTAP	117	240	5
EXTAP	118	48	4
EXTAP	118	48	6
NMTAP	118	192	6
NMTAP	118	288	5
NMTAP	119	0	4
NMTAP	119	96	3
NMTAP	119	192	2
NMTAP	119	288	1
BXTAP	120	48	0
BXTAP	120	48	7

T_REC_TAP	305
T_REC_BRK	8
T_REC_XTP	36
T_REC_BXX	2
T_REC_HLD	15
T_REC_XHO	11
T_REC_BHO	0
T_REC_BXH	0
T_REC_STR	4
T_REC_BST	0
T_REC_XST	0
T_REC_XBS	0
T_REC_TTP	13
T_REC_THO	0
T_REC_SLD	4
T_REC_BSL	0
T_REC_ALL	398
T_NUM_TAP	358
T_NUM_BRK	10
T_NUM_HLD	26
T_NUM_SLD	4
T_NUM_ALL	398
T_JUDGE_TAP	368
T_JUDGE_HLD	164
T_JUDGE_SLD	4
T_JUDGE_ALL	536
TTM_EACHPAIRS	91
TTM_SCR_TAP	179000
TTM_SCR_BRK	26000
TTM_SCR_HLD	26000
TTM_SCR_SLD	6000
TTM_SCR_ALL	237000
TTM_SCR_S	228950
TTM_SCR_SS	236000
TTM_RAT_ACV	10042

