VERSION	0.00.00	1.04.00
FES_MODE	0
BPM_DEF	 79.000	279.000	279.000	 79.000
MET_DEF	4	4
RESOLUTION	384
CLK_DEF	288
COMPATIBLE_CODE	MA2

BPM	0	0	 79.000
BPM	2	0	 85.000
BPM	2	288	 95.000
BPM	3	192	115.000
BPM	4	96	135.000
BPM	4	192	155.000
BPM	4	288	180.000
BPM	5	0	210.000
BPM	5	96	250.000
BPM	5	192	279.000
BPM	70	336	179.000
BPM	78	144	140.000
BPM	78	240	 85.000
BPM	78	336	 79.000
BPM	79	192	 85.000
BPM	80	96	 95.000
BPM	80	336	110.000
BPM	81	96	135.000
BPM	81	192	165.000
BPM	81	240	180.000
BPM	81	288	205.000
BPM	81	336	225.000
BPM	82	0	250.000
BPM	82	48	279.000
MET	0	0	4	3
MET	3	0	4	4
MET	17	0	8	7
MET	17	336	4	4
MET	20	336	8	7
MET	21	288	4	4
MET	24	288	8	5
MET	25	144	4	4
MET	29	144	8	15
MET	35	0	4	4
MET	70	0	8	7
MET	70	336	4	5
MET	75	336	4	3
MET	82	240	4	4
MET	114	240	4	7
MET	116	144	8	15

NMTTP	1	192	0	C	1	L1
NMTTP	2	96	0	C	1	L1
NMTHO	3	0	0	432	C	0	L1
EXTAP	6	192	7
NMTAP	7	192	7
NMTAP	8	192	0
NMTAP	9	192	0
NMTAP	10	192	0
NMTAP	10	192	7
NMTAP	11	192	0
NMTAP	11	192	7
NMTAP	14	192	7
NMTAP	15	192	6
NMTAP	16	192	4
NMTAP	16	192	5
NMTAP	17	0	4
NMTAP	17	0	5
NMTAP	18	144	3
NMTAP	19	144	2
NMTAP	20	144	0
NMTAP	20	144	1
NMTAP	20	336	0
NMTAP	20	336	1
NMTAP	22	96	0
NMTAP	23	96	1
NMTAP	24	96	2
NMTAP	24	96	3
NMTAP	24	288	2
NMTAP	24	288	3
NMTAP	25	336	4
NMTAP	26	336	5
NMTAP	27	336	6
NMTAP	27	336	7
BRTAP	28	144	6
BRTAP	28	144	7
EXSTR	29	96	0
NMSI_	29	96	0	96	480	3
EXSTR	33	0	4
NMSI_	33	0	4	96	480	7
EXTAP	37	96	0
NMTAP	37	288	0
NMTAP	38	96	0
NMTAP	39	96	1
NMTAP	39	288	1
NMTAP	40	96	1
NMTAP	41	96	2
NMTAP	41	288	2
NMTAP	42	96	2
EXHLD	43	96	3	288
EXHLD	43	96	4	288
EXTAP	45	96	4
NMTAP	45	288	4
NMTAP	46	96	4
NMTAP	47	96	5
NMTAP	47	288	5
NMTAP	48	96	5
NMTAP	49	96	6
NMTAP	49	288	6
NMTAP	50	96	6
EXHLD	51	0	0	288
EXHLD	51	0	7	288
EXTAP	53	96	7
NMTAP	53	288	7
NMTAP	54	96	7
NMTAP	55	96	6
NMTAP	55	288	6
NMTAP	56	96	6
NMTAP	57	96	5
NMTAP	57	288	5
NMTAP	58	96	5
EXHLD	59	96	3	288
EXHLD	59	96	4	288
EXTAP	61	96	3
NMTAP	61	288	3
NMTAP	62	96	3
NMTAP	63	96	2
NMTAP	63	288	2
NMTAP	64	96	2
NMTAP	65	96	1
NMTAP	65	288	1
NMSTR	66	96	1
NMSI_	66	96	1	96	480	5
NMTAP	69	96	6
NMTAP	69	288	6
NMSTR	70	96	6
NMSI_	70	96	6	96	384	2
NMTTP	73	144	3	B	0	L1
NMTTP	73	144	4	B	0	L1
NMTTP	74	240	2	B	0	L1
NMTTP	74	240	5	B	0	L1
NMTTP	75	336	1	B	0	L1
NMTTP	75	336	6	B	0	L1
NMTHO	77	144	0	576	C	1	L1
NMTTP	79	240	0	C	1	L1
NMTTP	79	240	2	B	0	L1
NMTTP	79	240	5	B	0	L1
NMTHO	80	144	0	816	C	1	L1
EXTAP	84	336	0
NMTAP	85	48	0
NMTAP	85	144	0
NMTAP	85	336	7
NMTAP	86	48	7
NMTAP	86	144	7
NMTAP	86	336	6
NMTAP	87	48	6
NMTAP	87	144	6
NMTAP	87	336	5
NMTAP	88	48	5
NMTAP	88	144	5
NMTAP	88	336	4
NMTAP	89	48	4
NMTAP	89	144	3
NMTAP	89	144	4
NMTAP	89	240	3
NMTAP	89	240	4
EXTAP	90	336	3
NMTAP	91	48	3
NMTAP	91	144	3
NMTAP	91	336	2
NMTAP	92	48	2
NMTAP	92	144	2
NMTAP	92	336	1
NMTAP	93	48	1
NMTAP	93	144	1
NMTAP	93	336	0
NMTAP	94	48	0
NMTAP	94	144	0
NMTAP	94	336	7
NMTAP	95	48	7
NMTAP	95	144	7
NMTAP	95	336	0
NMTAP	96	48	0
NMTAP	96	144	0
NMTAP	96	144	7
NMTAP	96	240	0
NMTAP	96	240	7
EXTAP	98	336	0
NMTAP	99	48	0
NMTAP	99	144	0
NMTAP	99	336	1
NMTAP	100	48	1
NMTAP	100	144	1
NMTAP	100	336	2
NMTAP	101	48	2
NMTAP	101	144	2
NMTAP	101	336	3
NMTAP	102	48	3
NMTAP	102	144	3
NMTAP	102	336	4
NMTAP	103	48	4
NMTAP	103	144	4
NMTAP	103	336	5
NMTAP	104	48	5
NMTAP	104	144	5
NMTAP	104	336	6
NMTAP	105	48	6
NMTAP	105	144	6
NMTAP	105	144	7
BRTAP	105	240	6
BRTAP	105	240	7
EXTAP	106	336	7
NMTAP	107	48	7
NMTAP	107	144	7
NMTAP	107	336	6
NMTAP	108	48	6
NMTAP	108	144	6
NMTAP	108	336	5
NMTAP	109	48	5
NMTAP	109	144	5
NMTAP	109	336	4
NMTAP	110	48	4
NMTAP	110	144	4
NMTAP	110	336	3
NMTAP	111	48	3
NMTAP	111	144	3
NMTAP	111	336	2
NMTAP	112	48	2
NMTAP	112	144	2
NMTAP	112	336	1
NMTAP	113	48	1
NMTAP	113	144	0
NMTAP	113	144	1
BRTAP	113	240	0
BRTAP	113	240	1
EXSTR	114	192	7
NMSI_	114	192	7	96	480	4
EXSTR	116	96	3
NMSI_	116	96	3	96	480	0
EXHLD	118	48	7	432
BXTAP	119	288	0
BXTAP	119	288	7
BXTAP	120	0	0
BXTAP	120	0	7

T_REC_TAP	141
T_REC_BRK	6
T_REC_XTP	9
T_REC_BXX	4
T_REC_HLD	0
T_REC_XHO	7
T_REC_BHO	0
T_REC_BXH	0
T_REC_STR	2
T_REC_BST	0
T_REC_XST	4
T_REC_XBS	0
T_REC_TTP	11
T_REC_THO	3
T_REC_SLD	6
T_REC_BSL	0
T_REC_ALL	193
T_NUM_TAP	167
T_NUM_BRK	10
T_NUM_HLD	10
T_NUM_SLD	6
T_NUM_ALL	193
T_JUDGE_TAP	177
T_JUDGE_HLD	77
T_JUDGE_SLD	6
T_JUDGE_ALL	260
TTM_EACHPAIRS	23
TTM_SCR_TAP	83500
TTM_SCR_BRK	26000
TTM_SCR_HLD	10000
TTM_SCR_SLD	9000
TTM_SCR_ALL	128500
TTM_SCR_S	123700
TTM_SCR_SS	127500
TTM_RAT_ACV	10078

