VERSION	0.00.00	1.04.00
FES_MODE	0
BPM_DEF	155.000	155.000	155.000	155.000
MET_DEF	4	4
RESOLUTION	384
CLK_DEF	384
COMPATIBLE_CODE	MA2

BPM	0	0	155.000
MET	0	0	4	4

NMTAP	1	0	5
NMTAP	1	96	5
NMTAP	1	192	5
EXTAP	1	240	3
EXTAP	1	256	4
EXTAP	1	272	3
BXSTR	1	288	5
NMSI_	1	288	5	96	48	0
BRSTR	2	0	2
NMSI_	2	0	2	96	48	7
NMSTR	2	96	4
NMSV_	2	96	4	96	48	1
NMSTR	2	192	3
NMSV_	2	192	3	96	48	6
NMSTR	2	288	5
NMSXL	2	288	5	96	192	0
NMTAP	3	0	2
NMTAP	3	96	4
NMTAP	3	192	3
NMTAP	3	240	3
NMSTR	3	288	5
NMSI_	3	288	5	96	48	0
BRSTR	4	0	2
NMSI_	4	0	2	96	48	7
NMSTR	4	96	4
NMSV_	4	96	4	96	48	1
NMSTR	4	192	3
NMSV_	4	192	3	96	48	6
NMTAP	4	288	5
NMTAP	5	0	6
NMTAP	5	0	7
NMTAP	5	72	3
NMTAP	5	72	4
NMTAP	5	144	2
NMTAP	5	144	5
NMTAP	5	192	2
NMTAP	5	192	5
NMTAP	5	240	4
NMTAP	5	256	3
NMTAP	5	272	4
NMSTR	5	288	2
NMSI_	5	288	2	96	48	7
BRSTR	6	0	5
NMSI_	6	0	5	96	48	0
NMSTR	6	96	3
NMSV_	6	96	3	96	48	6
NMSTR	6	192	4
NMSV_	6	192	4	96	48	1
NMSTR	6	288	2
NMSXR	6	288	2	96	192	7
NMTAP	7	0	5
NMTAP	7	96	3
NMTAP	7	192	4
NMTAP	7	240	4
NMSTR	7	288	2
NMSI_	7	288	2	96	48	7
BRSTR	8	0	5
NMSI_	8	0	5	96	48	0
NMSTR	8	96	3
NMSV_	8	96	3	96	48	6
NMSTR	8	192	4
NMSV_	8	192	4	96	48	1
NMTAP	8	288	2
NMSTR	9	0	0
NMSI_	9	0	0	96	48	4
NMSTR	9	0	1
NMSI_	9	0	1	96	48	5
NMTAP	9	96	0
NMTAP	9	96	1
NMTTP	9	192	3	B	0	M1
NMTTP	9	192	4	E	1	M1
NMTTP	9	192	4	D	0	M1
NMTTP	9	192	6	B	0	M1
NMTTP	9	192	6	E	0	M1
NMTTP	9	192	6	D	0	M1
BRTAP	9	288	7
NMTAP	10	0	5
NMTAP	10	24	4
NMTAP	10	48	5
NMTAP	10	72	4
NMTAP	10	96	5
NMTAP	10	144	4
NMTAP	10	144	5
NMSTR	10	192	6
NMSCL	10	192	6	96	48	4
NMTAP	10	288	6
NMTAP	10	288	7
NMTAP	11	0	6
NMTAP	11	24	7
NMTAP	11	48	6
NMTAP	11	72	7
NMTAP	11	96	6
NMTAP	11	144	5
NMTAP	11	192	4
NMTAP	11	192	5
NMTAP	11	240	6
NMTAP	11	288	6
NMTAP	11	288	7
NMTAP	12	0	5
NMTAP	12	24	4
NMTAP	12	48	5
NMTAP	12	72	4
NMTAP	12	96	5
NMTAP	12	144	4
NMTAP	12	144	5
NMSTR	12	192	6
NMSCL	12	192	6	96	48	4
NMTAP	12	288	6
NMTAP	12	288	7
NMTAP	13	0	6
NMTAP	13	0	7
NMTAP	13	72	6
NMTAP	13	72	7
NMTAP	13	144	4
NMTAP	13	144	6
NMTAP	13	192	4
NMTAP	13	192	6
NMTAP	13	240	5
NMTAP	13	256	3
NMTAP	13	272	5
NMTAP	13	288	3
NMTAP	14	0	2
NMTAP	14	24	3
NMTAP	14	48	2
NMTAP	14	72	3
NMTAP	14	96	2
NMTAP	14	144	2
NMTAP	14	144	3
NMSTR	14	192	1
NMSCR	14	192	1	96	48	3
NMTAP	14	288	0
NMTAP	14	288	1
NMTAP	15	0	1
NMTAP	15	24	0
NMTAP	15	48	1
NMTAP	15	72	0
NMTAP	15	96	1
NMTAP	15	144	2
NMTAP	15	192	2
NMTAP	15	192	3
NMTAP	15	240	1
NMTAP	15	288	0
NMTAP	15	288	1
NMTAP	16	0	2
NMTAP	16	24	3
NMTAP	16	48	2
NMTAP	16	72	3
NMTAP	16	96	2
NMTAP	16	144	2
NMTAP	16	144	3
NMSTR	16	192	1
NMSCR	16	192	1	96	48	3
NMTAP	16	288	0
NMTAP	16	288	1
NMSTR	17	0	0
NMSI_	17	0	0	96	48	3
NMSTR	17	0	1
NMSI_	17	0	1	96	48	3
BRTAP	17	96	0
BRTAP	17	96	1
BRTAP	17	192	1
BRTAP	17	192	5
NMSTR	17	288	7
NMSI_	17	288	7	96	48	1
NMTAP	18	0	3
NMTAP	18	0	7
NMTAP	18	96	3
NMSTR	18	96	7
NMSI_	18	96	7	96	48	1
NMTAP	18	192	3
NMTAP	18	192	7
NMTAP	18	288	3
NMSTR	18	288	7
NMSXL	18	288	7	96	192	2
NMTAP	19	0	3
NMTAP	19	96	3
NMTAP	19	192	3
NMSTR	19	288	0
NMSI_	19	288	0	96	48	6
NMTAP	20	0	0
NMTAP	20	0	4
NMSTR	20	96	0
NMSI_	20	96	0	96	48	6
NMTAP	20	96	4
NMTAP	20	192	0
NMTAP	20	192	4
NMSTR	20	288	0
NMSXR	20	288	0	96	192	5
NMTAP	20	288	4
NMTAP	21	0	4
NMTAP	21	96	4
NMTAP	21	192	4
NMTAP	21	288	3
NMTAP	21	288	5
NMHLD	22	0	3	48
NMHLD	22	0	5	48
NMHLD	22	72	2	48
NMHLD	22	72	4	48
NMTAP	22	144	1
NMTAP	22	144	3
NMTAP	22	240	0
NMTAP	22	240	1
NMTAP	22	288	0
NMTAP	22	288	1
NMHLD	23	0	2	48
NMHLD	23	0	4	48
NMHLD	23	72	3	48
NMHLD	23	72	5	48
NMTAP	23	144	4
NMTAP	23	144	6
NMTAP	23	240	6
NMTAP	23	240	7
NMTAP	23	288	6
NMTAP	23	288	7
NMTAP	24	0	4
NMTAP	24	0	5
NMTAP	24	96	2
NMTAP	24	96	3
NMTAP	24	192	0
NMTAP	24	192	1
NMTAP	24	288	0
NMTAP	24	288	7
NMTAP	25	0	1
NMTAP	25	0	3
NMTAP	25	72	4
NMTAP	25	72	6
NMTAP	25	144	3
NMTAP	25	144	4
NMTAP	25	192	0
NMTAP	25	192	7
EXTAP	25	240	5
EXTAP	25	256	4
EXTAP	25	272	3
EXTAP	25	288	2
NMSTR	26	0	2
NMSCL	26	0	2	96	48	7
NMTAP	26	0	4
NMTAP	26	48	4
NMTAP	26	96	2
NMTAP	26	96	4
NMTAP	26	144	4
NMSTR	26	192	2
NMSI_	26	192	2	96	48	7
NMTAP	26	192	3
NMTAP	26	240	3
NMTAP	26	288	2
NMSTR	26	288	3
NMSV_	26	288	3	96	48	0
NMSV_	26	288	3	96	48	6
NMTAP	26	336	3
CNSI_	27	48	0	0	48	2
CNSI_	27	48	6	0	48	4
EXSTR	27	192	0
NMSCR	27	192	0	96	48	3
EXSTR	27	192	6
NMSCL	27	192	6	96	48	3
EXTAP	27	288	0
EXTAP	27	288	6
NMSTR	28	0	1
NMSI_	28	0	1	96	48	6
NMSTR	28	0	5
NMSI_	28	0	5	96	48	2
NMTAP	28	48	0
NMTAP	28	48	4
NMTAP	28	192	4
NMTAP	28	240	6
BRTAP	28	288	0
BRTAP	28	336	2
BRTAP	28	336	4
BRTAP	29	0	4
BRSTR	29	0	6
NMSCR	29	0	6	96	48	1
NMSTR	29	96	2
NMSCR	29	96	2	96	48	5
NMSTR	29	192	7
NMSI_	29	192	7	96	48	4
NMTAP	29	288	0
NMTAP	29	336	0
NMTAP	30	0	1
NMSTR	30	0	3
NMSI_	30	0	3	96	48	7
NMTAP	30	96	2
NMTAP	30	144	2
NMTAP	30	192	4
NMTTP	30	240	3	B	0	M1
NMTTP	30	240	3	E	0	M1
NMTTP	30	240	4	E	0	M1
NMTTP	30	288	6	B	0	M1
NMTTP	30	288	6	E	0	M1
NMTTP	30	288	7	E	0	M1
NMSTR	31	0	5
NMSCR	31	0	5	96	48	0
NMTAP	31	96	4
NMSTR	31	192	7
NMSCL	31	192	7	96	48	4
NMTAP	31	240	2
NMSTR	31	288	1
NMSI_	31	288	1	96	48	6
BRTAP	32	0	1
NMSTR	32	0	5
NMSI_	32	0	5	96	48	2
NMSTR	32	96	3
NMSI_	32	96	3	96	48	0
BRTAP	32	96	5
BRTAP	32	192	3
NMSTR	32	192	4
NMSI_	32	192	4	96	48	7
NMTAP	32	288	0
BRTAP	32	288	4
NMTAP	33	0	1
NMTAP	33	0	7
NMTAP	33	72	2
NMTAP	33	72	4
NMTAP	33	144	1
NMTAP	33	144	5
NMTAP	33	192	1
NMTAP	33	192	5
EXTAP	33	240	2
EXTAP	33	256	3
EXTAP	33	272	4
EXTAP	33	288	5
NMTAP	34	0	3
NMSTR	34	0	5
NMSCR	34	0	5	96	48	0
NMTAP	34	48	3
NMTAP	34	96	3
NMTAP	34	96	5
NMTAP	34	144	3
NMTAP	34	192	4
NMSTR	34	192	5
NMSI_	34	192	5	96	48	0
NMTAP	34	240	4
NMSTR	34	288	4
NMSV_	34	288	4	96	48	1
NMSV_	34	288	4	96	48	7
NMTAP	34	288	5
NMTAP	34	336	4
CNSI_	35	48	1	0	48	3
CNSI_	35	48	7	0	48	5
EXSTR	35	192	1
NMSCR	35	192	1	96	48	4
EXSTR	35	192	7
NMSCL	35	192	7	96	48	4
EXTAP	35	288	1
EXTAP	35	288	7
NMSTR	36	0	2
NMSI_	36	0	2	96	48	0
NMSTR	36	0	6
NMSI_	36	0	6	96	48	0
NMTAP	36	48	3
NMTAP	36	48	5
NMTAP	36	192	3
NMTAP	36	240	1
BRTAP	36	288	7
BRTAP	36	336	3
BRTAP	36	336	5
BRSTR	37	0	1
NMSCL	37	0	1	96	48	6
BRTAP	37	0	3
NMSTR	37	96	5
NMSCL	37	96	5	96	48	2
NMSTR	37	192	0
NMSI_	37	192	0	96	48	3
NMTAP	37	288	7
NMTAP	37	336	7
NMSTR	38	0	4
NMSI_	38	0	4	96	48	0
NMTAP	38	0	6
NMTAP	38	96	5
NMTAP	38	144	5
NMTAP	38	192	3
NMTTP	38	240	4	B	0	M1
NMTTP	38	240	4	E	0	M1
NMTTP	38	240	5	E	0	M1
NMTTP	38	288	1	B	0	M1
NMTTP	38	288	1	E	0	M1
NMTTP	38	288	2	E	0	M1
NMSTR	39	0	2
NMSCL	39	0	2	96	48	7
NMTAP	39	96	3
NMSTR	39	192	0
NMSCR	39	192	0	96	48	3
NMTAP	39	240	5
NMSTR	39	288	6
NMSI_	39	288	6	96	48	2
NMSTR	40	0	1
NMSI_	40	0	1	96	48	5
BRTAP	40	0	6
BRTAP	40	96	1
NMSTR	40	96	7
NMSI_	40	96	7	96	48	4
NMSTR	40	192	3
NMSI_	40	192	3	96	48	0
BRTAP	40	192	7
BRTAP	40	288	3
NMTAP	40	288	4
BRTAP	41	0	1
BRTAP	41	0	5
NMTAP	41	240	0
NMTAP	41	256	7
NMTAP	41	272	0
BXTAP	41	288	1
BXTAP	41	288	6
NMTAP	42	0	5
NMTAP	42	24	4
NMTAP	42	48	5
NMTAP	42	72	4
NMSTR	42	96	5
NMSV_	42	96	5	96	48	3
NMTAP	42	144	6
NMTAP	42	192	7
CNSI_	42	240	3	0	48	1
NMTAP	42	240	7
NMTAP	42	288	7
NMTAP	43	0	1
NMTAP	43	24	3
NMTAP	43	48	1
NMTAP	43	72	3
NMSTR	43	96	1
NMSCR	43	96	1	96	48	4
NMTAP	43	144	0
NMSTR	43	192	6
NMSUL	43	192	6	96	48	2
NMTAP	43	288	1
NMTAP	44	0	1
NMTAP	44	24	0
NMTAP	44	48	1
NMTAP	44	72	0
NMTAP	44	96	1
NMTAP	44	144	2
NMTAP	44	192	3
NMTAP	44	192	5
NMTAP	44	240	6
NMTAP	44	288	0
NMTAP	44	288	7
NMTAP	45	0	4
NMTAP	45	0	6
NMTAP	45	72	1
NMTAP	45	72	3
NMTAP	45	144	0
NMTAP	45	144	7
NMTAP	45	192	0
NMTAP	45	192	7
NMTAP	45	240	5
NMTAP	45	256	4
NMTAP	45	272	3
NMTAP	45	288	2
NMTAP	46	0	2
NMTAP	46	24	3
NMTAP	46	48	2
NMTAP	46	72	3
NMSTR	46	96	2
NMSI_	46	96	2	96	48	4
NMTAP	46	144	1
NMTAP	46	192	0
NMTAP	46	240	0
CNSV_	46	240	4	0	48	6
NMTAP	46	288	0
NMTAP	47	0	6
NMTAP	47	24	4
NMTAP	47	48	6
NMTAP	47	72	4
NMSTR	47	96	6
NMSCL	47	96	6	96	48	3
NMTAP	47	144	7
NMSTR	47	192	1
NMSUR	47	192	1	96	48	5
NMTAP	47	288	6
NMTAP	48	0	6
NMTAP	48	24	7
NMTAP	48	48	6
NMTAP	48	72	7
NMTAP	48	96	6
NMTAP	48	144	5
NMTAP	48	192	2
NMTAP	48	192	4
NMTAP	48	240	1
NMSTR	48	288	0
NMSI_	48	288	0	96	48	4
NMSTR	48	288	7
NMSI_	48	288	7	96	48	3
BRSTR	49	0	0
NMSCR	49	0	0	96	48	3
BRSTR	49	0	7
NMSCL	49	0	7	96	48	4
BRTAP	49	96	0
BRTAP	49	96	7
BRTAP	49	192	1
BRTAP	49	192	6
NMTTP	49	288	3	B	1	M1
NMTTP	49	288	3	E	0	M1
NMTTP	49	288	4	E	0	M1
NMHLD	50	0	1	192
NMTAP	50	0	5
NMTAP	50	96	4
NMTAP	50	192	3
NMTAP	50	288	2
NMTAP	50	336	2
NMTAP	51	0	1
NMHLD	51	0	4	192
NMTAP	51	96	0
NMTAP	51	192	7
NMTAP	51	288	6
NMTAP	51	336	6
NMTAP	52	0	5
NMHLD	52	0	7	192
NMTAP	52	96	4
NMTAP	52	192	3
NMTAP	52	288	2
NMTAP	52	336	2
NMTAP	53	0	1
NMHLD	53	0	3	192
NMTAP	53	96	0
NMTAP	53	192	7
NMTAP	53	288	6
NMTAP	53	336	6
NMHLD	54	0	0	144
NMTAP	54	0	5
NMTAP	54	96	4
NMTAP	54	144	4
NMTAP	54	192	3
NMHLD	54	192	6	144
NMTAP	54	288	2
NMTAP	54	336	2
NMTAP	55	0	1
NMHLD	55	0	3	144
NMTAP	55	96	0
NMTAP	55	144	0
NMHLD	55	192	4	144
NMTAP	55	192	7
NMTAP	55	288	6
NMTAP	55	336	6
NMTAP	56	0	5
NMHLD	56	0	7	48
NMTAP	56	48	5
NMHLD	56	96	2	48
NMTAP	56	96	4
NMTAP	56	144	4
NMTAP	56	192	3
NMHLD	56	192	6	48
NMTAP	56	240	3
NMHLD	56	288	0	48
NMTAP	56	288	2
NMTAP	56	336	2
NMTAP	57	0	1
NMTAP	57	0	3
NMTAP	57	72	4
NMTAP	57	72	6
NMTAP	57	144	0
NMTAP	57	144	7
NMSTR	57	192	0
NMSI_	57	192	0	96	48	4
NMTAP	57	192	7
NMSTR	57	288	0
BRSCR	57	288	0	96	144	7
NMTTP	58	0	0	C	1	M1
NMTAP	58	240	0
NMTAP	58	256	7
NMTAP	58	272	0
BXTAP	58	288	1
BXSTR	58	288	6
NMSV_	58	288	6	96	48	3
NMSTR	59	0	2
NMSV_	59	0	2	96	48	7
NMTAP	59	0	6
NMTAP	59	48	1
NMSTR	59	96	5
NMSCR	59	96	5	96	48	0
NMTAP	59	144	4
NMSTR	59	192	1
NMSCR	59	192	1	96	48	4
NMTAP	59	240	2
NMTAP	59	288	7
NMTAP	59	336	7
NMSTR	60	0	6
NMSCL	60	0	6	96	48	3
NMSTR	60	0	7
NMSCR	60	0	7	96	48	2
NMTAP	60	96	6
NMTAP	60	96	7
NMSTR	60	192	0
NMSCL	60	192	0	96	48	5
NMSTR	60	192	1
NMSCR	60	192	1	96	48	4
NMTAP	60	288	0
NMTAP	60	288	1
NMHLD	61	0	6	96
NMTAP	61	48	4
NMHLD	61	96	2	96
NMTAP	61	144	3
NMHLD	61	192	5	48
NMTAP	61	240	1
NMSTR	61	288	0
NMSI_	61	288	0	96	48	3
NMSTR	61	288	7
NMSI_	61	288	7	96	48	4
NMTAP	61	336	1
NMTAP	61	336	6
EXTAP	62	96	2
EXSTR	62	96	5
NMSCR	62	96	5	96	96	1
EXSTR	62	192	1
NMSCL	62	192	1	96	96	5
NMTAP	62	288	2
NMTAP	62	336	2
NMSTR	63	0	3
NMSI_	63	0	3	96	48	7
NMTAP	63	96	4
NMTAP	63	144	4
NMTAP	63	192	0
NMTTP	63	240	5	B	0	M1
NMTTP	63	240	5	E	0	M1
NMTTP	63	240	6	E	0	M1
NMTTP	63	288	3	B	0	M1
NMTTP	63	288	3	E	0	M1
NMTTP	63	288	4	E	0	M1
NMSTR	64	0	1
NMSXL	64	0	1	96	144	4
NMTAP	64	96	7
NMTAP	64	192	0
NMTAP	64	240	0
NMTAP	64	288	3
NMSTR	64	288	7
NMSI_	64	288	7	96	48	4
NMSTR	65	0	0
NMSI_	65	0	0	96	48	3
NMTAP	65	0	7
NMTAP	65	96	0
NMSTR	65	96	1
NMSCL	65	96	1	96	48	6
NMTAP	65	192	1
NMSTR	65	192	4
NMSI_	65	192	4	96	48	7
NMTAP	65	288	3
NMTAP	65	288	4
NMTAP	66	0	1
NMTAP	66	0	3
NMTAP	66	72	0
NMTAP	66	72	7
NMTAP	66	144	4
NMTAP	66	144	6
NMTAP	66	192	4
NMTAP	66	192	6
NMTAP	66	240	7
NMTAP	66	256	0
NMTAP	66	272	7
BXSTR	66	288	1
NMSV_	66	288	1	96	48	4
BXTAP	66	288	6
NMTAP	67	0	1
NMSTR	67	0	5
NMSV_	67	0	5	96	48	0
NMTAP	67	48	6
NMSTR	67	96	2
NMSCL	67	96	2	96	48	7
NMTAP	67	144	3
NMSTR	67	192	6
NMSCL	67	192	6	96	48	3
NMTAP	67	240	5
NMTAP	67	288	0
NMTAP	67	336	0
NMSTR	68	0	0
NMSCL	68	0	0	96	48	5
NMSTR	68	0	1
NMSCR	68	0	1	96	48	4
NMTAP	68	96	0
NMTAP	68	96	1
NMSTR	68	192	6
NMSCL	68	192	6	96	48	3
NMSTR	68	192	7
NMSCR	68	192	7	96	48	2
NMTAP	68	288	6
NMTAP	68	288	7
NMHLD	69	0	1	96
NMTAP	69	48	3
NMHLD	69	96	5	96
NMTAP	69	144	4
NMHLD	69	192	2	48
NMTAP	69	240	6
NMSTR	69	288	0
NMSI_	69	288	0	96	48	3
NMSTR	69	288	7
NMSI_	69	288	7	96	48	4
NMTAP	69	336	1
NMTAP	69	336	6
EXSTR	70	96	2
NMSLL	70	96	2	96	96	4
EXTAP	70	96	5
NMTAP	70	192	4
NMTAP	70	288	5
NMTAP	70	336	5
NMHLD	71	0	3	96
NMHLD	71	0	6	96
NMTAP	71	144	1
NMTAP	71	160	4
NMTAP	71	176	1
NMTAP	71	192	4
NMTTP	71	240	5	B	0	M1
NMTTP	71	240	5	E	0	M1
NMTTP	71	240	6	E	0	M1
NMTTP	71	288	0	B	0	M1
NMTTP	71	288	0	E	0	M1
NMTTP	71	288	1	E	0	M1
NMTAP	72	0	3
NMTAP	72	0	4
NMTAP	72	72	1
NMTAP	72	72	6
BRTAP	72	144	0
BRTAP	72	144	7
BRTAP	72	192	2
BRTAP	72	192	5
NMSTR	72	288	0
NMSI_	72	288	0	96	48	3
NMTAP	72	288	4
NMTAP	73	0	0
NMSTR	73	0	7
NMSI_	73	0	7	96	48	4
NMSTR	73	96	6
NMSCR	73	96	6	96	48	1
NMTAP	73	96	7
NMSTR	73	192	3
NMSI_	73	192	3	96	48	0
NMTAP	73	192	6
NMTAP	73	288	3
NMTAP	73	288	4
NMHLD	74	0	4	192
NMTAP	74	240	0
NMTAP	74	240	4
NMTAP	74	256	1
NMTAP	74	256	5
NMTAP	74	272	2
NMTAP	74	272	6
NMTAP	74	288	3
NMTAP	74	288	7
NMTAP	75	0	1
NMTAP	75	24	0
NMTAP	75	48	1
NMTAP	75	72	0
NMSTR	75	96	2
NMSV_	75	96	2	96	48	0
NMTAP	75	144	3
NMTAP	75	192	4
CNSI_	75	240	0	0	48	6
NMTAP	75	288	5
NMTAP	75	336	5
NMTAP	76	0	6
NMTAP	76	24	0
NMTAP	76	48	6
NMTAP	76	72	0
NMSTR	76	96	6
NMSCR	76	96	6	96	48	0
NMTAP	76	144	5
NMSTR	76	192	2
NMSCR	76	192	2	96	48	4
NMTAP	76	288	7
NMTAP	77	0	6
NMTAP	77	24	4
NMTAP	77	48	6
NMTAP	77	72	4
NMTAP	77	96	6
NMTAP	77	144	3
NMTAP	77	192	2
NMTAP	77	192	4
NMTAP	77	240	1
NMTAP	77	288	0
NMTAP	77	288	7
NMTAP	77	336	0
NMTAP	77	336	7
NMTAP	78	0	1
NMTAP	78	0	3
NMTAP	78	72	4
NMTAP	78	72	6
NMTAP	78	144	0
NMTAP	78	144	7
NMTAP	78	192	0
NMTAP	78	192	7
NMTTP	78	240	3	B	0	M1
NMTTP	78	240	3	E	0	M1
NMTTP	78	240	3	D	0	M1
NMTTP	78	240	5	B	0	M1
NMTTP	78	240	6	E	0	M1
NMTTP	78	240	6	D	0	M1
NMTTP	78	288	0	E	0	M1
NMTTP	78	288	0	A	0	M1
NMTTP	78	288	0	D	0	M1
NMTTP	78	288	7	A	0	M1
NMHLD	79	0	1	96
NMHLD	79	0	4	96
NMTAP	79	144	6
NMTAP	79	160	3
NMTAP	79	176	6
NMTAP	79	192	3
NMTTP	79	240	2	B	0	M1
NMTTP	79	240	2	E	0	M1
NMTTP	79	240	2	D	0	M1
NMTTP	79	240	4	B	0	M1
NMTTP	79	240	5	E	0	M1
NMTTP	79	240	5	D	0	M1
NMTTP	79	288	0	E	0	M1
NMTTP	79	288	0	A	0	M1
NMTTP	79	288	0	D	0	M1
NMTTP	79	288	7	A	0	M1
NMTAP	80	0	1
NMTAP	80	0	3
NMTAP	80	72	0
NMTAP	80	72	7
NMTAP	80	144	4
NMTAP	80	144	6
NMTAP	80	192	3
NMTAP	80	192	4
NMTAP	80	240	2
NMTAP	80	240	5
NMTAP	80	288	2
NMTAP	80	288	5
NMTAP	81	0	1
NMTAP	81	24	0
NMTAP	81	48	1
NMTAP	81	72	0
NMTAP	81	96	1
NMTAP	81	144	2
NMTAP	81	192	3
NMTAP	81	192	5
NMTAP	81	240	6
NMSTR	81	288	1
NMSCR	81	288	1	96	48	4
NMSTR	81	288	7
NMSCL	81	288	7	96	48	4
EXTAP	82	0	1
EXTAP	82	0	7
NMTAP	82	96	5
NMTAP	82	144	2
NMTAP	82	192	3
NMTAP	82	192	4
NMTAP	82	240	3
NMTAP	82	256	4
NMTAP	82	272	2
NMSTR	82	288	3
BRSI_	82	288	3	96	48	0
BRSI_	82	288	3	96	48	6

T_REC_TAP	456
T_REC_BRK	31
T_REC_XTP	19
T_REC_BXX	4
T_REC_HLD	31
T_REC_XHO	0
T_REC_BHO	0
T_REC_BXH	0
T_REC_STR	99
T_REC_BST	8
T_REC_XST	7
T_REC_XBS	3
T_REC_TTP	54
T_REC_THO	0
T_REC_SLD	117
T_REC_BSL	3
T_REC_ALL	832
T_NUM_TAP	635
T_NUM_BRK	49
T_NUM_HLD	31
T_NUM_SLD	117
T_NUM_ALL	832
T_JUDGE_TAP	681
T_JUDGE_HLD	62
T_JUDGE_SLD	120
T_JUDGE_ALL	863
TTM_EACHPAIRS	174
TTM_SCR_TAP	317500
TTM_SCR_BRK	127400
TTM_SCR_HLD	31000
TTM_SCR_SLD	175500
TTM_SCR_ALL	651400
TTM_SCR_S	627150
TTM_SCR_SS	646500
TTM_RAT_ACV	10075

