VERSION	0.00.00	1.04.00
FES_MODE	0
BPM_DEF	155.000	155.000	155.000	155.000
MET_DEF	4	4
RESOLUTION	384
CLK_DEF	384
COMPATIBLE_CODE	MA2

BPM	0	0	155.000
MET	0	0	4	4

NMHLD	1	0	3	192
NMTAP	1	0	5
NMTAP	1	96	5
NMSTR	1	192	5
NMSI_	1	192	5	96	48	3
NMTAP	2	0	2
NMTAP	2	48	2
NMTAP	2	96	3
NMTAP	2	192	1
NMTAP	2	192	3
NMTAP	2	288	2
NMTAP	2	288	4
NMTAP	3	0	5
NMTAP	3	48	5
NMTAP	3	96	4
NMTAP	3	192	3
NMTAP	3	192	6
NMTAP	3	288	2
NMTAP	3	288	5
NMTAP	4	0	1
NMTAP	4	48	1
NMTAP	4	96	0
NMTAP	4	192	0
NMTAP	4	192	1
NMSTR	4	288	6
NMSCL	4	288	6	96	96	3
NMSTR	4	288	7
NMSCR	4	288	7	96	96	2
EXTAP	5	192	1
EXTAP	5	192	4
NMTAP	5	288	1
NMTAP	5	288	4
NMTAP	6	0	2
NMTAP	6	48	2
NMTAP	6	96	3
NMTAP	6	192	1
NMTAP	6	192	4
NMTAP	6	288	0
NMTAP	6	288	7
NMTAP	7	0	5
NMTAP	7	48	5
NMTAP	7	96	4
NMTAP	7	192	3
NMTAP	7	192	6
NMTAP	7	288	0
NMTAP	7	288	7
NMTAP	8	0	1
NMTAP	8	48	1
NMTAP	8	96	3
NMHLD	8	192	2	96
NMHLD	8	192	3	96
BRTAP	9	0	2
BRTAP	9	0	3
BRTAP	9	96	4
BRTAP	9	96	5
BRTAP	9	192	3
BRTAP	9	192	6
NMHLD	10	0	5	1056
NMTAP	10	96	4
NMTAP	10	192	3
NMTAP	10	288	4
NMTAP	10	336	4
NMTAP	11	0	3
NMTAP	11	96	4
NMTAP	11	192	2
NMTAP	11	288	4
NMTAP	11	336	4
NMTAP	12	0	3
NMTAP	12	96	4
NMTAP	12	192	1
NMSTR	12	288	4
NMSXL	12	288	4	96	192	3
EXTAP	13	288	3
NMHLD	14	0	2	1056
NMTAP	14	0	4
NMTAP	14	96	3
NMTAP	14	192	4
NMTAP	14	288	3
NMTAP	14	336	3
NMTAP	15	0	4
NMTAP	15	96	3
NMTAP	15	192	5
NMTAP	15	288	3
NMTAP	15	336	3
NMTAP	16	0	4
NMTAP	16	96	3
NMTAP	16	192	6
NMTAP	16	288	3
EXTAP	17	0	0
EXTAP	17	0	1
EXTAP	17	96	6
EXTAP	17	96	7
BRTAP	17	192	0
BRTAP	17	192	5
NMTAP	17	288	0
NMSTR	18	0	1
NMSCR	18	0	1	96	96	4
NMSTR	18	192	6
NMSI_	18	192	6	96	96	3
NMTTP	19	0	0	B	0	M1
NMTTP	19	96	2	B	0	M1
NMTTP	19	192	3	D	0	M1
NMTTP	19	192	4	E	0	M1
EXSTR	20	0	6
NMSCL	20	0	6	96	96	3
NMSTR	20	192	1
NMSI_	20	192	1	96	96	4
NMTTP	21	0	7	B	0	M1
NMTTP	21	96	5	B	0	M1
NMTTP	21	192	4	E	0	M1
NMTTP	21	192	5	D	0	M1
EXHLD	22	0	2	72
EXHLD	22	0	3	72
EXTAP	22	144	2
EXTAP	22	144	3
NMTAP	22	240	1
NMTAP	22	288	0
NMTAP	22	288	1
EXHLD	23	0	4	72
EXHLD	23	0	5	72
EXTAP	23	144	4
EXTAP	23	144	5
NMTAP	23	240	6
NMTAP	23	288	6
NMTAP	23	288	7
NMHLD	24	0	6	96
NMHLD	24	96	4	96
NMHLD	24	192	3	96
NMTAP	24	288	2
EXTAP	25	0	2
EXTAP	25	0	3
EXTAP	25	72	3
EXTAP	25	72	5
EXTAP	25	144	2
EXTAP	25	144	6
EXTAP	25	192	2
EXTAP	25	192	6
EXTAP	25	288	0
EXTAP	25	288	7
NMSTR	26	0	0
NMSI_	26	0	0	96	48	4
NMSTR	26	0	1
NMSI_	26	0	1	96	48	4
NMSTR	26	192	0
NMSI_	26	192	0	96	48	4
NMSTR	26	192	1
NMSI_	26	192	1	96	48	4
NMSTR	27	0	0
NMSI_	27	0	0	96	48	4
NMSTR	27	0	1
NMSI_	27	0	1	96	48	4
NMTAP	27	192	0
NMTAP	27	192	1
EXTAP	27	288	3
EXTAP	27	288	7
NMTAP	28	0	5
NMTAP	28	48	5
NMTAP	28	96	4
NMTAP	28	96	6
NMTAP	28	192	2
NMTAP	28	240	2
NMTAP	28	288	1
NMTAP	28	288	3
BRTAP	29	0	0
BRTAP	29	0	7
BRTAP	29	96	4
BRTAP	29	96	6
BRTAP	29	192	0
BRTAP	29	192	7
NMTAP	29	288	2
NMTAP	29	288	3
NMTAP	30	0	4
NMTAP	30	0	6
NMTAP	30	96	1
NMTAP	30	96	3
NMTAP	30	192	6
NMTAP	30	240	6
NMTAP	30	240	7
NMTAP	30	288	6
NMTAP	30	288	7
NMTAP	31	0	1
NMTAP	31	0	3
NMTAP	31	96	4
NMTAP	31	96	6
NMTAP	31	192	1
NMTAP	31	240	0
NMTAP	31	240	1
NMTAP	31	288	0
NMTAP	31	288	1
NMHLD	32	0	2	48
NMHLD	32	0	7	48
NMHLD	32	96	4	48
NMHLD	32	96	5	48
NMHLD	32	192	2	48
NMHLD	32	192	3	48
NMHLD	32	288	0	48
NMHLD	32	288	5	48
EXTAP	33	0	6
EXTAP	33	0	7
EXTAP	33	72	1
EXTAP	33	72	7
BXTAP	33	144	2
BXTAP	33	144	6
BXTAP	33	192	2
BXTAP	33	192	6
NMTAP	33	288	3
NMTAP	33	288	4
NMSTR	34	0	6
NMSI_	34	0	6	96	48	3
NMSTR	34	0	7
NMSI_	34	0	7	96	48	3
NMSTR	34	192	6
NMSI_	34	192	6	96	48	3
NMSTR	34	192	7
NMSI_	34	192	7	96	48	3
NMSTR	35	0	6
NMSI_	35	0	6	96	48	3
NMSTR	35	0	7
NMSI_	35	0	7	96	48	3
NMTAP	35	192	6
NMTAP	35	192	7
NMTAP	35	288	0
NMTAP	35	288	4
NMTAP	36	0	2
NMTAP	36	48	2
NMTAP	36	96	1
NMTAP	36	96	3
NMTAP	36	192	5
NMTAP	36	240	5
NMTAP	36	288	4
NMTAP	36	288	6
BRTAP	37	0	0
BRTAP	37	0	7
BRTAP	37	96	1
BRTAP	37	96	3
BRTAP	37	192	0
BRTAP	37	192	7
NMTAP	37	288	4
NMTAP	37	288	5
NMTAP	38	0	1
NMTAP	38	0	3
NMTAP	38	96	4
NMTAP	38	96	6
NMTAP	38	192	1
NMTAP	38	240	0
NMTAP	38	240	1
NMTAP	38	288	0
NMTAP	38	288	1
NMTAP	39	0	4
NMTAP	39	0	6
NMTAP	39	96	1
NMTAP	39	96	3
NMTAP	39	192	6
NMTAP	39	240	6
NMTAP	39	240	7
NMHLD	39	288	6	96
NMTAP	39	288	7
NMHLD	40	0	4	96
NMHLD	40	96	3	96
NMTAP	40	192	2
NMTAP	40	288	0
NMTAP	40	288	1
NMTAP	41	0	3
NMHLD	41	0	7	288
BRTAP	41	288	0
NMTAP	42	0	5
NMTAP	42	48	5
NMTAP	42	96	4
NMTAP	42	192	2
NMTAP	42	192	3
NMTAP	42	288	1
NMTAP	42	288	4
NMTAP	43	0	6
NMTAP	43	48	6
NMTAP	43	96	7
NMTAP	43	192	0
NMTAP	43	192	1
NMTAP	43	288	2
NMTAP	43	288	7
NMTAP	44	0	5
NMTAP	44	48	5
NMTAP	44	96	4
NMTAP	44	192	1
NMTAP	44	240	1
NMTAP	44	288	3
EXTAP	45	0	2
EXTAP	45	0	3
EXTAP	45	72	3
EXTAP	45	72	5
EXTAP	45	144	2
EXTAP	45	144	6
EXTAP	45	192	2
EXTAP	45	192	6
BRTAP	45	288	0
NMHLD	46	0	6	96
NMHLD	46	96	4	96
NMHLD	46	192	3	96
NMTAP	46	288	1
NMHLD	47	0	2	96
NMHLD	47	96	0	96
NMHLD	47	192	7	96
NMTAP	47	288	5
NMTAP	48	0	6
NMTAP	48	48	6
NMTAP	48	96	4
NMTAP	48	144	4
NMTAP	48	192	5
NMTAP	48	240	5
NMTAP	48	288	2
NMTAP	48	336	2
BRTAP	49	0	3
BRTAP	49	96	0
BRTAP	49	96	7
BRTAP	49	192	1
BRTAP	49	192	5
NMHLD	50	0	2	768
NMTAP	50	0	4
NMTTP	50	192	3	E	0	M1
NMTTP	50	288	2	E	0	M1
NMTTP	51	0	1	E	0	M1
NMTTP	51	96	0	E	0	M1
NMTTP	51	192	7	E	0	M1
NMHLD	52	0	5	864
NMTTP	52	192	5	E	0	M1
NMTTP	52	288	6	E	0	M1
NMTTP	53	0	7	E	0	M1
NMTTP	53	96	0	E	0	M1
NMTTP	53	192	1	E	0	M1
NMHLD	54	0	3	96
NMHLD	54	192	2	96
NMHLD	54	192	4	96
NMHLD	55	0	4	96
NMHLD	55	0	5	96
NMHLD	55	192	2	96
NMHLD	55	192	3	96
NMTAP	56	0	4
NMTAP	56	96	3
NMTAP	56	96	5
NMTAP	56	192	2
NMTAP	56	192	6
NMTAP	56	288	1
NMSTR	56	288	7
NMSI_	56	288	7	96	96	2
CNSI_	57	96	2	0	96	5
CNSI_	57	192	5	0	96	0
NMTTP	58	0	0	C	1	M1
BRTAP	58	288	0
BRTAP	58	288	7
NMSTR	59	0	6
NMSI_	59	0	6	96	48	2
NMSTR	59	0	7
NMSI_	59	0	7	96	48	2
NMSTR	59	192	6
NMSI_	59	192	6	96	48	2
NMSTR	59	192	7
NMSI_	59	192	7	96	48	2
NMSTR	60	0	6
NMSI_	60	0	6	96	48	2
NMSTR	60	0	7
NMSI_	60	0	7	96	48	2
NMTAP	60	192	6
NMTAP	60	192	7
BRTAP	60	288	0
BRTAP	60	288	4
NMTAP	61	0	6
NMTAP	61	48	6
NMTAP	61	96	0
NMTAP	61	96	5
NMTAP	61	192	1
NMTAP	61	240	1
NMTAP	61	288	2
NMTAP	61	288	7
BRTAP	62	0	4
BRTAP	62	0	5
BRTAP	62	96	0
BRTAP	62	96	7
BRTAP	62	192	2
BRTAP	62	192	3
BRTAP	62	288	6
BRTAP	62	288	7
NMTAP	63	0	1
NMTAP	63	0	3
NMTAP	63	96	4
NMTAP	63	96	5
NMTAP	63	192	1
NMTAP	63	240	0
NMTAP	63	240	1
NMTAP	63	288	0
NMTAP	63	288	1
NMTAP	64	0	4
NMTAP	64	0	6
NMTAP	64	96	2
NMTAP	64	96	3
NMTAP	64	192	6
NMTAP	64	240	6
NMTAP	64	240	7
NMTAP	64	288	6
NMTAP	64	288	7
NMHLD	65	0	0	48
NMHLD	65	0	5	48
NMHLD	65	96	6	48
NMHLD	65	96	7	48
NMHLD	65	192	4	48
NMHLD	65	192	5	48
NMHLD	65	288	3	48
NMHLD	65	288	7	48
BXTAP	66	0	0
BXTAP	66	0	1
BXTAP	66	72	0
BXTAP	66	72	6
BXTAP	66	144	1
BXTAP	66	144	5
BXTAP	66	192	1
BXTAP	66	192	5
NMTAP	66	288	3
NMTAP	66	288	4
NMSTR	67	0	0
NMSI_	67	0	0	96	48	5
NMSTR	67	0	1
NMSI_	67	0	1	96	48	5
NMSTR	67	192	0
NMSI_	67	192	0	96	48	5
NMSTR	67	192	1
NMSI_	67	192	1	96	48	5
NMSTR	68	0	0
NMSI_	68	0	0	96	48	5
NMSTR	68	0	1
NMSI_	68	0	1	96	48	5
NMTAP	68	192	0
NMTAP	68	192	1
EXTAP	68	288	3
EXTAP	68	288	7
NMTAP	69	0	6
NMTAP	69	48	6
NMTAP	69	96	4
NMTAP	69	144	4
NMTAP	69	192	3
NMTAP	69	240	3
NMTAP	69	288	1
NMTAP	69	336	1
BRTAP	70	0	1
BRTAP	70	0	7
BRTAP	70	96	0
BRTAP	70	96	6
BRTAP	70	192	2
BRTAP	70	192	7
NMSTR	70	288	1
BRSI_	70	288	1	96	48	4
NMSTR	70	288	5
BRSI_	70	288	5	96	48	0
EXHLD	71	192	2	96
EXHLD	71	192	6	96
BXTAP	72	0	1
BXTAP	72	0	3
BXTAP	72	72	3
BXTAP	72	72	4
BXTAP	72	144	4
BXTAP	72	144	6
BXTAP	72	192	4
BXTAP	72	192	6
BRTAP	72	288	3
BRTAP	72	288	7
NMTAP	73	0	6
NMTAP	73	48	6
NMTAP	73	96	4
NMTAP	73	144	4
NMTAP	73	192	3
NMTAP	73	240	3
NMSTR	73	288	1
NMSI_	73	288	1	96	48	5
NMHLD	74	0	7	288
BRTAP	74	288	0
NMTAP	75	0	6
NMTAP	75	48	6
NMTAP	75	96	6
NMTAP	75	96	7
NMTAP	75	192	0
NMTAP	75	192	5
NMTAP	75	288	1
NMTAP	75	288	7
NMTAP	76	0	5
NMTAP	76	48	5
NMTAP	76	96	4
NMTAP	76	96	5
NMTAP	76	192	3
NMTAP	76	192	6
NMTAP	76	288	1
NMTAP	76	288	4
NMTAP	77	0	2
NMTAP	77	48	2
NMTAP	77	96	1
NMTAP	77	96	3
NMTAP	77	192	5
NMTAP	77	240	5
NMTAP	77	288	4
NMTAP	77	288	6
NMHLD	78	0	3	72
NMHLD	78	72	2	72
NMTAP	78	144	1
NMTAP	78	192	1
EXTAP	78	288	0
EXTAP	78	288	7
NMHLD	79	0	2	96
NMHLD	79	0	4	96
NMTAP	79	192	1
NMTAP	79	240	0
NMTAP	79	240	1
NMTAP	79	288	0
NMTAP	79	288	1
EXTAP	80	0	2
EXTAP	80	0	3
EXTAP	80	72	3
EXTAP	80	72	5
EXTAP	80	144	2
EXTAP	80	144	6
EXTAP	80	192	2
EXTAP	80	192	6
BXTAP	80	240	7
BXSTR	80	288	7
NMSI_	80	288	7	96	48	3
NMSTR	81	0	1
NMSI_	81	0	1	96	48	5
NMSTR	81	96	6
NMSI_	81	96	6	96	48	2
NMSTR	81	192	0
NMSI_	81	192	0	96	48	4
NMTAP	81	288	7
BXTAP	82	0	3
BXHLD	82	0	5	240
NMTAP	82	240	4
NMSTR	82	288	4
BRSCL	82	288	4	96	96	1
BRSUL	82	288	4	96	96	0

T_REC_TAP	257
T_REC_BRK	48
T_REC_XTP	47
T_REC_BXX	22
T_REC_HLD	48
T_REC_XHO	6
T_REC_BHO	0
T_REC_BXH	1
T_REC_STR	39
T_REC_BST	0
T_REC_XST	1
T_REC_XBS	1
T_REC_TTP	19
T_REC_THO	0
T_REC_SLD	38
T_REC_BSL	4
T_REC_ALL	531
T_NUM_TAP	363
T_NUM_BRK	76
T_NUM_HLD	54
T_NUM_SLD	38
T_NUM_ALL	531
T_JUDGE_TAP	434
T_JUDGE_HLD	177
T_JUDGE_SLD	42
T_JUDGE_ALL	653
TTM_EACHPAIRS	159
TTM_SCR_TAP	181500
TTM_SCR_BRK	197600
TTM_SCR_HLD	54000
TTM_SCR_SLD	57000
TTM_SCR_ALL	490100
TTM_SCR_S	468050
TTM_SCR_SS	482500
TTM_RAT_ACV	10157

