VERSION	0.00.00	1.04.00
FES_MODE	0
BPM_DEF	158.000	158.000	158.000	158.000
MET_DEF	4	4
RESOLUTION	384
CLK_DEF	384
COMPATIBLE_CODE	MA2

BPM	0	0	158.000
MET	0	0	4	4
MET	10	0	4	7
MET	24	0	4	1
MET	24	96	4	4
MET	83	96	4	1
MET	83	192	4	7
MET	90	192	4	1
MET	90	288	4	4

BRSTR	2	0	1
NMSUL	2	0	1	96	384	7
NMHLD	2	0	5	384
NMHLD	4	0	2	384
NMSTR	4	0	6
NMSUR	4	0	6	96	384	0
NMTTP	5	192	0	B	0	M1
NMTTP	5	240	6	B	0	M1
NMTTP	5	288	4	B	0	M1
NMTTP	5	336	2	B	0	M1
NMSTR	6	0	1
NMSUL	6	0	1	96	384	7
NMSTR	6	0	5
NMSUL	6	0	5	96	384	3
NMHLD	8	0	1	192
NMHLD	8	0	7	384
NMSTR	8	288	0
NMSCR	8	288	0	96	96	7
BRTAP	9	192	1
BRTAP	9	240	1
NMTAP	9	288	6
NMTAP	9	312	4
NMTAP	9	336	6
NMTAP	9	360	4
NMSTR	10	0	7
NMSI_	10	0	7	96	48	4
NMTAP	10	72	3
NMTAP	10	72	7
NMTAP	10	144	2
NMTAP	10	168	2
NMTAP	10	192	5
NMTAP	10	216	3
NMTAP	10	240	5
NMTAP	10	264	3
NMTAP	10	288	6
NMTAP	10	312	4
NMTAP	10	336	6
NMTAP	10	360	4
NMTAP	11	0	7
NMTAP	11	24	6
NMTAP	11	48	5
NMTAP	11	72	4
NMSTR	11	96	7
NMSI_	11	96	7	96	48	4
NMTAP	11	120	0
NMSTR	11	144	1
NMSI_	11	144	1	96	48	4
NMTAP	11	168	2
NMSTR	11	288	6
NMSI_	11	288	6	96	24	3
NMTAP	11	360	2
NMTAP	11	360	6
NMTAP	12	48	1
NMTAP	12	72	1
NMTAP	12	96	4
NMTAP	12	120	2
NMTAP	12	144	4
NMTAP	12	168	2
NMTAP	12	192	5
NMTAP	12	216	1
NMTAP	12	240	5
NMTAP	12	264	1
NMTAP	12	288	6
NMTAP	12	312	3
NMTAP	12	336	6
NMTAP	12	360	3
NMSTR	13	0	5
NMSXR	13	0	5	96	96	3
NMTAP	13	24	4
NMTAP	13	48	5
NMTAP	13	72	4
NMSTR	13	192	0
NMSI_	13	192	0	96	24	3
NMTAP	13	264	0
NMTAP	13	264	4
NMTAP	13	336	5
NMTAP	13	360	5
NMTAP	14	0	2
NMTAP	14	24	4
NMTAP	14	48	2
NMTAP	14	72	4
NMTAP	14	96	1
NMTAP	14	120	3
NMTAP	14	144	1
NMTAP	14	168	3
NMTAP	14	192	0
NMTAP	14	216	1
NMTAP	14	240	2
NMTAP	14	264	3
NMSTR	14	288	0
NMSI_	14	288	0	96	48	3
NMTAP	14	312	7
NMSTR	14	336	6
NMSI_	14	336	6	96	48	3
NMTAP	14	360	5
NMTAP	15	96	1
NMTAP	15	144	1
NMTAP	15	168	3
NMTAP	15	192	2
NMTAP	15	240	6
NMTAP	15	264	4
NMTAP	15	288	5
NMTAP	15	336	1
NMTAP	15	360	3
NMTAP	16	0	2
NMTAP	16	48	5
NMTAP	16	96	7
NMTAP	16	120	7
NMTAP	16	144	0
NMTAP	16	168	0
NMTAP	16	192	1
NMTAP	16	216	1
NMTAP	16	240	2
NMTAP	16	264	2
NMTAP	16	288	3
NMTAP	16	312	3
NMTAP	16	336	4
NMTAP	16	360	4
BRTAP	17	0	3
BRTAP	17	0	5
NMSTR	17	96	2
NMSI_	17	96	2	96	48	7
NMTAP	17	144	3
NMTAP	17	168	3
NMTAP	17	192	2
NMTAP	17	240	4
NMTAP	17	264	4
NMSTR	17	288	2
NMSXR	17	288	2	96	144	7
NMTAP	17	336	3
NMTAP	17	360	3
NMTAP	18	0	2
NMTAP	18	96	3
NMTAP	18	144	4
NMSTR	18	192	5
NMSV_	18	192	5	96	48	0
NMTAP	18	240	4
NMTAP	18	240	6
NMTAP	18	288	5
NMTAP	18	336	3
NMTAP	18	360	3
NMSTR	19	0	5
NMSI_	19	0	5	96	48	0
NMTAP	19	48	4
NMTAP	19	72	4
NMTAP	19	96	5
NMTAP	19	144	3
NMTAP	19	168	3
NMSTR	19	192	4
NMSLR	19	192	4	96	96	0
NMTAP	19	240	2
NMTAP	19	264	2
NMTAP	19	288	4
NMHLD	20	0	1	96
NMSTR	20	96	0
NMSI_	20	96	0	96	48	4
NMTAP	20	120	7
NMTAP	20	144	6
NMTAP	20	168	5
NMSTR	20	192	0
NMSCR	20	192	0	96	48	2
NMTAP	20	192	4
NMTAP	20	240	5
NMTAP	20	264	5
NMSTR	20	288	0
NMSV_	20	288	0	96	48	3
NMTAP	20	336	4
NMTAP	20	360	4
NMSTR	21	0	0
NMSCR	21	0	0	96	48	2
NMTAP	21	48	5
NMTAP	21	72	5
NMSTR	21	96	0
NMSSL	21	96	0	96	96	4
NMTAP	21	144	6
NMTAP	21	168	6
NMTAP	21	192	0
NMTAP	21	240	5
NMTAP	21	288	6
NMTAP	21	336	7
NMTTP	22	0	1	E	0	M1
NMTTP	22	0	1	A	0	M1
NMTTP	22	48	6	B	0	M1
NMTTP	22	48	6	A	0	M1
NMTAP	22	96	2
NMTAP	22	120	2
NMTAP	22	144	3
NMTAP	22	168	3
NMTAP	22	192	4
NMTAP	22	216	4
NMTAP	22	240	5
NMTAP	22	264	5
NMTAP	22	288	2
NMTAP	22	312	2
NMTAP	22	336	7
NMTAP	22	360	7
NMTAP	23	0	0
NMTAP	23	24	0
NMTAP	23	48	5
NMTAP	23	72	5
NMTAP	23	96	1
NMTAP	23	108	2
NMTAP	23	120	3
NMTAP	23	144	5
NMTAP	23	168	5
NMTAP	23	192	1
NMTAP	23	204	2
NMTAP	23	216	3
NMTAP	23	240	6
NMTAP	23	264	6
NMTAP	23	288	2
NMTAP	23	312	2
NMTAP	23	336	7
NMTAP	23	360	7
NMTAP	24	0	3
NMTAP	24	24	3
NMTAP	24	48	5
NMTTP	24	96	0	B	0	M1
NMTTP	24	96	0	C	1	M1
NMTTP	24	96	0	E	0	M1
NMTTP	24	96	4	B	0	M1
NMTTP	24	96	4	E	0	M1
NMTAP	25	288	2
NMTAP	25	320	3
NMTAP	25	352	1
NMTAP	26	0	5
NMTAP	26	32	4
NMTAP	26	64	6
NMSTR	26	96	0
NMSI_	26	96	0	96	48	4
BRTAP	26	192	0
BRSTR	26	192	4
NMSCL	26	192	4	96	96	0
NMSTR	26	288	0
NMSCL	26	288	0	96	96	4
NMSTR	27	0	4
NMSCL	27	0	4	96	96	0
NMSTR	27	96	0
NMSSL	27	96	0	96	96	4
NMTAP	27	192	5
NMSTR	27	288	7
NMSI_	27	288	7	96	48	2
NMSI_	27	288	7	96	48	4
BRTAP	28	0	7
NMSTR	28	96	6
NMSI_	28	96	6	96	48	4
NMSTR	28	192	0
NMSI_	28	192	0	96	48	2
NMTAP	28	192	6
NMTAP	28	288	0
NMSTR	28	288	7
NMSI_	28	288	7	96	48	3
NMSTR	29	0	3
NMSI_	29	0	3	96	48	7
NMTAP	29	0	7
NMSTR	29	96	2
NMSI_	29	96	2	96	48	0
NMSTR	29	192	4
NMSI_	29	192	4	96	48	6
NMSTR	29	288	3
BRSI_	29	288	3	96	48	0
NMTAP	30	0	3
CNSCR	30	48	0	0	48	2
NMTAP	30	96	4
NMHLD	30	168	5	24
NMTTP	30	192	0	B	0	M1
NMTTP	30	192	1	E	0	M1
NMTAP	30	240	4
NMTAP	30	288	4
NMHLD	30	360	3	24
NMTTP	31	0	5	B	0	M1
NMTTP	31	0	6	B	0	M1
NMTAP	31	48	2
NMTAP	31	96	2
NMHLD	31	168	3	24
NMTTP	31	192	6	B	0	M1
NMTTP	31	192	7	B	0	M1
NMTAP	31	240	4
NMTAP	31	288	4
NMTAP	31	360	5
NMHLD	32	0	3	96
NMHLD	32	96	1	0
NMTAP	32	128	4
NMHLD	32	160	6	0
NMTAP	32	192	3
NMHLD	32	224	5	0
NMTAP	32	256	0
NMHLD	32	288	2	0
NMTAP	32	320	7
NMHLD	32	352	5	0
NMTAP	33	0	1
NMHLD	33	32	7	0
NMTAP	33	64	3
NMTAP	33	96	2
NMTAP	33	96	6
NMTAP	33	128	2
NMTAP	33	128	6
NMTAP	33	192	3
NMTAP	33	208	2
NMTAP	33	224	1
NMTAP	33	240	0
NMTAP	33	256	3
NMTAP	33	256	7
NMTAP	33	288	3
NMTAP	33	288	7
NMTAP	34	96	4
NMTAP	34	128	3
NMTAP	34	160	2
NMTAP	34	192	4
NMTAP	34	224	3
NMTAP	34	256	2
NMTAP	34	288	4
NMTAP	34	320	3
NMTAP	34	352	2
NMSTR	35	0	4
NMSLR	35	0	4	96	96	1
NMTAP	35	32	3
NMTAP	35	64	2
BRHLD	35	96	4	288
CNSLR	35	192	1	0	96	7
CNSI_	35	288	7	0	96	2
NMTAP	36	96	3
NMTAP	36	128	4
NMTAP	36	160	5
NMTAP	36	192	3
NMTAP	36	224	4
NMTAP	36	256	5
NMTAP	36	288	3
NMTAP	36	320	4
NMTAP	36	352	5
NMSTR	37	0	3
NMSLR	37	0	3	96	96	0
NMTAP	37	32	4
NMTAP	37	64	5
BRHLD	37	96	3	288
NMSTR	37	288	1
BRSI_	37	288	1	96	32	4
NMTAP	37	320	1
NMTAP	37	352	1
NMTAP	38	96	3
NMTAP	38	128	2
NMTAP	38	160	1
NMTAP	38	192	3
NMTAP	38	224	2
NMTAP	38	256	1
NMTAP	38	288	3
NMTAP	38	320	2
NMTAP	38	352	1
NMSTR	39	0	3
NMSLL	39	0	3	96	64	6
NMTAP	39	32	2
NMTAP	39	64	1
BRHLD	39	96	3	288
CNSLL	39	160	6	0	64	0
CNSI_	39	224	0	0	64	5
CNSI_	39	288	5	0	64	2
CNSI_	39	352	2	0	32	7
NMTAP	40	96	5
NMTAP	40	128	6
NMTAP	40	160	7
NMTAP	40	192	0
NMTAP	40	224	1
NMTAP	40	256	2
NMTAP	40	288	3
NMTAP	40	288	4
NMTAP	40	320	5
NMTAP	40	352	6
NMTAP	41	0	0
NMTAP	41	0	7
NMTAP	41	32	1
NMTAP	41	64	2
NMSTR	41	96	3
NMSI_	41	96	3	96	48	1
NMSTR	41	96	4
NMSI_	41	96	4	96	48	6
NMTAP	41	192	3
NMTAP	41	192	4
BRTAP	41	288	0
BRTAP	41	288	7
BRTAP	42	0	2
BRTAP	42	0	5
NMTAP	42	96	1
NMTAP	42	120	2
NMTAP	42	144	3
NMTAP	42	168	4
NMTAP	42	192	7
NMTAP	42	216	6
NMTAP	42	240	5
NMTAP	42	264	4
NMTAP	42	288	7
NMTAP	42	312	0
NMTAP	42	336	1
NMTAP	42	360	2
NMTAP	43	0	6
NMTAP	43	24	5
NMTAP	43	48	4
NMTAP	43	72	3
NMTAP	43	96	1
NMTAP	43	120	2
NMTAP	43	144	3
NMTAP	43	168	4
NMTAP	43	192	0
NMTAP	43	192	5
NMTAP	43	216	6
NMTAP	43	240	7
NMTAP	43	264	0
NMTAP	43	288	1
NMTAP	43	288	5
NMTAP	43	312	6
NMTAP	43	336	7
NMTAP	43	360	0
NMTAP	44	0	1
NMTAP	44	0	4
NMTAP	44	24	2
NMTAP	44	48	3
NMTAP	44	72	4
NMSTR	44	96	1
NMSI_	44	96	1	96	48	6
NMSTR	44	96	5
NMSI_	44	96	5	96	48	2
NMTAP	44	192	1
NMTAP	44	192	5
NMSTR	44	288	3
NMSI_	44	288	3	96	48	6
NMTAP	44	288	7
NMSTR	45	0	0
NMSI_	45	0	0	96	48	4
NMTAP	45	0	3
NMSTR	45	96	0
NMSCR	45	96	0	96	48	3
NMTAP	45	144	5
NMTAP	45	168	5
NMTAP	45	192	0
NMTAP	45	240	7
NMTAP	45	264	7
NMTAP	45	288	0
NMTAP	45	312	6
NMTAP	45	336	1
NMTAP	45	360	5
BRTAP	46	0	2
BRTAP	46	0	4
NMTAP	46	96	6
NMTAP	46	120	5
NMTAP	46	144	4
NMTAP	46	168	3
NMTAP	46	192	0
NMTAP	46	216	1
NMTAP	46	240	2
NMTAP	46	264	3
NMTAP	46	288	0
NMTAP	46	312	7
NMTAP	46	336	6
NMTAP	46	360	5
NMTAP	47	0	1
NMTAP	47	24	2
NMTAP	47	48	3
NMTAP	47	72	4
NMTAP	47	96	6
NMTAP	47	120	5
NMTAP	47	144	4
NMTAP	47	168	3
NMTAP	47	192	2
NMTAP	47	192	7
NMTAP	47	216	1
NMTAP	47	240	0
NMTAP	47	264	7
NMTAP	47	288	2
NMTAP	47	288	6
NMTAP	47	312	1
NMTAP	47	336	0
NMTAP	47	360	7
NMTAP	48	0	3
NMTAP	48	0	6
NMTAP	48	24	5
NMTAP	48	48	4
NMTAP	48	72	3
NMTAP	48	96	2
NMSTR	48	96	6
NMSI_	48	96	6	96	24	2
NMSI_	48	96	6	96	24	3
BRTAP	48	192	6
NMTAP	48	288	0
NMTAP	48	288	1
NMTAP	48	336	2
NMTAP	48	336	3
NMTAP	49	0	4
NMTAP	49	0	5
NMTAP	49	48	6
NMTAP	49	48	7
NMHLD	49	96	0	192
NMHLD	49	96	1	96
NMTAP	49	288	1
NMTAP	49	304	2
NMTAP	49	320	3
NMTAP	49	336	0
NMTAP	49	352	1
NMTAP	49	368	2
NMTAP	50	0	7
NMTAP	50	16	0
NMTAP	50	32	1
NMTAP	50	48	6
NMTAP	50	64	7
NMTAP	50	80	0
BRSTR	50	96	5
NMSCR	50	96	5	96	1152	3
NMTHO	52	96	0	96	C	0	M1
NMTTP	53	288	0	B	0	M1
NMTTP	53	336	6	B	0	M1
NMTTP	54	0	4	B	0	M1
NMTTP	54	48	2	B	0	M1
NMTHO	54	96	0	96	C	0	M1
NMSTR	54	96	1
NMSUR	54	96	1	96	672	4
NMTHO	56	96	0	96	C	0	M1
CNSCR	56	96	4	0	480	3
NMTTP	57	288	2	B	0	M1
NMTTP	57	288	3	B	0	M1
NMTTP	57	288	4	B	0	M1
NMTTP	57	288	4	E	1	M1
NMTTP	57	288	5	B	0	M1
NMTAP	58	96	0
NMTAP	58	144	0
NMTAP	58	192	0
NMTAP	58	240	0
NMTTP	58	240	6	E	0	M1
NMTTP	58	252	5	B	0	M1
NMTTP	58	264	4	B	0	M1
NMTTP	58	276	4	E	0	M1
NMTAP	58	288	0
NMTAP	58	336	0
NMTAP	59	0	0
NMTAP	59	48	0
NMTTP	59	48	2	A	0	M1
NMTTP	59	60	3	E	0	M1
NMTTP	59	72	3	B	0	M1
NMTTP	59	84	4	B	0	M1
NMTAP	59	96	0
NMTAP	59	144	0
NMTAP	59	192	0
NMTAP	59	240	1
NMTTP	59	240	6	E	0	M1
NMTTP	59	252	5	B	0	M1
NMTTP	59	264	4	B	0	M1
NMTTP	59	276	4	E	0	M1
NMHLD	59	288	1	32
NMTAP	60	0	2
NMTAP	60	0	6
NMTAP	60	96	7
NMTAP	60	144	7
NMTAP	60	192	7
NMTTP	60	240	2	E	0	M1
NMTAP	60	240	7
NMTTP	60	252	2	B	0	M1
NMTTP	60	264	3	B	0	M1
NMTTP	60	276	4	E	0	M1
NMTAP	60	288	7
NMTAP	60	336	7
NMTAP	61	0	7
NMTTP	61	48	5	A	0	M1
NMTAP	61	48	7
NMTTP	61	60	5	E	0	M1
NMTTP	61	72	4	B	0	M1
NMTTP	61	84	3	B	0	M1
NMTAP	61	96	7
NMTAP	61	144	7
NMTAP	61	192	7
NMTTP	61	240	2	E	0	M1
NMTAP	61	240	6
NMTTP	61	252	2	B	0	M1
NMTTP	61	264	3	B	0	M1
NMTTP	61	276	4	E	0	M1
NMTAP	61	288	6
NMTAP	62	0	0
NMTAP	62	0	5
NMTAP	62	96	1
NMTAP	62	120	4
NMTAP	62	144	1
NMTAP	62	168	4
NMTAP	62	192	2
NMTAP	62	216	3
NMTAP	62	240	2
NMTAP	62	264	3
NMSTR	62	288	1
BRSI_	62	288	1	96	48	7
NMTAP	62	312	4
NMTAP	62	336	1
NMHLD	62	360	4	72
NMTAP	63	0	1
NMTAP	63	96	1
NMTAP	63	120	7
NMTAP	63	144	1
NMTAP	63	168	7
NMTAP	63	192	2
NMTAP	63	216	6
NMTAP	63	240	2
NMTAP	63	264	6
NMTAP	63	288	3
NMTAP	63	312	5
NMTAP	63	336	2
NMTAP	63	360	4
BRHLD	64	0	1	96
NMTAP	64	0	3
BRTAP	64	96	3
NMTAP	64	108	2
NMTAP	64	108	4
NMTAP	64	120	3
NMTAP	64	120	5
NMTAP	64	132	4
NMTAP	64	132	6
BRTAP	64	192	4
BRTAP	64	192	6
NMTAP	64	204	3
NMTAP	64	204	5
NMTAP	64	216	2
NMTAP	64	216	4
NMTAP	64	228	1
NMTAP	64	228	3
NMTTP	64	288	0	E	0	M1
NMTTP	64	300	1	E	0	M1
NMTTP	64	312	2	E	0	M1
NMTTP	64	324	3	E	0	M1
NMTTP	64	336	4	E	0	M1
NMTTP	64	348	5	E	0	M1
NMTTP	64	360	6	E	0	M1
NMTTP	64	372	7	E	0	M1
NMTTP	65	0	0	D	0	M1
NMTTP	65	12	1	D	0	M1
NMTTP	65	24	2	D	0	M1
NMTTP	65	36	3	D	0	M1
NMTTP	65	48	4	D	0	M1
NMTTP	65	60	5	D	0	M1
NMTTP	65	72	6	D	0	M1
NMTTP	65	84	7	D	0	M1
NMTTP	65	96	0	D	1	M1
NMTHO	65	96	0	384	C	0	M1
NMSTR	66	288	7
NMSSR	66	288	7	96	48	3
NMSV_	66	288	7	96	48	5
NMTAP	66	336	0
NMTAP	66	336	6
NMSTR	67	96	0
NMSI_	67	96	0	96	48	5
NMSTR	67	144	5
NMSLR	67	144	5	96	48	1
NMTAP	67	192	0
NMSTR	67	240	3
NMSI_	67	240	3	96	48	7
NMTAP	67	336	3
NMSTR	67	336	6
NMSI_	67	336	6	96	48	2
NMSTR	68	48	4
NMSI_	68	48	4	96	48	1
NMSI_	68	48	4	96	48	7
NMTAP	68	48	6
NMTAP	68	144	4
NMTAP	68	240	2
NMTAP	68	240	6
NMTAP	68	288	5
NMTAP	68	312	4
NMTAP	68	336	6
NMTAP	68	360	2
NMTAP	69	0	3
NMTAP	69	24	1
NMTAP	69	48	5
NMTAP	69	72	4
NMSTR	69	96	7
NMSI_	69	96	7	96	48	3
NMSTR	69	144	3
NMSI_	69	144	3	96	48	6
NMTAP	69	192	7
NMTAP	69	240	0
NMTAP	69	288	0
NMTAP	69	336	6
NMTAP	69	360	4
NMTAP	70	0	5
NMTAP	70	24	2
NMSTR	70	48	3
NMSI_	70	48	3	96	48	0
NMTAP	70	144	7
NMSTR	70	192	7
NMSV_	70	192	7	96	48	2
NMSV_	70	192	7	96	48	4
NMTAP	70	288	7
NMTAP	71	0	1
NMTAP	71	0	5
NMTAP	71	48	1
NMTAP	71	48	5
NMSTR	71	96	7
NMSI_	71	96	7	96	48	2
NMSTR	71	144	2
NMSLL	71	144	2	96	48	6
NMTAP	71	192	7
NMSTR	71	240	4
NMSI_	71	240	4	96	48	0
NMSTR	71	336	1
NMSI_	71	336	1	96	48	5
NMTAP	71	336	4
NMTAP	72	48	1
NMSTR	72	48	3
NMSI_	72	48	3	96	48	0
NMSI_	72	48	3	96	48	6
NMTAP	72	144	3
NMTAP	72	240	1
NMTAP	72	240	5
NMSTR	72	288	2
NMSI_	72	288	2	96	48	7
NMSTR	72	288	4
NMSI_	72	288	4	96	48	7
NMTAP	72	336	3
NMTAP	73	0	2
NMTAP	73	0	4
NMTAP	73	96	7
NMTAP	73	120	6
NMTAP	73	144	5
NMTAP	73	168	4
NMTAP	73	192	3
NMTAP	73	192	7
NMTAP	73	216	6
NMTAP	73	240	5
NMTAP	73	264	4
NMTAP	73	288	3
NMTAP	73	288	7
NMTAP	73	312	6
NMTAP	73	336	5
NMTAP	73	360	4
NMTAP	74	0	0
NMTAP	74	48	0
NMTAP	74	96	1
NMTAP	74	96	5
NMTAP	74	144	2
NMTAP	74	168	3
BRHLD	74	192	0	72
BRTAP	74	264	6
NMSTR	74	288	7
BRSF_	74	288	7	96	48	3
BRTAP	74	312	5
NMTAP	74	336	0
BRTAP	75	0	7
NMSTR	75	96	0
NMSI_	75	96	0	96	48	5
NMSTR	75	144	5
NMSLR	75	144	5	96	48	1
NMTAP	75	192	0
NMSTR	75	240	3
NMSI_	75	240	3	96	48	7
NMTAP	75	336	3
NMSTR	75	336	6
NMSI_	75	336	6	96	48	2
NMSTR	76	48	4
NMSI_	76	48	4	96	48	1
NMSI_	76	48	4	96	48	7
NMTAP	76	48	6
NMTAP	76	144	4
NMTAP	76	240	2
NMTAP	76	240	6
NMTAP	76	288	5
NMTAP	76	312	4
NMTAP	76	336	6
NMTAP	76	360	2
NMTAP	77	0	3
NMTAP	77	24	1
NMTAP	77	48	5
NMTAP	77	72	4
NMSTR	77	96	7
NMSI_	77	96	7	96	48	3
NMSTR	77	144	3
NMSI_	77	144	3	96	48	6
NMTAP	77	192	7
NMTAP	77	240	0
NMTAP	77	288	0
NMTAP	77	336	1
NMTAP	77	336	5
NMTAP	78	0	2
NMTAP	78	12	3
NMTAP	78	24	4
NMTAP	78	36	5
NMTAP	78	48	6
NMTAP	78	60	7
NMTAP	78	72	0
NMTAP	78	84	1
BRTAP	78	96	2
BRTAP	78	128	2
BRTAP	78	192	1
NMHLD	78	192	5	32
NMHLD	78	256	2	32
BRTAP	78	256	6
BRTAP	78	320	3
NMHLD	78	320	7	32
NMHLD	79	0	0	32
BRTAP	79	0	4
BRTAP	79	64	1
BRTAP	79	64	5
BRSTR	79	96	1
NMSI_	79	96	1	96	96	5
BRTAP	79	96	5
NMHLD	79	288	7	72
NMHLD	79	360	5	72
NMTAP	80	48	4
NMSTR	80	96	4
NMSCR	80	96	4	96	96	7
NMHLD	80	288	0	96
NMTAP	81	0	3
NMTAP	81	96	1
NMTAP	81	96	4
NMTAP	81	144	5
NMTAP	81	192	3
NMSTR	81	192	6
NMSI_	81	192	6	96	48	2
NMTAP	81	240	7
NMSTR	81	288	3
NMSI_	81	288	3	96	48	0
NMSI_	81	288	3	96	48	6
NMTAP	81	288	6
NMTAP	82	0	3
NMHLD	82	96	7	144
NMTTP	82	152	1	E	0	M1
NMTTP	82	160	1	B	0	M1
NMTTP	82	168	2	B	0	M1
NMTTP	82	176	3	E	0	M1
NMTTP	82	240	7	E	0	M1
NMTTP	82	248	6	B	0	M1
NMTTP	82	256	5	B	0	M1
NMTTP	82	264	5	E	0	M1
NMHLD	82	288	3	96
NMTAP	83	0	4
NMTTP	83	96	2	E	0	M1
NMTTP	83	104	2	B	0	M1
NMTTP	83	112	3	B	0	M1
NMTTP	83	120	4	E	0	M1
NMTTP	83	144	6	E	0	M1
NMTTP	83	152	5	B	0	M1
NMTTP	83	160	4	B	0	M1
NMTTP	83	168	4	E	0	M1
NMSTR	83	192	0
NMSCR	83	192	0	96	288	7
NMSSL	83	192	0	96	96	4
CNSSL	84	0	4	0	192	0
BRSTR	84	288	0
NMSLL	84	288	0	96	48	4
NMSLR	84	288	0	96	48	4
BRTAP	84	312	0
BRTAP	84	336	0
BRTAP	84	360	0
BRTAP	85	0	0
NMSTR	85	96	1
NMSI_	85	96	1	96	24	4
NMTAP	85	168	1
NMTAP	85	168	7
NMTAP	85	240	5
NMTAP	85	264	5
NMTAP	85	288	1
NMTAP	85	312	3
NMTAP	85	336	1
NMTAP	85	360	3
NMTAP	86	0	1
NMTAP	86	24	0
NMTAP	86	48	1
NMTAP	86	72	7
NMTAP	86	96	1
NMTAP	86	120	6
NMTAP	86	144	1
NMTAP	86	168	5
NMTAP	86	192	1
NMTAP	86	216	4
NMTAP	86	240	1
NMTAP	86	264	3
BRTAP	86	288	2
NMTAP	87	0	4
NMTAP	87	12	3
NMTAP	87	24	4
NMTAP	87	36	3
NMTAP	87	48	4
BRTAP	87	96	2
NMTAP	87	96	5
NMTAP	87	168	3
BRTAP	87	168	6
BRTAP	87	216	4
NMTAP	87	216	5
BRTAP	87	240	4
NMTAP	87	240	5
BRTAP	87	264	4
NMTAP	87	264	5
NMTAP	87	312	1
BRTAP	87	312	7
BRTAP	87	360	1
NMTAP	87	360	7
NMTAP	88	48	0
BRTAP	88	48	6
NMTAP	88	96	5
NMTAP	88	120	5
NMTAP	88	144	0
NMTAP	88	156	7
NMTAP	88	168	6
NMTAP	88	180	5
NMTAP	88	192	4
BRTAP	88	192	7
BRTAP	88	240	7
NMTAP	88	288	1
NMTAP	88	312	1
NMTAP	88	336	3
NMTAP	88	360	3
NMTAP	89	0	4
NMTAP	89	24	4
NMTAP	89	48	6
NMTAP	89	72	6
NMTAP	89	96	2
NMTAP	89	120	2
NMTAP	89	144	7
NMTAP	89	168	7
NMTAP	89	192	0
NMTAP	89	216	0
NMTAP	89	240	5
NMTAP	89	264	5
NMTAP	89	288	0
NMTAP	89	300	1
NMTAP	89	312	2
NMTAP	89	336	4
NMTAP	89	360	4
NMTAP	90	0	7
NMTAP	90	12	0
NMTAP	90	24	1
NMTAP	90	48	3
NMTAP	90	72	3
BRTAP	90	96	6
BRTAP	90	108	7
BRTAP	90	120	0
BRTAP	90	132	1
BRTAP	90	144	2
BRTAP	90	156	3
NMTAP	90	192	6
NMTAP	90	204	4
NMTAP	90	216	6
NMTAP	90	228	4
NMTAP	90	240	6
NMTAP	90	252	4
NMTAP	90	264	6
NMTAP	90	276	4
BRSTR	90	288	7
BRSI_	90	288	7	96	32	3
BRTAP	90	320	7
BRTAP	91	0	2
BRTAP	91	64	1
BRTAP	91	64	5
BRTAP	91	96	3
BRTAP	91	96	7

T_REC_TAP	581
T_REC_BRK	55
T_REC_XTP	0
T_REC_BXX	0
T_REC_HLD	28
T_REC_XHO	0
T_REC_BHO	5
T_REC_BXH	0
T_REC_STR	78
T_REC_BST	6
T_REC_XST	0
T_REC_XBS	0
T_REC_TTP	85
T_REC_THO	4
T_REC_SLD	89
T_REC_BSL	5
T_REC_ALL	936
T_NUM_TAP	744
T_NUM_BRK	71
T_NUM_HLD	32
T_NUM_SLD	89
T_NUM_ALL	936
T_JUDGE_TAP	805
T_JUDGE_HLD	101
T_JUDGE_SLD	94
T_JUDGE_ALL	1000
TTM_EACHPAIRS	90
TTM_SCR_TAP	372000
TTM_SCR_BRK	184600
TTM_SCR_HLD	32000
TTM_SCR_SLD	133500
TTM_SCR_ALL	722100
TTM_SCR_S	693550
TTM_SCR_SS	715000
TTM_RAT_ACV	10099

