VERSION	0.00.00	1.04.00
FES_MODE	0
BPM_DEF	158.000	158.000	158.000	158.000
MET_DEF	4	4
RESOLUTION	384
CLK_DEF	384
COMPATIBLE_CODE	MA2

BPM	0	0	158.000
MET	0	0	4	4
MET	10	0	4	7
MET	24	0	4	1
MET	24	96	4	4
MET	83	96	4	1
MET	83	192	4	7
MET	90	192	4	1
MET	90	288	4	4

BXTAP	2	0	0
NMTHO	2	0	0	144	C	0	M1
NMTHO	4	0	0	144	C	0	M1
NMTHO	6	0	0	144	C	0	M1
NMTHO	8	0	0	144	C	0	M1
BRHLD	9	0	0	192
NMTAP	9	192	7
NMTAP	9	240	7
NMTAP	9	288	0
NMTAP	9	312	6
NMTAP	9	336	0
NMTAP	9	360	6
NMHLD	10	0	1	72
NMHLD	10	72	2	72
NMHLD	10	144	3	72
NMHLD	10	216	4	72
NMTAP	10	288	5
NMTAP	11	0	1
NMSTR	11	0	7
NMSCL	11	0	7	96	48	4
NMTAP	11	192	2
NMTAP	11	192	3
NMTAP	11	240	2
NMTAP	11	240	3
NMHLD	11	288	1	72
NMHLD	11	360	2	72
NMTAP	12	48	3
NMTAP	12	96	3
NMTAP	12	144	4
NMTAP	12	192	3
NMTAP	12	240	2
NMTAP	12	288	5
NMTAP	12	336	6
NMSTR	13	0	1
NMSI_	13	0	1	96	48	5
NMTAP	13	48	0
NMHLD	13	192	6	72
NMHLD	13	264	5	72
NMHLD	13	336	4	72
NMHLD	14	24	3	72
NMTAP	14	96	2
NMSTR	14	192	0
NMSCR	14	192	0	96	48	3
NMTAP	14	192	5
NMTAP	15	0	4
NMTAP	15	0	5
NMTAP	15	48	4
NMTAP	15	48	5
NMHLD	15	96	6	72
NMHLD	15	168	5	72
NMTAP	15	240	4
NMTAP	15	288	4
NMTAP	15	336	3
NMTAP	16	0	4
NMTAP	16	48	5
NMTAP	16	96	2
NMTAP	16	144	1
NMTAP	16	192	6
NMTAP	16	240	7
NMTAP	16	288	0
NMTAP	16	336	1
EXHLD	17	0	2	96
NMTAP	17	96	3
NMTAP	17	144	1
NMTAP	17	168	0
EXHLD	17	192	1	96
NMTAP	17	288	3
NMTAP	17	336	0
NMTAP	17	360	7
EXSTR	18	0	0
NMSCR	18	0	0	96	48	3
NMTAP	18	96	4
NMTAP	18	192	4
NMTAP	18	192	6
NMTAP	18	240	4
NMTAP	18	240	6
NMSTR	18	288	5
NMSV_	18	288	5	96	48	2
NMTAP	19	96	1
NMTAP	19	144	2
NMTAP	19	192	4
NMTAP	19	240	3
NMTAP	19	288	0
NMTAP	19	336	1
NMTAP	20	0	5
NMTAP	20	48	4
NMTTP	20	96	1	D	0	M1
NMTTP	20	120	2	D	0	M1
NMTTP	20	144	3	D	0	M1
NMTTP	20	168	4	D	0	M1
EXHLD	20	192	5	96
NMTAP	20	288	4
NMTAP	20	336	6
NMTAP	20	360	7
EXHLD	21	0	6	96
NMTAP	21	96	4
NMTAP	21	144	7
NMTAP	21	168	0
EXSTR	21	192	7
NMSCL	21	192	7	96	48	4
NMTAP	21	288	3
NMTAP	22	0	1
NMTAP	22	0	3
NMTAP	22	48	1
NMTAP	22	48	3
NMSTR	22	96	2
NMSV_	22	96	2	96	48	5
NMTAP	22	288	6
NMTAP	22	336	5
NMTAP	23	0	3
NMTAP	23	48	4
NMTAP	23	96	7
NMTAP	23	144	6
NMTAP	23	192	2
NMTAP	23	240	3
NMTTP	23	288	7	A	0	M1
NMTTP	23	312	6	A	0	M1
NMTTP	23	336	5	A	0	M1
NMTTP	23	360	4	A	0	M1
NMTTP	24	0	3	A	0	M1
NMTTP	24	24	2	A	0	M1
NMTTP	24	48	1	A	0	M1
NMTTP	24	72	0	A	0	M1
EXSTR	24	96	7
NMSI_	24	96	7	96	384	3
NMTAP	25	288	1
NMTAP	25	320	3
NMTAP	25	352	2
NMTAP	26	0	6
NMTAP	26	32	4
NMTAP	26	64	5
NMSTR	26	96	3
BRSI_	26	96	3	96	48	7
NMTAP	26	288	6
NMTAP	27	0	4
NMTAP	27	0	6
NMTAP	27	96	5
NMTAP	27	192	4
NMTAP	27	192	5
NMSTR	27	288	6
NMSI_	27	288	6	96	32	4
NMTAP	28	0	3
NMTAP	28	96	1
NMTAP	28	192	1
NMTAP	28	192	3
NMTAP	28	288	2
NMTAP	29	0	2
NMTAP	29	0	3
NMTAP	29	96	5
NMTAP	29	192	4
NMTAP	29	192	5
NMTAP	29	288	6
NMTAP	30	0	6
NMTAP	30	24	7
NMTAP	30	48	6
NMHLD	30	96	5	72
NMHLD	30	168	4	72
NMTAP	30	240	3
NMHLD	30	288	6	72
NMHLD	30	360	5	72
NMTAP	31	48	4
NMHLD	31	96	2	72
NMHLD	31	168	3	72
NMTAP	31	240	4
NMHLD	31	288	1	72
NMHLD	31	360	2	72
NMTAP	32	48	3
NMHLD	32	96	4	72
NMHLD	32	96	5	72
NMHLD	32	192	2	72
NMHLD	32	192	3	72
NMHLD	32	288	4	72
NMHLD	32	288	6	72
NMHLD	33	0	1	72
NMHLD	33	0	3	72
EXSTR	33	96	0
NMSCL	33	96	0	96	48	5
EXSTR	33	96	7
NMSCR	33	96	7	96	48	2
EXTAP	33	128	0
EXTAP	33	128	7
NMTTP	33	288	0	C	1	M1
NMTTP	33	288	2	B	0	M1
NMTTP	33	288	3	B	0	M1
NMTTP	33	288	4	B	0	M1
NMTTP	33	288	5	B	0	M1
NMHLD	34	96	0	384
NMTAP	34	96	7
NMTAP	34	192	1
NMTAP	34	288	6
NMSTR	35	0	2
NMSI_	35	0	2	96	48	4
CNSI_	35	144	4	0	96	1
CNSI_	35	240	1	0	96	5
CNSI_	35	336	5	0	48	0
CNSI_	36	0	0	0	48	6
NMTAP	36	96	4
NMHLD	36	96	5	384
NMTAP	36	192	6
NMTAP	36	288	3
NMSTR	37	0	7
NMSI_	37	0	7	96	48	1
CNSI_	37	144	1	0	96	6
CNSI_	37	240	6	0	96	2
CNSI_	37	336	2	0	48	5
CNSI_	38	0	5	0	48	3
NMTAP	38	96	0
NMHLD	38	96	1	384
NMTAP	38	192	2
NMTAP	38	288	7
NMSTR	39	0	3
NMSI_	39	0	3	96	48	1
CNSI_	39	144	1	0	96	4
CNSI_	39	240	4	0	96	0
CNSI_	39	336	0	0	48	5
CNSI_	40	0	5	0	48	7
NMTAP	40	96	0
NMTAP	40	96	1
NMTAP	40	160	0
NMTAP	40	192	1
NMTAP	40	256	1
NMTAP	40	288	2
NMTAP	40	352	2
NMTAP	41	0	3
NMTAP	41	64	3
NMTAP	41	96	4
NMTAP	41	160	4
NMTAP	41	192	5
NMTAP	41	256	5
EXSTR	41	288	6
NMSI_	41	288	6	96	48	2
EXSTR	42	0	1
NMSCL	42	0	1	96	144	3
BRTAP	42	96	7
NMTAP	42	288	7
NMTAP	42	336	0
NMTAP	43	0	6
NMTAP	43	48	5
NMHLD	43	96	2	144
NMTAP	43	144	3
NMTAP	43	192	4
NMTAP	43	240	5
NMHLD	43	288	6	144
NMTAP	43	336	1
NMTAP	44	0	2
NMTAP	44	48	3
NMHLD	44	96	4	144
NMTAP	44	144	5
NMTAP	44	192	6
NMTAP	44	240	7
NMTAP	44	288	0
NMTAP	44	288	3
NMTAP	44	336	2
NMTAP	45	0	1
NMTAP	45	0	4
NMTAP	45	48	5
NMSTR	45	96	6
NMSCL	45	96	6	96	48	3
NMTAP	45	96	7
EXTAP	45	240	0
EXTAP	45	264	1
EXSTR	45	288	2
NMSI_	45	288	2	96	48	5
NMSI_	45	288	2	96	48	7
NMHLD	46	96	6	144
NMTAP	46	144	5
NMTAP	46	192	4
NMTAP	46	240	3
NMTAP	46	288	2
NMTAP	46	336	4
NMTAP	47	0	1
NMTAP	47	48	0
NMHLD	47	96	5	144
NMTAP	47	144	4
NMTAP	47	192	3
NMTAP	47	240	2
NMHLD	47	288	1	144
NMTAP	47	336	6
NMTAP	48	0	5
NMTAP	48	48	4
NMHLD	48	96	3	144
NMTAP	48	144	2
NMTAP	48	192	1
NMTAP	48	240	0
EXTAP	48	288	4
EXTAP	48	288	7
EXTAP	48	336	0
EXTAP	48	336	5
EXTAP	49	0	1
EXTAP	49	0	6
EXTAP	49	48	2
EXTAP	49	48	7
EXSTR	49	96	0
NMSI_	49	96	0	96	48	4
EXTAP	49	96	3
NMTAP	49	288	1
NMTAP	49	312	2
NMTAP	49	336	3
NMTAP	50	0	6
NMTAP	50	24	5
NMTAP	50	48	4
BRTAP	50	96	0
NMTAP	50	192	0
NMTAP	52	96	6
NMTAP	52	192	6
BRTAP	54	96	2
NMTAP	54	192	2
NMTAP	56	96	4
NMTAP	56	192	4
BRTAP	58	96	3
NMTAP	58	144	3
NMTAP	58	192	4
NMTAP	58	240	4
EXTAP	58	288	2
NMTAP	58	336	2
NMTAP	59	0	3
NMTAP	59	48	3
EXTAP	59	96	1
NMTAP	59	144	1
NMTAP	59	192	7
NMTAP	59	240	7
EXSTR	59	288	0
NMSI_	59	288	0	96	48	3
NMSI_	59	288	0	96	48	5
EXTAP	60	96	4
NMTAP	60	144	4
NMTAP	60	192	3
NMTAP	60	240	3
EXTAP	60	288	5
NMTAP	60	336	5
NMTAP	61	0	4
NMTAP	61	48	4
EXTAP	61	96	6
NMTAP	61	144	6
NMTAP	61	192	0
NMTAP	61	240	0
EXTAP	61	288	6
EXTAP	61	288	7
EXTAP	61	352	3
EXTAP	61	352	4
EXTAP	62	32	0
EXTAP	62	32	1
NMTAP	62	96	2
NMTAP	62	120	3
NMTAP	62	144	2
NMTAP	62	168	3
NMTAP	62	192	2
NMTAP	62	216	3
NMTAP	62	240	2
NMTAP	62	264	3
NMTAP	62	288	2
NMTAP	62	312	3
NMTAP	62	336	2
NMTAP	62	360	3
EXTAP	63	0	1
NMTAP	63	96	5
NMTAP	63	120	4
NMTAP	63	144	5
NMTAP	63	168	4
NMTAP	63	192	5
NMTAP	63	216	4
NMTAP	63	240	5
NMTAP	63	264	4
NMTAP	63	288	5
NMTAP	63	312	4
NMTAP	63	336	5
NMTAP	63	360	4
EXTAP	64	0	6
NMTTP	64	96	1	E	0	M1
NMTTP	64	108	2	E	0	M1
NMTTP	64	120	3	E	0	M1
NMTTP	64	192	7	E	0	M1
NMTTP	64	204	6	E	0	M1
NMTTP	64	216	5	E	0	M1
NMTTP	64	288	0	A	0	M1
NMTTP	64	300	1	D	0	M1
NMTTP	64	312	1	A	0	M1
NMTTP	64	324	2	D	0	M1
NMTTP	64	336	2	A	0	M1
NMTTP	64	348	3	D	0	M1
NMTTP	64	360	3	A	0	M1
NMTTP	64	372	4	D	0	M1
NMTTP	65	0	4	A	0	M1
NMTTP	65	12	5	D	0	M1
NMTTP	65	24	5	A	0	M1
NMTTP	65	36	6	D	0	M1
NMTTP	65	48	6	A	0	M1
NMTTP	65	60	7	D	0	M1
NMTTP	65	72	7	A	0	M1
NMTTP	65	84	0	D	0	M1
NMTHO	65	96	0	384	C	1	M1
EXTAP	67	96	0
EXTAP	67	96	1
EXTAP	67	144	2
EXTAP	67	144	3
EXTAP	67	192	4
EXTAP	67	192	5
EXSTR	67	240	6
NMSI_	67	240	6	96	48	2
EXTAP	67	240	7
NMSTR	67	336	1
NMSI_	67	336	1	96	32	7
NMSTR	68	48	5
NMSI_	68	48	5	96	32	3
NMSTR	68	144	1
NMSI_	68	144	1	96	48	5
NMSTR	68	240	6
NMSI_	68	240	6	96	32	0
NMSTR	68	336	2
NMSI_	68	336	2	96	32	4
NMTAP	69	48	5
NMTAP	69	96	5
NMTAP	69	144	6
NMTAP	69	192	4
NMTAP	69	240	3
NMTAP	69	240	5
NMTAP	69	336	0
NMTAP	69	336	1
NMTAP	70	0	0
NMTAP	70	0	7
NMSTR	70	48	6
NMSI_	70	48	6	96	48	3
NMTAP	70	48	7
NMSTR	70	144	1
NMSI_	70	144	1	96	48	4
NMTAP	70	240	5
NMTAP	70	288	5
NMTAP	70	336	6
NMTAP	71	0	0
NMTAP	71	48	2
NMTAP	71	96	1
NMTAP	71	96	3
NMTAP	71	144	2
NMTAP	71	144	4
NMTAP	71	192	3
NMTAP	71	192	5
NMSTR	71	240	4
NMSI_	71	240	4	96	48	0
NMSTR	71	240	6
NMSI_	71	240	6	96	48	4
NMSTR	72	48	1
NMSI_	72	48	1	96	48	3
NMSTR	72	48	3
NMSI_	72	48	3	96	48	7
NMTAP	72	240	4
NMTAP	72	240	6
NMTAP	72	288	5
NMTAP	72	336	4
NMTAP	73	0	1
NMTAP	73	0	3
NMTAP	73	48	2
BRTAP	73	96	3
BRTAP	73	96	4
NMTAP	73	192	0
NMTAP	73	192	7
NMTAP	73	240	1
NMTAP	73	288	2
NMTAP	73	288	3
NMTAP	73	336	4
NMTAP	74	0	3
NMTAP	74	0	5
NMTAP	74	48	2
NMTAP	74	96	1
NMTAP	74	96	4
NMTAP	74	144	5
NMTAP	74	192	2
NMTAP	74	192	6
NMTAP	74	240	1
NMSTR	74	288	0
BRSCR	74	288	0	96	48	3
NMSTR	74	288	4
BRSCR	74	288	4	96	48	7
NMTAP	74	336	0
NMTAP	74	336	4
EXTAP	75	96	6
EXTAP	75	96	7
EXTAP	75	144	4
EXTAP	75	144	5
EXTAP	75	192	2
EXTAP	75	192	3
EXTAP	75	240	0
EXSTR	75	240	1
NMSI_	75	240	1	96	48	5
NMSTR	75	336	6
NMSI_	75	336	6	96	32	0
NMSTR	76	48	2
NMSI_	76	48	2	96	32	4
NMSTR	76	144	6
NMSI_	76	144	6	96	48	2
NMSTR	76	240	1
NMSI_	76	240	1	96	32	7
NMSTR	76	336	5
NMSI_	76	336	5	96	32	3
NMTAP	77	48	2
NMTAP	77	96	2
NMTAP	77	144	1
NMTAP	77	192	3
NMTAP	77	240	2
NMTAP	77	288	5
NMTAP	77	336	4
NMTAP	78	0	6
BXTAP	78	96	0
BXTAP	78	96	7
BRTAP	78	128	0
BRTAP	78	128	7
BRTAP	78	192	2
BRTAP	78	192	3
BRTAP	78	256	4
BRTAP	78	256	5
BRTAP	78	320	1
BRTAP	78	320	3
BRTAP	79	0	4
BRTAP	79	0	6
BRTAP	79	64	0
BRTAP	79	64	7
BXTAP	79	96	0
BXTAP	79	96	7
NMTAP	79	288	3
NMTAP	79	288	4
NMHLD	80	96	1	72
NMHLD	80	168	2	72
NMTAP	80	240	3
NMTAP	80	288	3
NMTAP	81	0	3
NMTAP	81	0	4
NMHLD	81	96	6	72
NMHLD	81	168	5	72
NMTAP	81	240	4
NMSTR	81	288	4
NMSI_	81	288	4	96	48	7
NMTAP	82	0	3
NMTAP	82	96	0
NMTAP	82	128	0
NMTAP	82	160	0
NMTAP	82	192	7
NMTAP	82	224	7
NMTAP	82	256	7
NMTTP	82	288	1	D	0	M1
NMTTP	82	320	2	D	0	M1
NMTTP	82	352	3	D	0	M1
NMTTP	83	0	7	D	0	M1
NMTTP	83	32	6	D	0	M1
NMTTP	83	64	5	D	0	M1
NMTHO	83	96	0	64	C	0	M1
NMTTP	83	96	3	B	0	M1
NMTTP	83	96	4	B	0	M1
NMHLD	83	192	7	72
NMHLD	83	264	6	72
NMTAP	83	336	5
NMTAP	84	0	5
NMTAP	84	48	4
NMTAP	84	96	6
NMTAP	84	144	6
NMTAP	84	192	1
NMTAP	84	240	1
NMTAP	84	288	3
NMTAP	84	336	2
NMTAP	85	0	1
NMTAP	85	0	3
NMTAP	85	48	1
NMTAP	85	48	3
NMHLD	85	96	0	72
NMHLD	85	168	1	72
NMTAP	85	240	2
NMTAP	85	288	2
NMTAP	85	336	3
NMTAP	86	0	1
NMTAP	86	48	1
NMTAP	86	96	6
NMTAP	86	144	6
NMSTR	86	192	4
NMSI_	86	192	4	96	48	0
NMTAP	86	240	5
NMTAP	87	0	1
NMTAP	87	0	7
NMTAP	87	48	1
NMTAP	87	48	7
NMTAP	87	96	2
NMTAP	87	144	3
NMTAP	87	192	4
NMTAP	87	192	5
NMTAP	87	240	4
NMTAP	87	240	5
NMTAP	87	288	6
NMTAP	87	336	7
NMTAP	88	0	0
NMTAP	88	0	6
NMTAP	88	48	0
NMTAP	88	48	6
NMTAP	88	96	5
NMTAP	88	144	4
NMTAP	88	192	2
NMTAP	88	192	3
NMTAP	88	240	2
NMTAP	88	240	3
NMTAP	88	288	0
NMTAP	88	288	1
NMTAP	88	336	2
NMTAP	89	0	6
NMTAP	89	0	7
NMTAP	89	48	5
NMTAP	89	96	1
NMTAP	89	96	3
NMTAP	89	144	2
NMTAP	89	192	4
NMTAP	89	192	6
NMTAP	89	240	5
NMTAP	89	288	2
NMTAP	89	312	3
NMTAP	89	336	2
NMTAP	89	360	3
NMTAP	90	0	0
NMTAP	90	24	7
NMTAP	90	48	0
NMTAP	90	72	7
NMTAP	90	96	4
NMTAP	90	120	5
NMTAP	90	144	4
NMTAP	90	168	5
NMTAP	90	192	3
BRTAP	90	288	0
BRTAP	90	288	7
BRTAP	90	320	0
BRTAP	90	320	7
BRTAP	91	0	3
BRTAP	91	0	4
BRTAP	91	64	1
BRTAP	91	64	6
BRTAP	91	96	1
BRTAP	91	96	6

T_REC_TAP	353
T_REC_BRK	28
T_REC_XTP	40
T_REC_BXX	5
T_REC_HLD	46
T_REC_XHO	4
T_REC_BHO	1
T_REC_BXH	0
T_REC_STR	31
T_REC_BST	0
T_REC_XST	12
T_REC_XBS	0
T_REC_TTP	47
T_REC_THO	6
T_REC_SLD	42
T_REC_BSL	3
T_REC_ALL	618
T_NUM_TAP	483
T_NUM_BRK	37
T_NUM_HLD	56
T_NUM_SLD	42
T_NUM_ALL	618
T_JUDGE_TAP	516
T_JUDGE_HLD	151
T_JUDGE_SLD	45
T_JUDGE_ALL	712
TTM_EACHPAIRS	92
TTM_SCR_TAP	241500
TTM_SCR_BRK	96200
TTM_SCR_HLD	56000
TTM_SCR_SLD	63000
TTM_SCR_ALL	456700
TTM_SCR_S	439450
TTM_SCR_SS	453000
TTM_RAT_ACV	10081

