VERSION	0.00.00	1.04.00
FES_MODE	0
BPM_DEF	158.000	158.000	158.000	158.000
MET_DEF	4	4
RESOLUTION	384
CLK_DEF	384
COMPATIBLE_CODE	MA2

BPM	0	0	158.000
MET	0	0	4	4
MET	10	0	4	7
MET	24	0	4	1
MET	24	96	4	4
MET	83	96	4	1
MET	83	192	4	7
MET	90	192	4	1
MET	90	288	4	4

NMHLD	2	0	2	192
NMHLD	2	192	3	192
NMHLD	3	0	4	192
NMTAP	3	192	5
NMHLD	4	0	5	192
NMHLD	4	192	4	192
NMHLD	5	0	3	192
NMTAP	5	192	2
NMHLD	6	0	1	192
NMHLD	6	192	2	192
NMHLD	7	0	3	192
NMTAP	7	192	4
NMHLD	8	0	6	192
NMHLD	8	192	5	192
NMHLD	9	0	4	192
NMTAP	9	192	3
NMTAP	10	0	1
NMTAP	10	96	1
NMTAP	10	192	1
NMTAP	10	288	1
NMHLD	11	0	2	96
NMHLD	11	0	3	96
NMTAP	11	288	3
NMTAP	12	0	3
NMTAP	12	96	4
NMTAP	12	192	4
NMHLD	12	288	4	96
NMHLD	12	288	5	96
NMTAP	13	192	6
NMTAP	13	288	6
NMTAP	14	0	6
NMTAP	14	96	6
NMHLD	14	192	4	96
NMHLD	14	192	5	96
NMTAP	15	96	4
NMTAP	15	192	4
NMTAP	15	288	3
NMTAP	16	0	3
NMHLD	16	96	2	96
NMHLD	16	96	3	96
NMTAP	17	0	2
NMTAP	17	96	2
NMTAP	17	192	2
NMTAP	17	288	2
NMTAP	18	0	0
NMTAP	18	0	1
NMTAP	18	96	0
NMTAP	18	96	1
NMTAP	18	192	0
NMTAP	18	192	1
NMTAP	18	288	7
NMTAP	19	0	7
NMTAP	19	96	6
NMTAP	19	192	6
NMHLD	19	288	4	96
NMHLD	19	288	5	96
NMTAP	20	192	5
NMTAP	20	288	5
NMTAP	21	0	5
NMTAP	21	96	5
NMTAP	21	192	6
NMTAP	21	192	7
NMTAP	21	288	6
NMTAP	21	288	7
NMTAP	22	0	6
NMTAP	22	0	7
NMTAP	22	96	0
NMTAP	22	192	0
NMTAP	22	288	1
NMTAP	23	0	1
NMHLD	23	96	2	96
NMHLD	23	96	3	96
NMTAP	24	0	3
NMTAP	24	0	4
NMTAP	24	96	2
NMTAP	24	192	1
NMTAP	24	288	0
NMTAP	25	0	7
NMTAP	25	96	6
NMTAP	25	192	5
BRTAP	25	288	3
BRTAP	25	288	4
NMTTP	26	96	1	B	0	L1
NMTTP	26	192	2	B	0	L1
NMTTP	26	288	3	B	0	L1
NMTTP	27	96	6	B	0	L1
NMTTP	27	192	5	B	0	L1
NMTTP	27	288	4	B	0	L1
NMTTP	28	96	0	B	0	L1
NMTTP	28	192	1	B	0	L1
NMTTP	28	288	2	B	0	L1
NMTTP	28	288	3	B	0	L1
NMTTP	29	96	7	B	0	L1
NMTTP	29	192	6	B	0	L1
NMTTP	29	288	4	B	0	L1
NMTTP	29	288	5	B	0	L1
NMTTP	30	96	1	B	0	L1
NMTTP	30	192	2	B	0	L1
NMTTP	30	288	3	B	0	L1
NMTTP	31	0	4	B	0	L1
NMTTP	31	96	5	B	0	L1
NMTTP	31	192	6	B	0	L1
NMTTP	31	288	0	B	0	L1
NMTTP	31	288	7	B	0	L1
NMTTP	32	96	5	B	0	L1
NMTTP	32	192	4	B	0	L1
NMTTP	32	288	3	B	0	L1
NMTTP	33	0	2	B	0	L1
NMTTP	33	96	0	C	1	L1
NMTAP	34	96	1
NMTAP	34	192	0
NMTAP	34	288	7
NMTAP	35	0	6
NMHLD	35	96	4	192
NMHLD	35	96	5	192
NMTAP	36	96	6
NMTAP	36	192	7
NMTAP	36	288	0
NMTAP	37	0	1
NMHLD	37	96	2	192
NMHLD	37	96	3	192
NMTAP	38	96	2
NMTAP	38	192	3
NMTAP	38	288	4
NMTAP	39	0	5
NMHLD	39	96	6	192
NMHLD	39	96	7	192
NMTAP	40	96	5
NMTAP	40	192	4
NMTAP	40	288	3
NMTAP	41	0	2
NMHLD	41	96	0	192
NMHLD	41	96	1	192
NMTAP	42	96	2
NMTAP	42	192	2
NMTAP	42	288	0
NMTAP	42	288	1
NMTAP	43	0	0
NMTAP	43	0	1
NMTAP	43	96	7
NMTAP	43	192	7
NMTAP	43	288	6
NMTAP	43	288	7
NMTAP	44	96	5
NMTAP	44	192	5
NMTAP	44	288	6
NMTAP	44	288	7
NMTAP	45	0	6
NMTAP	45	0	7
NMTAP	45	96	0
NMTAP	45	192	0
NMTAP	45	288	0
NMTAP	45	288	1
NMTAP	46	96	1
NMTAP	46	192	1
NMTAP	46	288	2
NMTAP	46	288	3
NMTAP	47	0	2
NMTAP	47	0	3
NMTAP	47	96	4
NMTAP	47	192	4
NMTAP	47	288	4
NMTAP	47	288	5
NMTAP	48	96	6
NMTAP	48	192	6
NMTAP	48	288	4
NMTAP	48	288	5
NMTAP	49	0	4
NMTAP	49	0	5
NMTAP	49	96	3
NMTAP	49	192	3
NMTAP	49	288	2
NMTAP	49	288	3
NMSTR	50	96	1
NMSCR	50	96	1	96	192	4
NMSTR	51	96	5
NMSCR	51	96	5	96	192	0
NMSTR	52	96	1
NMSUR	52	96	1	96	384	4
NMSTR	54	96	6
NMSCL	54	96	6	96	192	3
NMSTR	55	96	2
NMSCL	55	96	2	96	192	7
NMSTR	56	96	6
NMSUL	56	96	6	96	384	3
NMTAP	58	96	0
NMTAP	58	96	1
NMTAP	58	288	2
NMTAP	58	288	3
NMTAP	59	96	4
NMTAP	59	144	4
NMTAP	59	192	4
NMTAP	59	288	3
NMTAP	59	288	5
NMTAP	60	96	6
NMTAP	60	96	7
NMTAP	60	288	4
NMTAP	60	288	5
NMTAP	61	96	3
NMTAP	61	144	3
NMTAP	61	192	3
NMTAP	61	288	2
NMTAP	61	288	4
NMTAP	62	96	0
NMTAP	62	96	1
NMTAP	62	288	2
NMTAP	62	288	3
NMTAP	63	96	4
NMTAP	63	144	4
NMTAP	63	192	4
NMTAP	63	288	3
NMTAP	63	288	5
NMTAP	64	96	6
NMTAP	64	96	7
NMTAP	64	288	4
NMTAP	64	288	5
NMHLD	65	96	3	384
NMHLD	65	96	4	384
NMTAP	67	96	3
NMTAP	67	192	2
NMTAP	67	288	1
NMTAP	68	0	0
NMTAP	68	96	7
NMTAP	68	192	6
NMTAP	68	288	4
NMTAP	68	288	5
NMTAP	69	96	4
NMTAP	69	192	5
NMTAP	69	288	6
NMTAP	70	0	7
NMTAP	70	96	0
NMTAP	70	192	1
NMTAP	70	288	2
NMTAP	70	288	3
NMTAP	71	96	1
NMTAP	71	192	2
NMTAP	71	288	3
NMTAP	72	0	4
NMTAP	72	96	5
NMTAP	72	192	6
NMTAP	72	288	0
NMTAP	72	288	7
NMTAP	73	96	6
NMTAP	73	96	7
NMTAP	73	192	6
NMTAP	73	192	7
NMTAP	73	288	4
NMTAP	73	288	5
NMTAP	74	0	4
NMTAP	74	0	5
NMTAP	74	96	2
NMTAP	74	96	3
NMTAP	74	192	2
NMTAP	74	192	3
NMTAP	74	288	0
NMTAP	74	288	1
NMTAP	75	96	2
NMTAP	75	144	2
NMTAP	75	192	2
NMTAP	75	288	1
NMTAP	75	336	1
NMTAP	76	0	1
NMTAP	76	96	0
NMTAP	76	144	0
NMTAP	76	192	0
NMTAP	76	288	7
NMTAP	76	336	7
NMTAP	77	0	7
NMTAP	77	96	6
NMTAP	77	144	6
NMTAP	77	192	6
NMTAP	77	288	5
NMTAP	77	336	5
NMTAP	78	0	5
EXTAP	78	96	3
EXTAP	78	96	4
EXTAP	78	192	2
EXTAP	78	192	4
EXTAP	78	256	2
EXTAP	78	256	4
EXTAP	78	320	3
EXTAP	78	320	5
EXTAP	79	0	3
EXTAP	79	0	5
EXHLD	79	64	2	224
EXHLD	79	64	4	224
NMHLD	80	96	5	192
NMTAP	80	288	4
NMHLD	81	96	2	192
NMTAP	81	288	3
NMTAP	82	96	3
NMTAP	82	96	4
NMTAP	82	192	3
NMTAP	82	192	4
NMHLD	82	288	3	96
NMHLD	82	288	4	96
NMTAP	83	192	2
NMTAP	83	288	1
NMTAP	84	0	0
NMTAP	84	96	7
NMTAP	84	192	6
NMTAP	84	288	4
NMTAP	84	288	5
NMTAP	85	0	4
NMTAP	85	0	5
NMTAP	85	96	6
NMTAP	85	192	7
NMTAP	85	288	0
NMTAP	86	0	1
NMTAP	86	96	2
NMTAP	86	192	3
NMTAP	86	192	4
NMTAP	87	0	5
NMTAP	87	96	6
NMTAP	87	192	7
NMTAP	87	288	0
NMTAP	88	0	1
NMTAP	88	96	2
NMTAP	88	96	3
NMTAP	88	192	2
NMTAP	88	192	3
NMTAP	88	288	1
NMTAP	89	0	0
NMTAP	89	96	7
NMTAP	89	192	6
NMTAP	89	288	5
NMTAP	90	0	3
NMTAP	90	0	4
NMTAP	90	96	3
NMTAP	90	96	4
BRTAP	90	192	3
BRTAP	90	192	4
NMHLD	90	288	2	192
NMHLD	90	288	5	192

T_REC_TAP	239
T_REC_BRK	4
T_REC_XTP	10
T_REC_BXX	0
T_REC_HLD	40
T_REC_XHO	2
T_REC_BHO	0
T_REC_BXH	0
T_REC_STR	6
T_REC_BST	0
T_REC_XST	0
T_REC_XBS	0
T_REC_TTP	27
T_REC_THO	0
T_REC_SLD	6
T_REC_BSL	0
T_REC_ALL	334
T_NUM_TAP	282
T_NUM_BRK	4
T_NUM_HLD	42
T_NUM_SLD	6
T_NUM_ALL	334
T_JUDGE_TAP	286
T_JUDGE_HLD	150
T_JUDGE_SLD	6
T_JUDGE_ALL	442
TTM_EACHPAIRS	70
TTM_SCR_TAP	141000
TTM_SCR_BRK	10400
TTM_SCR_HLD	42000
TTM_SCR_SLD	9000
TTM_SCR_ALL	202400
TTM_SCR_S	195950
TTM_SCR_SS	202000
TTM_RAT_ACV	10019

