VERSION	0.00.00	1.04.00
FES_MODE	0
BPM_DEF	136.000	136.000	136.000	136.000
MET_DEF	4	4
RESOLUTION	384
CLK_DEF	384
COMPATIBLE_CODE	MA2

BPM	0	0	136.000
MET	0	0	4	4

NMSTR	1	0	3
NMSSR	1	0	3	96	192	7
NMSLR	1	0	3	96	144	1
EXHLD	2	0	0	96
NMTTP	2	96	4	D	0	M1
NMHLD	2	192	1	96
NMTTP	2	288	6	D	0	M1
NMHLD	3	0	2	96
NMTTP	3	96	0	D	0	M1
NMHLD	3	192	3	96
NMTAP	3	240	0
NMTAP	3	288	0
NMHLD	4	0	2	96
NMTTP	4	96	0	D	0	M1
NMHLD	4	192	1	96
NMTTP	4	288	6	D	0	M1
NMHLD	5	0	0	288
NMSTR	5	96	3
NMSI_	5	96	3	96	48	5
NMTAP	5	144	3
NMHLD	6	0	1	288
NMTAP	6	96	4
NMTAP	6	192	3
NMTAP	6	240	3
NMTAP	6	288	4
NMTAP	7	0	2
NMHLD	7	0	6	288
NMTAP	7	96	3
NMTAP	7	192	4
NMTAP	7	240	4
NMTAP	7	288	3
NMHLD	8	0	2	288
NMTAP	8	0	6
NMTAP	8	96	7
NMTAP	8	192	0
NMTAP	8	240	0
NMTAP	8	288	7
NMTAP	9	0	1
NMHLD	9	0	5	96
NMSTR	9	96	7
NMSI_	9	96	7	96	48	4
NMTAP	9	144	0
NMTAP	9	192	1
BRTAP	9	288	3
NMHLD	10	0	5	48
EXTAP	10	80	5
NMTAP	10	128	4
NMTAP	10	176	3
NMTAP	10	224	2
NMTAP	10	272	1
NMTAP	10	272	3
NMTAP	10	320	2
NMTAP	10	336	3
NMHLD	11	0	2	48
EXTAP	11	80	2
NMTAP	11	128	3
NMTAP	11	176	4
NMTAP	11	224	5
NMTAP	11	272	4
NMTAP	11	272	6
NMTAP	11	320	5
NMTAP	11	336	4
NMHLD	12	0	5	48
EXTAP	12	80	5
NMTAP	12	128	4
NMTAP	12	176	3
NMTAP	12	224	2
NMTAP	12	272	1
NMTAP	12	272	3
NMTAP	12	320	2
NMTAP	12	336	3
NMTAP	13	0	1
NMTAP	13	32	1
NMTAP	13	48	3
NMTAP	13	96	5
NMTAP	13	128	5
NMTAP	13	144	3
NMHLD	13	192	2	96
NMSTR	13	192	4
NMSI_	13	192	4	96	32	6
BRHLD	14	0	1	48
EXTAP	14	80	1
NMTAP	14	128	0
NMTAP	14	176	7
NMTAP	14	224	6
NMTAP	14	272	5
NMTAP	14	272	7
NMTAP	14	320	6
NMTAP	14	336	7
BRHLD	15	0	6	48
EXTAP	15	80	6
NMTAP	15	128	7
NMTAP	15	176	0
NMTAP	15	224	1
NMTAP	15	272	0
NMTAP	15	272	2
NMTAP	15	320	1
NMTAP	15	336	0
BRHLD	16	0	1	48
EXTAP	16	80	1
NMTAP	16	128	0
NMTAP	16	176	7
NMTAP	16	224	6
NMSTR	16	272	5
NMSI_	16	272	5	96	80	2
NMTAP	16	320	5
NMTAP	16	336	3
EXSTR	17	0	1
NMSLR	17	0	1	96	96	6
CNSCL	17	64	2	0	32	1
EXSTR	17	96	6
NMSLL	17	96	6	96	96	1
EXSTR	17	192	1
NMSCR	17	192	1	96	96	7
EXTAP	17	288	7
NMTHO	18	0	0	192	C	0	M1
NMTTP	18	192	0	E	0	M1
NMTTP	18	264	1	E	0	M1
NMTTP	18	264	7	E	0	M1
NMTTP	18	336	2	E	0	M1
NMTTP	18	336	6	E	0	M1
EXTAP	19	24	3
EXTAP	19	48	3
EXTAP	19	72	3
EXTAP	19	96	3
EXTAP	19	120	3
EXTAP	19	144	3
EXTAP	19	168	3
EXTAP	19	192	3
EXTAP	19	216	3
EXTAP	19	240	3
EXTAP	19	264	3
EXHLD	19	288	3	48
EXTAP	20	0	3
EXTAP	20	0	4
NMTAP	20	48	4
NMTAP	20	96	2
NMTAP	20	96	4
NMTAP	20	144	4
NMTAP	20	192	1
NMTAP	20	192	3
NMTAP	20	240	3
NMTAP	20	288	0
NMTAP	20	288	3
NMTAP	20	336	3
NMTAP	21	0	4
NMTAP	21	0	7
NMTAP	21	48	4
NMTAP	21	96	4
NMTAP	21	96	6
NMTAP	21	144	4
NMTAP	21	192	5
NMSTR	21	192	7
NMSI_	21	192	7	96	48	3
NMTAP	21	240	5
NMTAP	21	288	5
NMTAP	21	336	5
EXTAP	22	0	3
EXTAP	22	0	4
NMTAP	22	48	3
NMTAP	22	96	3
NMTAP	22	96	5
NMTAP	22	144	3
NMTAP	22	192	4
NMTAP	22	192	6
NMTAP	22	240	4
NMTAP	22	288	4
NMTAP	22	288	7
NMTAP	22	336	4
NMTAP	23	0	0
NMTAP	23	0	3
NMTAP	23	48	3
NMTAP	23	96	1
NMTAP	23	96	3
NMTAP	23	144	3
NMSTR	23	192	0
NMSI_	23	192	0	96	48	4
NMTAP	23	192	2
NMTAP	23	240	2
NMTAP	23	288	2
NMTAP	23	336	2
NMTAP	24	0	1
NMTAP	24	0	4
NMTAP	24	48	4
NMTAP	24	96	1
NMTAP	24	96	3
NMTAP	24	144	3
NMTAP	24	192	0
NMTAP	24	192	4
NMTAP	24	240	4
NMTAP	24	288	3
NMTAP	24	288	7
NMTAP	24	336	3
NMTAP	25	0	4
NMTAP	25	0	6
NMTAP	25	48	4
NMTAP	25	96	3
NMSTR	25	96	7
NMSXR	25	96	7	96	144	4
NMTAP	25	144	3
NMTAP	25	192	4
NMTAP	25	288	2
NMTAP	26	0	0
NMTAP	26	32	0
NMTAP	26	64	0
BRTAP	26	96	1
BRTAP	26	96	7
NMTAP	26	192	3
NMHLD	26	192	5	48
NMTAP	26	240	3
NMTAP	26	288	3
NMHLD	26	288	6	48
NMTAP	26	336	3
NMTAP	27	0	4
NMHLD	27	0	7	48
NMTAP	27	48	4
NMHLD	27	96	0	48
NMTAP	27	96	4
NMTAP	27	144	4
NMSTR	27	192	0
NMSI_	27	192	0	96	48	4
NMSTR	27	192	4
NMSCL	27	192	4	96	48	1
EXTAP	28	0	1
EXTAP	28	0	4
NMTAP	28	96	5
NMTAP	28	144	4
NMTAP	28	144	6
NMTAP	28	176	4
NMTAP	28	176	6
NMTAP	28	224	3
NMTAP	28	224	5
NMTAP	28	272	2
NMTAP	28	272	4
NMTAP	28	320	1
NMTAP	28	320	3
NMTAP	28	368	1
NMTAP	29	0	3
NMTAP	29	32	3
NMTAP	29	48	2
NMTAP	29	80	2
NMTAP	29	96	5
NMTAP	29	128	5
NMTAP	29	144	3
NMTAP	29	176	2
NMSTR	29	176	4
NMSCR	29	176	4	96	32	6
NMSTR	29	224	1
NMSCR	29	224	1	96	32	3
EXTAP	30	0	7
NMTAP	30	32	7
EXTAP	30	48	1
NMTAP	30	80	1
NMTAP	30	96	5
NMTAP	30	128	5
NMTAP	30	144	3
NMTAP	30	176	3
NMTAP	30	224	2
NMTAP	30	224	4
NMTAP	30	272	2
NMTAP	30	272	4
NMTAP	30	320	5
NMTAP	30	336	4
NMSTR	31	0	6
NMSCR	31	0	6	96	48	1
NMTAP	31	48	7
NMSTR	31	96	2
NMSCR	31	96	2	96	48	5
NMTAP	31	144	3
NMSTR	31	192	0
NMSF_	31	192	0	96	48	4
NMTAP	31	240	0
NMTTP	32	0	6	A	0	M1
NMTTP	32	0	7	E	0	M1
NMTTP	32	0	7	A	0	M1
NMTTP	32	0	7	D	0	M1
NMTTP	32	176	4	A	0	M1
NMTTP	32	176	5	E	0	M1
NMTTP	32	176	5	A	0	M1
NMTTP	32	176	5	D	0	M1
NMTTP	32	272	0	C	0	M1
NMTTP	32	272	3	E	0	M1
NMTTP	32	272	7	E	0	M1
NMTTP	32	320	0	A	0	M1
NMTTP	32	320	1	E	0	M1
NMTTP	32	320	1	A	0	M1
NMTTP	32	320	1	D	0	M1
NMTTP	33	0	2	A	0	M1
NMTTP	33	0	3	E	0	M1
NMTTP	33	0	3	A	0	M1
NMTTP	33	0	3	D	0	M1
NMTTP	33	176	2	A	0	M1
NMTTP	33	176	3	E	0	M1
NMTTP	33	176	3	A	0	M1
NMTTP	33	176	3	D	0	M1
NMTTP	33	272	4	A	0	M1
NMTTP	33	272	5	E	0	M1
NMTTP	33	272	5	A	0	M1
NMTTP	33	272	5	D	0	M1
NMTTP	33	320	4	B	0	M1
NMTTP	33	320	4	E	0	M1
NMTTP	33	320	5	B	0	M1
NMTTP	33	320	6	E	0	M1
NMTAP	34	0	1
NMTAP	34	32	1
NMTAP	34	48	3
NMTAP	34	80	3
NMTAP	34	96	2
NMTAP	34	128	2
NMTAP	34	144	4
NMTAP	34	176	4
NMTAP	34	224	1
NMTAP	34	224	5
NMTAP	34	272	1
NMTAP	34	272	5
NMTAP	34	320	2
NMTAP	34	336	4
NMTAP	35	0	1
NMTAP	35	0	5
NMTAP	35	48	0
NMTAP	35	48	6
NMTAP	35	80	0
NMTAP	35	80	6
NMTAP	35	128	1
NMTAP	35	128	5
NMTAP	35	176	4
NMTAP	35	224	1
NMTAP	35	224	7
BXTAP	35	272	2
BXTAP	35	272	6
EXHLD	36	0	1	288
EXTAP	36	0	7
NMTAP	36	96	3
NMTAP	36	240	2
NMTAP	36	288	3
EXTAP	37	0	0
EXHLD	37	0	6	288
NMTAP	37	96	4
NMTAP	37	240	5
NMTAP	37	288	4
EXHLD	38	0	1	288
EXTAP	38	0	7
NMTAP	38	96	3
NMTAP	38	240	2
NMTAP	38	288	3
NMTAP	39	0	4
NMHLD	39	0	6	288
NMTAP	39	96	3
NMTTP	39	192	0	E	0	M1
NMTTP	39	240	0	C	0	M1
NMTTP	39	288	4	E	0	M1
NMTTP	40	0	5	A	1	M1
NMTTP	40	0	5	D	0	M1
NMTTP	40	0	6	D	0	M1
NMTAP	40	96	0
NMTAP	40	96	1
NMTTP	40	192	4	A	1	M1
NMTTP	40	192	4	D	0	M1
NMTTP	40	192	5	D	0	M1
NMTAP	40	288	0
NMTAP	40	288	7
NMTTP	41	0	3	A	1	M1
NMTTP	41	0	3	D	0	M1
NMTTP	41	0	4	D	0	M1
NMTAP	41	96	6
NMTAP	41	96	7
NMTTP	41	192	2	A	1	M1
NMTTP	41	192	2	D	0	M1
NMTTP	41	192	3	D	0	M1
NMTAP	41	288	5
NMTAP	41	288	6
NMTTP	42	0	1	A	1	M1
NMTTP	42	0	1	D	0	M1
NMTTP	42	0	2	D	0	M1
NMTAP	42	96	3
NMTAP	42	96	4
NMTTP	42	192	0	A	1	M1
NMTTP	42	192	0	D	0	M1
NMTTP	42	192	1	D	0	M1
NMTAP	42	288	2
NMSTR	42	288	3
NMSXR	42	288	3	96	144	7
EXSTR	43	288	2
NMSCL	43	288	2	96	96	5
EXSTR	44	0	5
NMSLR	44	0	5	96	64	1
EXSTR	44	96	2
NMSI_	44	96	2	96	48	7
CNSCR	44	160	1	0	32	2
EXSTR	44	192	5
NMSCR	44	192	5	96	32	6
CNSI_	44	240	7	0	48	5
EXTAP	44	288	3
CNSLR	44	320	6	0	64	2
BXHLD	45	0	0	576
NMTTP	46	0	5	E	0	M1
NMTTP	46	96	1	B	0	M1
NMSTR	46	192	7
NMSF_	46	192	7	96	48	3
BRTAP	46	288	7
NMTAP	47	0	1
NMTAP	47	32	1
NMTAP	47	48	3
NMTAP	47	80	3
NMTAP	47	96	4
NMTAP	47	144	2
NMTAP	47	144	6
NMSTR	47	192	5
NMSCR	47	192	5	96	48	0
NMTAP	47	240	4
NMTAP	47	272	4
NMTAP	47	288	5
NMTAP	47	336	2
NMTAP	47	368	2
NMTAP	48	0	0
NMTAP	48	48	5
NMTAP	48	80	5
NMTAP	48	96	7
NMTAP	48	144	4
NMTAP	48	176	4
NMTAP	48	192	1
NMSTR	48	224	1
NMSLR	48	224	1	96	64	5
NMTAP	48	272	0
NMTAP	48	320	7
NMTAP	49	48	6
NMTAP	49	96	7
NMTAP	49	144	0
NMTAP	49	144	1
NMTAP	49	192	2
NMTAP	49	192	3
NMTAP	49	224	2
NMTAP	49	224	3
NMTAP	49	272	4
NMTAP	49	272	5
NMTAP	49	320	7
NMTAP	49	336	0
NMSTR	50	0	2
NMSI_	50	0	2	96	48	0
NMTAP	50	0	3
NMTAP	50	48	2
NMSTR	50	48	3
NMSI_	50	48	3	96	48	5
BRSTR	50	192	2
BRSCL	50	192	2	96	48	5
BRTAP	50	272	5
NMTAP	51	0	6
NMTAP	51	32	6
NMTAP	51	48	4
NMTAP	51	80	4
NMTAP	51	96	3
NMTAP	51	144	1
NMTAP	51	144	5
NMSTR	51	192	2
NMSCL	51	192	2	96	48	7
NMTAP	51	240	3
NMTAP	51	272	3
NMTAP	51	288	2
NMTAP	51	336	5
NMTAP	51	368	5
NMTAP	52	0	7
NMTAP	52	48	2
NMTAP	52	80	2
NMTAP	52	96	0
NMTAP	52	144	3
NMTAP	52	176	3
NMTAP	52	192	5
NMSTR	52	224	5
NMSLR	52	224	5	96	48	1
NMTAP	52	272	4
NMTAP	52	320	3
NMTAP	53	48	2
NMTAP	53	96	3
NMTAP	53	144	4
NMTAP	53	192	1
NMTAP	53	192	5
NMTAP	53	224	1
NMTAP	53	224	5
NMTAP	53	272	0
NMSTR	53	288	6
NMSI_	53	288	6	96	48	3
EXTAP	53	336	2
BRHLD	54	0	2	48
NMSTR	54	0	6
NMSI_	54	0	6	96	48	2
BRHLD	54	96	1	48
NMSTR	54	96	6
NMSI_	54	96	6	96	48	1
BRHLD	54	192	0	48
NMTAP	54	192	6
BRTAP	54	288	6
BRTAP	54	288	7
NMHLD	55	0	2	192
NMTAP	55	96	3
NMTAP	55	144	3
NMHLD	55	192	4	192
NMTAP	55	288	3
NMTAP	55	336	3
NMHLD	56	0	1	96
NMTAP	56	48	3
NMHLD	56	96	5	96
NMTAP	56	144	3
NMHLD	56	192	0	96
NMTAP	56	240	3
NMTAP	56	288	6
NMTAP	56	336	6
NMHLD	57	0	5	384
NMTAP	57	96	3
NMTAP	57	144	2
NMTAP	57	192	1
NMTAP	57	240	0
NMTAP	57	288	7
NMTAP	57	336	6
NMTAP	58	0	4
NMTAP	58	48	3
NMSTR	58	96	0
NMSUR	58	96	0	96	192	3
NMTAP	58	96	6
NMTHO	59	0	0	672	C	0	M1
NMTAP	59	96	0
NMTAP	59	144	0
NMTAP	59	192	1
NMTAP	59	240	1
NMTAP	59	288	2
NMTAP	59	336	2
NMTAP	60	0	3
NMTAP	60	48	3
NMTAP	60	96	2
NMTAP	60	144	2
NMTAP	60	192	1
NMTAP	60	240	1
NMTAP	60	288	0
NMTAP	60	336	0
NMTAP	61	0	6
NMTAP	61	16	7
NMTAP	61	32	6
NMTAP	61	48	7
NMTAP	61	96	1
NMTAP	61	112	0
NMTAP	61	128	1
NMTAP	61	144	0
NMTAP	61	192	5
NMTAP	61	208	4
NMTAP	61	224	5
NMTAP	61	240	4
NMTAP	61	288	2
NMTAP	61	304	3
NMTAP	61	320	2
NMTAP	61	336	3
EXTAP	62	0	3
EXTAP	62	0	4
EXTAP	62	80	2
EXTAP	62	80	5
EXTAP	62	128	1
EXTAP	62	128	6
EXTAP	62	144	1
EXTAP	62	144	6
NMSTR	62	192	0
NMSI_	62	192	0	96	48	3
NMTAP	62	208	7
NMTAP	62	224	0
NMTAP	62	240	7
NMTAP	62	256	0
NMTAP	62	272	7
BRTAP	62	288	0
NMHLD	63	0	2	96
NMHLD	63	0	4	96
NMHLD	63	176	2	48
NMHLD	63	176	4	48
NMTAP	63	272	2
NMTAP	63	272	4
NMTAP	63	320	2
NMTAP	63	320	4
NMHLD	64	0	3	96
NMHLD	64	0	5	96
NMTAP	64	176	3
NMTAP	64	176	5
NMTAP	64	272	2
NMTAP	64	272	6
NMTAP	64	320	2
NMTAP	64	320	6
NMTAP	65	0	0
NMTAP	65	32	0
NMTAP	65	48	5
NMTAP	65	80	5
NMTAP	65	96	1
NMTAP	65	128	1
NMTAP	65	144	4
NMTAP	65	176	4
NMTAP	65	224	2
NMTAP	65	224	3
NMTAP	65	272	2
NMTAP	65	272	3
NMTAP	65	320	5
NMTAP	65	336	4
NMHLD	66	0	2	48
NMTAP	66	48	3
NMTAP	66	80	2
NMTAP	66	128	1
NMTAP	66	176	0
NMTAP	66	176	7
NMTAP	66	224	2
NMTAP	66	224	5
NMTAP	66	272	1
NMTAP	66	272	6
NMHLD	67	0	2	48
EXTAP	67	80	2
EXTAP	67	80	3
NMTAP	67	128	4
NMTAP	67	176	5
NMTAP	67	224	6
NMTAP	67	272	0
NMTAP	67	272	7
NMTAP	67	320	1
NMTAP	67	336	3
NMHLD	68	0	5	48
EXTAP	68	80	4
EXTAP	68	80	5
NMTAP	68	128	3
NMTAP	68	176	2
NMTAP	68	224	1
NMTAP	68	272	0
NMTAP	68	272	7
NMTAP	68	320	6
NMTAP	68	336	4
NMHLD	69	0	2	48
EXTAP	69	80	2
EXTAP	69	80	3
NMTAP	69	128	4
NMTAP	69	176	5
NMTAP	69	224	6
NMTAP	69	272	0
NMTAP	69	272	7
NMTAP	69	320	1
NMTAP	69	336	3
BRTAP	70	0	2
NMHLD	70	0	4	192
BRTAP	70	96	1
BRTAP	70	192	0
NMTTP	70	288	0	A	0	M1
NMTTP	70	288	0	D	1	M1
NMTTP	70	288	1	D	0	M1
NMTTP	70	288	7	A	0	M1
NMTTP	70	288	7	D	0	M1
EXHLD	71	0	6	96
EXTAP	71	48	1
NMTAP	71	64	2
NMTAP	71	80	3
NMTAP	71	96	4
EXHLD	71	144	3	96
EXTAP	71	192	0
NMTAP	71	208	7
NMTAP	71	224	6
NMTAP	71	240	5
EXHLD	71	288	4	48
EXHLD	71	288	5	48
NMTAP	72	0	6
NMTAP	72	16	7
NMTAP	72	32	6
NMTAP	72	48	7
EXTAP	72	72	5
EXTAP	72	96	5
NMTAP	72	144	1
NMTAP	72	160	0
NMTAP	72	176	1
NMTAP	72	192	0
EXTAP	72	216	2
EXTAP	72	240	2
EXTAP	72	288	1
EXTAP	72	288	4
EXTAP	72	312	1
EXTAP	72	312	4
BXTAP	73	0	2
NMTAP	73	16	3
NMTAP	73	32	2
BXTAP	73	48	5
NMTAP	73	64	4
NMTAP	73	80	5
BXTAP	73	96	1
NMTAP	73	112	0
NMTAP	73	128	1
BXTAP	73	144	6
NMTAP	73	160	7
NMTAP	73	176	6
BXTAP	73	192	1
NMTAP	73	208	2
NMTAP	73	224	3
BXTAP	73	240	6
NMTAP	73	256	5
NMTAP	73	272	4
BXTAP	73	288	1
BXTAP	73	300	2
BXTAP	73	312	3
BXTAP	73	324	4
BXTAP	73	336	5
BXTAP	73	348	6
BXTAP	73	360	7
BXTAP	73	372	0
NMTTP	74	0	0	C	1	M1
BXTAP	74	0	1

T_REC_TAP	416
T_REC_BRK	11
T_REC_XTP	55
T_REC_BXX	17
T_REC_HLD	36
T_REC_XHO	9
T_REC_BHO	6
T_REC_BXH	1
T_REC_STR	28
T_REC_BST	1
T_REC_XST	7
T_REC_XBS	0
T_REC_TTP	70
T_REC_THO	2
T_REC_SLD	36
T_REC_BSL	1
T_REC_ALL	696
T_NUM_TAP	576
T_NUM_BRK	37
T_NUM_HLD	47
T_NUM_SLD	36
T_NUM_ALL	696
T_JUDGE_TAP	605
T_JUDGE_HLD	154
T_JUDGE_SLD	37
T_JUDGE_ALL	796
TTM_EACHPAIRS	104
TTM_SCR_TAP	288000
TTM_SCR_BRK	96200
TTM_SCR_HLD	47000
TTM_SCR_SLD	54000
TTM_SCR_ALL	485200
TTM_SCR_S	467100
TTM_SCR_SS	481500
TTM_RAT_ACV	10076

