VERSION	0.00.00	1.04.00
FES_MODE	0
BPM_DEF	136.000	136.000	136.000	136.000
MET_DEF	4	4
RESOLUTION	384
CLK_DEF	384
COMPATIBLE_CODE	MA2

BPM	0	0	136.000
MET	0	0	4	4

EXSTR	1	0	0
NMSI_	1	0	0	96	96	6
EXTAP	1	0	7
CNSI_	1	192	6	0	96	2
CNSI_	1	288	2	0	96	4
EXTAP	2	0	5
NMHLD	2	96	5	576
NMTAP	2	288	4
NMTAP	3	96	4
NMTAP	3	288	3
NMTAP	4	0	2
NMTAP	4	0	4
NMHLD	4	96	2	192
NMTAP	4	96	4
NMSTR	4	288	3
NMSXR	4	288	3	96	192	4
EXTAP	5	288	4
NMTAP	6	0	5
NMHLD	6	96	5	576
NMTAP	6	192	4
NMTAP	6	288	4
NMTAP	7	0	3
NMTAP	7	96	3
NMTAP	7	192	4
NMTAP	7	288	4
EXTAP	8	0	3
EXTAP	8	0	4
NMHLD	8	96	2	384
NMTAP	8	96	3
NMTAP	8	192	3
NMTAP	8	288	4
NMTAP	9	0	3
NMTAP	9	96	3
NMTAP	9	192	2
NMTAP	9	192	3
NMSTR	9	288	1
BRSCL	9	288	1	96	144	6
NMTAP	9	288	4
NMTAP	10	192	4
NMSTR	10	288	5
NMSCL	10	288	5	96	144	2
EXTAP	11	192	0
NMSTR	11	288	1
BRSCR	11	288	1	96	144	4
NMTAP	12	192	5
NMSTR	12	288	6
NMSCL	12	288	6	96	144	3
NMTAP	13	192	2
NMTAP	13	288	2
NMTAP	13	288	3
BXHLD	14	0	1	192
BXTAP	14	0	4
NMTAP	14	192	3
NMTAP	14	240	3
NMTAP	14	288	2
NMTAP	14	288	3
BXTAP	15	0	3
BXHLD	15	0	6	192
NMTAP	15	192	4
NMTAP	15	240	4
NMTAP	15	288	4
NMTAP	15	288	5
BXTAP	16	0	1
NMTAP	16	48	1
NMTAP	16	96	0
NMTAP	16	96	1
BXTAP	16	192	6
NMTAP	16	240	6
NMTAP	16	288	6
NMTAP	16	288	7
NMTHO	17	0	0	384	C	0	M1
NMTTP	17	0	3	B	0	M1
NMTTP	17	0	4	B	0	M1
BXSTR	18	0	7
NMSCL	18	0	7	96	96	4
CNSUL	18	192	4	0	192	3
CNSCL	19	0	3	0	192	0
EXTAP	19	288	0
EXTAP	19	288	7
NMHLD	20	0	6	48
NMHLD	20	0	7	48
NMHLD	20	96	6	48
NMHLD	20	96	7	48
NMHLD	20	192	4	48
NMHLD	20	192	5	48
NMHLD	20	288	4	48
NMHLD	20	288	5	48
NMHLD	21	0	0	48
NMHLD	21	0	7	48
NMHLD	21	96	4	48
NMHLD	21	96	5	48
NMHLD	21	192	0	48
NMHLD	21	192	7	48
NMHLD	21	288	2	48
NMHLD	21	288	3	48
NMHLD	22	0	0	48
NMHLD	22	0	1	48
NMHLD	22	96	0	48
NMHLD	22	96	1	48
NMHLD	22	192	2	48
NMHLD	22	192	3	48
NMHLD	22	288	2	48
NMHLD	22	288	3	48
NMSTR	23	0	1
NMSI_	23	0	1	96	48	7
NMSTR	23	0	3
NMSI_	23	0	3	96	48	5
NMTAP	23	192	0
NMTAP	23	192	4
EXTAP	23	288	1
EXTAP	23	288	3
NMHLD	24	0	2	48
NMHLD	24	0	3	48
NMHLD	24	96	2	48
NMHLD	24	96	3	48
NMHLD	24	192	4	48
NMHLD	24	192	5	48
NMHLD	24	288	4	48
NMHLD	24	288	5	48
NMHLD	25	0	3	48
NMHLD	25	0	6	48
NMHLD	25	96	0	48
NMHLD	25	96	1	48
NMHLD	25	192	2	48
NMHLD	25	192	5	48
EXTAP	25	288	3
EXTAP	25	288	4
NMTAP	26	0	3
NMTAP	26	32	3
NMTAP	26	64	4
BRTAP	26	96	4
NMHLD	26	192	3	48
NMHLD	26	192	5	48
NMHLD	26	288	1	48
NMHLD	26	288	7	48
NMHLD	27	0	2	48
NMHLD	27	0	4	48
NMHLD	27	96	0	48
NMHLD	27	96	6	48
BRTAP	27	192	1
BRSTR	27	192	5
NMSCL	27	192	5	96	48	2
NMTAP	28	0	0
NMTAP	28	96	1
NMTAP	28	144	1
NMTAP	28	192	3
NMTAP	28	288	2
NMTAP	28	288	4
NMTAP	29	0	3
NMTAP	29	0	7
NMTAP	29	96	6
NMTAP	29	144	6
NMTAP	29	192	4
NMTAP	29	288	3
NMTAP	29	288	5
NMTAP	30	0	0
NMHLD	30	0	4	96
NMTAP	30	96	1
NMTAP	30	144	1
NMTAP	30	192	3
NMTAP	30	240	2
NMTAP	30	288	4
NMTAP	30	336	4
NMTAP	31	0	2
NMTAP	31	48	3
NMTAP	31	96	4
NMTAP	31	144	5
NMTAP	31	192	3
NMTAP	31	240	4
NMTAP	31	288	5
NMTAP	31	336	6
NMTAP	32	0	3
BXHLD	32	0	7	312
NMHLD	32	168	4	96
EXHLD	33	0	2	264
NMTAP	33	0	6
NMHLD	33	168	5	152
NMTTP	34	0	7	E	0	M1
NMTTP	34	48	6	E	0	M1
NMTTP	34	96	5	E	0	M1
NMTTP	34	192	2	A	0	M1
NMTTP	34	192	3	B	0	M1
NMTTP	34	288	0	C	0	M1
NMTTP	34	288	6	E	0	M1
NMTTP	35	0	1	E	0	M1
NMTTP	35	48	2	E	0	M1
NMTTP	35	96	3	E	0	M1
NMTTP	35	192	4	B	0	M1
NMTTP	35	192	5	A	0	M1
NMTAP	35	288	0
NMTAP	35	288	7
BRHLD	36	0	1	192
BRHLD	36	0	7	576
NMTAP	36	288	1
NMHLD	37	0	0	2016
NMTAP	37	288	7
BRHLD	38	0	7	192
NMTAP	38	288	7
BRHLD	39	0	6	192
NMTAP	39	288	6
BRTAP	40	0	5
NMTAP	40	96	5
EXTAP	40	192	4
NMTAP	40	288	4
BRTAP	41	0	3
NMTAP	41	96	3
EXTAP	41	192	2
NMTAP	41	288	2
BRTAP	42	0	1
NMTAP	42	96	1
BRTAP	42	192	0
NMSTR	42	288	0
NMSCR	42	288	0	96	192	6
NMSUR	42	288	0	96	192	7
NMSTR	44	0	6
NMSCL	44	0	6	96	192	0
NMSTR	44	0	7
NMSUL	44	0	7	96	192	0
NMSTR	45	0	7
NMSSR	45	0	7	96	288	3
NMTAP	46	192	3
NMTAP	46	192	4
NMTAP	46	240	3
NMTAP	46	240	4
BRSTR	46	288	2
NMSI_	46	288	2	96	48	7
BRTAP	46	288	5
NMSTR	47	0	6
NMSI_	47	0	6	96	48	3
NMTAP	47	96	0
NMTAP	47	192	1
NMTAP	47	240	1
NMTAP	47	288	3
NMTAP	47	336	2
NMHLD	48	0	1	48
NMHLD	48	0	3	48
NMHLD	48	96	4	48
NMHLD	48	96	6	48
NMHLD	48	192	0	48
NMHLD	48	192	1	48
NMHLD	48	288	6	48
NMHLD	48	288	7	48
NMTAP	49	0	6
NMTAP	49	48	6
NMTAP	49	96	4
NMTAP	49	144	5
NMTAP	49	192	2
NMTAP	49	240	2
NMTAP	49	288	3
NMTAP	49	336	1
NMTAP	50	0	0
NMTAP	50	0	1
NMTAP	50	48	0
NMTAP	50	48	1
NMTAP	50	96	0
NMTAP	50	96	1
NMTAP	50	192	2
NMTAP	50	192	7
NMTAP	50	288	3
NMSTR	50	288	6
NMSI_	50	288	6	96	48	3
NMSTR	51	0	2
NMSI_	51	0	2	96	48	7
NMTAP	51	96	4
NMTAP	51	192	6
NMTAP	51	240	6
NMTAP	51	288	4
NMTAP	51	336	5
NMHLD	52	0	4	48
NMHLD	52	0	6	48
NMHLD	52	96	2	48
NMHLD	52	96	3	48
NMHLD	52	192	4	48
NMHLD	52	192	5	48
NMHLD	52	288	1	48
NMHLD	52	288	3	48
NMTAP	53	0	1
NMTAP	53	48	1
NMTAP	53	96	3
NMTAP	53	144	3
NMTAP	53	192	4
NMTAP	53	240	4
NMHLD	53	288	6	288
BRTAP	54	0	2
BRTAP	54	96	1
BRTAP	54	192	0
BRTAP	54	288	2
BRTAP	54	288	4
NMHLD	55	0	5	768
NMTAP	55	96	4
NMTAP	55	144	4
NMTAP	55	192	4
NMTAP	55	288	6
NMTAP	55	336	6
NMTAP	56	0	6
NMTAP	56	96	3
NMTAP	56	144	3
NMTAP	56	192	3
EXTAP	56	288	7
NMHLD	57	0	0	768
NMTAP	57	96	3
NMTAP	57	144	3
NMTAP	57	192	3
NMTAP	57	288	1
NMTAP	57	336	1
NMTAP	58	0	1
NMSTR	58	96	3
NMSI_	58	96	3	96	48	7
NMTAP	59	0	7
NMTAP	59	48	7
NMTAP	59	96	0
BRTAP	59	96	6
NMTAP	59	144	1
NMTAP	59	144	5
NMHLD	59	192	2	48
NMHLD	59	192	4	48
NMTAP	59	288	2
NMTAP	59	288	4
NMTAP	60	0	3
NMTAP	60	48	3
NMTAP	60	96	2
NMTAP	60	96	4
NMTAP	60	144	1
NMTAP	60	144	5
NMHLD	60	192	0	48
NMHLD	60	192	6	48
NMTAP	60	288	0
NMTAP	60	288	6
NMTAP	61	0	7
NMTAP	61	48	7
NMTAP	61	96	2
NMTAP	61	96	6
NMTAP	61	144	2
NMTAP	61	144	6
NMTAP	61	192	3
NMTAP	61	192	5
NMTAP	61	240	3
NMTAP	61	240	5
NMTAP	61	288	2
NMTAP	61	288	4
NMTAP	61	336	1
NMTAP	61	336	5
EXHLD	62	0	0	192
NMTAP	62	0	6
NMTTP	62	192	0	C	1	M1
BXHLD	63	0	1	168
BXTAP	63	0	6
EXHLD	63	168	3	96
EXTAP	63	264	2
EXTAP	63	312	2
EXHLD	64	0	4	168
EXHLD	64	168	3	144
EXTAP	64	264	5
EXTAP	64	312	5
NMSTR	65	0	6
NMSCL	65	0	6	96	96	3
EXSTR	65	192	2
BRSCL	65	192	2	96	96	7
NMSTR	66	0	5
NMSCL	66	0	5	96	96	2
EXTAP	66	192	0
BXTAP	66	288	0
BXTAP	66	288	7
BXHLD	67	0	6	48
BXHLD	67	0	7	48
NMHLD	67	96	6	48
NMHLD	67	96	7	48
NMHLD	67	192	4	48
NMHLD	67	192	5	48
NMHLD	67	288	4	48
NMHLD	67	288	5	48
NMHLD	68	0	2	48
NMHLD	68	0	3	48
NMHLD	68	96	2	48
NMHLD	68	96	3	48
NMHLD	68	192	0	48
NMHLD	68	192	1	48
NMHLD	68	288	0	48
NMHLD	68	288	1	48
BXHLD	69	0	2	48
BXHLD	69	0	3	48
NMHLD	69	96	3	48
NMHLD	69	96	4	48
NMHLD	69	192	4	48
NMHLD	69	192	5	48
NMHLD	69	288	3	48
NMHLD	69	288	4	48
BRTAP	70	0	2
EXTAP	70	0	3
BRTAP	70	96	1
BRHLD	70	192	0	96
BRTAP	70	288	7
NMSTR	71	0	6
NMSI_	71	0	6	96	48	3
NMTAP	71	48	6
NMSTR	71	96	2
NMSI_	71	96	2	96	48	7
NMTAP	71	144	2
NMTAP	71	192	6
NMTAP	71	240	6
NMTAP	71	288	0
NMTAP	71	288	6
BXTAP	72	0	4
BXTAP	72	0	5
BXTAP	72	48	4
BXTAP	72	48	5
BXTAP	72	96	3
BXTAP	72	96	4
BXTAP	72	144	3
BXTAP	72	144	4
BXTAP	72	192	2
BXTAP	72	192	3
BXTAP	72	240	2
BXTAP	72	240	3
BXTAP	72	288	1
BXTAP	72	288	4
NMSTR	73	0	0
NMSI_	73	0	0	96	48	4
NMTAP	73	48	0
NMSTR	73	96	7
NMSI_	73	96	7	96	48	3
NMTAP	73	144	7
NMSTR	73	192	1
NMSI_	73	192	1	96	48	5
NMTAP	73	240	1
NMSTR	73	288	6
NMSI_	73	288	6	96	48	2
NMTAP	73	336	6
NMTTP	74	0	0	B	1	M1
NMTTP	74	0	0	E	0	M1
NMTTP	74	0	1	E	0	M1

T_REC_TAP	178
T_REC_BRK	16
T_REC_XTP	21
T_REC_BXX	21
T_REC_HLD	97
T_REC_XHO	5
T_REC_BHO	5
T_REC_BXH	8
T_REC_STR	23
T_REC_BST	2
T_REC_XST	2
T_REC_XBS	1
T_REC_TTP	18
T_REC_THO	1
T_REC_SLD	26
T_REC_BSL	3
T_REC_ALL	427
T_NUM_TAP	242
T_NUM_BRK	56
T_NUM_HLD	103
T_NUM_SLD	26
T_NUM_ALL	427
T_JUDGE_TAP	282
T_JUDGE_HLD	286
T_JUDGE_SLD	29
T_JUDGE_ALL	597
TTM_EACHPAIRS	107
TTM_SCR_TAP	121000
TTM_SCR_BRK	145600
TTM_SCR_HLD	103000
TTM_SCR_SLD	39000
TTM_SCR_ALL	408600
TTM_SCR_S	390950
TTM_SCR_SS	403000
TTM_RAT_ACV	10138

