VERSION	0.00.00	1.04.00
FES_MODE	0
BPM_DEF	190.000	190.000	190.000	190.000
MET_DEF	4	4
RESOLUTION	384
CLK_DEF	384
COMPATIBLE_CODE	MA2

BPM	0	0	190.000
MET	0	0	4	4

NMTAP	1	0	2
NMTAP	1	48	3
NMTAP	1	96	4
NMHLD	1	144	2	96
NMTAP	1	240	3
NMTAP	1	288	4
NMSTR	1	336	1
NMSUR	1	336	1	96	144	7
NMTAP	2	48	4
NMHLD	2	240	0	96
NMHLD	2	240	6	96
NMTAP	3	0	5
NMTAP	3	48	4
NMTAP	3	96	3
NMHLD	3	144	5	96
NMTAP	3	240	4
NMTAP	3	288	3
NMHLD	3	336	6	96
NMTTP	4	48	5	E	0	M1
NMTTP	4	72	6	E	0	M1
NMTTP	4	96	7	E	0	M1
NMTTP	4	120	0	E	0	M1
NMTTP	4	144	1	E	0	M1
NMTTP	4	168	2	E	0	M1
NMTTP	4	192	3	E	0	M1
BXTAP	4	288	7
NMHLD	5	0	3	384
NMTTP	5	96	4	E	0	M1
NMTTP	5	192	5	E	0	M1
NMTTP	5	288	6	E	0	M1
NMHLD	6	0	5	384
NMTTP	6	96	4	E	0	M1
NMTTP	6	192	3	E	0	M1
NMTTP	6	288	2	E	0	M1
NMHLD	7	0	2	192
NMTTP	7	96	5	E	0	M1
NMHLD	7	192	6	192
NMTTP	7	288	4	E	0	M1
NMHLD	8	0	0	192
NMTTP	8	96	3	E	0	M1
NMTAP	8	192	7
NMTTP	8	288	2	E	0	M1
NMTTP	8	288	6	E	0	M1
NMTAP	9	0	3
NMHLD	9	0	4	96
NMTAP	9	96	3
NMTAP	9	192	4
NMHLD	9	192	5	384
NMTAP	9	288	4
NMTAP	10	0	6
NMTAP	10	96	6
NMTAP	10	192	7
NMTAP	10	288	0
NMTAP	10	288	6
NMHLD	11	0	3	96
NMTAP	11	0	4
NMTAP	11	96	4
NMHLD	11	192	2	96
NMTAP	11	192	3
NMTAP	11	288	3
EXSTR	11	336	1
NMSI_	11	336	1	96	48	4
EXTAP	11	336	4
NMTAP	12	48	7
NMTAP	12	96	7
EXTAP	12	144	0
EXSTR	12	144	6
NMSI_	12	144	6	96	48	3
NMTAP	12	240	2
BRTAP	12	288	0
NMTAP	13	0	1
NMTAP	13	0	3
NMTAP	13	96	2
NMTAP	13	96	3
NMTAP	13	192	3
NMTAP	13	240	4
NMTAP	13	288	3
NMTAP	13	336	5
NMTAP	14	0	4
NMTAP	14	0	6
NMTAP	14	96	4
NMTAP	14	96	5
NMTAP	14	192	4
NMTAP	14	240	3
NMTAP	14	288	4
NMTAP	14	336	2
NMTAP	15	0	1
NMTAP	15	0	3
NMTAP	15	96	2
NMTAP	15	96	3
NMTAP	15	192	3
NMTAP	15	240	4
NMTAP	15	288	3
NMTAP	15	336	5
NMSTR	16	0	4
NMSI_	16	0	4	96	48	2
NMTAP	16	48	4
NMTAP	16	96	6
NMTAP	16	192	7
NMTAP	16	240	7
NMTAP	16	288	3
NMTAP	16	336	5
NMTAP	17	0	4
NMTAP	17	0	6
NMTAP	17	96	4
NMTAP	17	96	5
NMTAP	17	192	4
NMTAP	17	240	3
NMTAP	17	288	4
NMTAP	17	336	2
NMTAP	18	0	1
NMTAP	18	0	3
NMTAP	18	96	2
NMTAP	18	96	3
NMTAP	18	192	3
NMTAP	18	240	4
NMTAP	18	288	3
NMTAP	18	336	5
NMTAP	19	0	4
NMTAP	19	0	6
NMTAP	19	96	4
NMTAP	19	96	5
NMTAP	19	192	4
NMTAP	19	240	3
NMTAP	19	288	4
NMTAP	19	336	2
NMTTP	20	48	6	B	0	M1
NMTTP	20	72	5	B	0	M1
NMTTP	20	96	4	B	0	M1
NMTTP	20	120	3	B	0	M1
NMTTP	20	144	2	B	0	M1
NMTTP	20	168	1	B	0	M1
NMTTP	20	192	0	D	0	M1
NMTTP	20	216	1	D	0	M1
NMTTP	20	240	2	D	0	M1
NMTTP	20	264	3	D	0	M1
NMTTP	20	288	4	D	0	M1
NMTTP	20	312	5	D	0	M1
NMTTP	20	336	6	D	0	M1
NMTTP	20	360	7	D	0	M1
NMTTP	21	0	0	D	1	M1
NMTAP	21	240	3
NMTAP	21	240	4
NMTAP	21	336	0
NMTAP	21	336	1
NMSTR	22	0	2
NMSI_	22	0	2	96	48	5
NMTAP	22	0	7
NMTAP	22	96	6
NMHLD	22	192	7	72
NMHLD	22	264	5	72
NMTAP	22	336	4
NMTAP	23	0	3
NMTAP	23	0	6
NMTAP	23	144	2
NMTAP	23	168	3
NMTAP	23	192	2
NMHLD	23	240	0	72
NMHLD	23	312	2	72
NMSTR	24	0	3
NMSCL	24	0	3	96	48	0
NMTAP	24	96	3
NMSTR	24	96	6
NMSCL	24	96	6	96	48	3
NMSTR	24	192	1
BRSI_	24	192	1	96	48	5
NMTAP	24	192	6
BRTAP	24	288	7
NMHLD	25	0	0	96
NMHLD	25	0	6	96
NMTAP	25	144	1
NMTAP	25	144	5
NMHLD	25	192	1	96
NMHLD	25	192	5	96
NMTAP	25	336	2
NMTAP	25	360	3
NMSTR	26	0	2
NMSCL	26	0	2	96	96	7
NMSTR	26	96	7
NMSCL	26	96	7	96	96	4
NMSTR	26	192	4
NMSCL	26	192	4	96	96	1
NMTAP	26	288	1
NMTAP	27	0	6
NMTAP	27	48	6
NMTAP	27	96	1
NMTAP	27	96	7
NMTAP	27	144	1
NMTAP	27	144	7
NMTAP	27	192	2
NMTAP	27	240	2
NMTAP	27	288	5
NMTAP	27	312	4
NMTAP	27	336	5
NMTAP	27	360	4
NMTAP	28	0	7
NMTAP	28	24	6
NMTAP	28	48	5
NMTAP	28	72	4
NMTAP	28	96	0
NMTAP	28	120	1
NMTAP	28	144	2
NMTAP	28	168	3
NMTAP	28	192	6
NMTAP	28	216	5
NMTAP	28	240	4
NMTAP	28	264	3
BRTAP	28	288	0
NMSTR	29	0	1
NMSI_	29	0	1	96	48	3
NMSTR	29	0	7
NMSI_	29	0	7	96	48	3
NMTAP	29	48	0
EXTAP	29	96	1
EXTAP	29	96	7
NMHLD	29	192	4	96
NMHLD	29	192	6	96
NMTAP	29	336	5
NMTAP	29	360	4
NMSTR	30	0	5
NMSI_	30	0	5	96	48	0
NMSI_	30	0	5	96	48	1
NMTAP	30	96	5
NMHLD	30	192	3	72
NMHLD	30	264	2	72
NMTAP	30	336	0
NMHLD	31	0	1	96
NMHLD	31	0	7	96
NMTAP	31	144	1
NMTAP	31	144	7
NMTAP	31	168	2
NMTAP	31	168	6
NMSTR	31	192	3
NMSXR	31	192	3	96	144	4
NMSTR	31	192	5
NMSXL	31	192	5	96	144	4
NMSTR	32	96	0
NMSI_	32	96	0	96	48	4
NMSTR	32	192	4
NMSF_	32	192	4	96	48	0
EXHLD	33	0	2	96
EXHLD	33	0	6	96
NMTAP	33	144	1
NMTAP	33	144	5
NMHLD	33	192	1	96
NMHLD	33	192	5	96
NMTAP	33	336	2
NMTAP	33	360	3
NMTAP	34	0	2
NMTAP	34	48	1
NMTAP	34	48	4
NMTAP	34	96	0
NMTAP	34	96	5
NMSTR	34	144	6
NMSI_	34	144	6	96	48	4
NMSTR	34	144	7
NMSI_	34	144	7	96	48	3
CNSI_	34	288	3	0	48	1
CNSI_	34	288	4	0	48	0
NMTAP	35	0	6
NMTAP	35	0	7
NMTAP	35	48	5
NMTAP	35	96	4
NMTAP	35	144	2
NMTAP	35	144	3
NMHLD	35	192	1	96
NMHLD	35	192	5	96
NMTAP	35	336	6
NMTAP	35	360	7
NMSTR	36	0	6
NMSCL	36	0	6	96	96	3
NMSTR	36	96	3
NMSCL	36	96	3	96	96	0
NMSTR	36	192	0
NMSCL	36	192	0	96	96	5
NMSTR	36	288	5
NMSXL	36	288	5	96	288	3
NMTAP	37	0	2
NMTAP	37	96	2
NMTAP	37	192	1
NMTAP	37	288	1
NMTAP	38	0	0
NMTAP	38	96	0
NMTAP	38	192	1
NMTAP	38	192	7
NMTAP	38	288	1
NMTAP	38	288	7
NMHLD	39	0	2	144
NMTAP	39	0	6
NMTAP	39	96	6
NMTAP	39	192	5
NMSTR	39	288	3
NMSCL	39	288	3	96	288	5
NMTAP	39	288	5
NMTAP	40	0	4
NMTAP	40	96	4
NMTAP	40	192	4
NMTAP	40	288	4
NMTAP	41	0	3
NMHLD	41	0	5	96
NMTAP	41	48	4
NMTAP	41	96	3
NMHLD	41	192	1	96
NMTAP	41	192	4
NMTAP	41	240	3
NMTAP	41	288	4
NMTAP	42	0	2
NMHLD	42	0	6	96
NMTAP	42	48	3
NMTAP	42	96	2
NMHLD	42	192	0	96
NMTAP	42	192	4
NMTAP	42	240	3
NMTAP	42	288	4
NMTAP	43	0	1
NMTAP	43	0	3
NMTAP	43	48	2
NMTAP	43	96	4
NMTAP	43	96	6
NMTAP	43	144	5
NMTAP	43	192	0
NMTAP	43	192	3
NMTAP	43	240	2
NMTAP	43	288	4
NMTAP	43	288	7
NMTAP	43	336	5
NMTAP	44	0	1
NMTAP	44	24	2
NMTAP	44	48	3
NMTAP	44	72	4
NMTAP	44	96	7
NMTAP	44	120	6
NMTAP	44	144	5
NMTAP	44	168	4
NMTAP	44	192	0
NMTAP	44	216	1
NMTAP	44	240	2
NMTAP	44	264	3
NMTAP	44	288	6
NMTAP	44	312	5
NMTAP	44	336	4
NMTAP	44	360	3
BRHLD	45	0	1	48
BRHLD	45	0	2	48
EXTAP	45	96	1
EXTAP	45	96	2
NMHLD	45	192	0	72
NMHLD	45	264	1	72
NMTAP	45	336	2
NMSTR	46	0	2
NMSI_	46	0	2	96	48	4
NMTAP	46	96	2
NMHLD	46	192	5	72
NMHLD	46	264	4	72
NMTAP	46	336	3
NMSTR	47	0	3
NMSI_	47	0	3	96	48	5
NMTAP	47	96	2
NMHLD	47	192	0	72
NMHLD	47	264	1	72
NMTAP	47	336	2
NMSTR	48	0	2
NMSI_	48	0	2	96	48	4
NMSTR	48	96	0
NMSI_	48	96	0	96	48	6
NMSTR	48	192	1
NMSI_	48	192	1	96	48	5
NMTAP	48	288	5
EXTAP	49	0	0
EXTAP	49	0	6
EXTAP	49	48	0
EXTAP	49	48	6
EXTAP	49	96	0
EXTAP	49	96	6
NMHLD	49	192	7	72
NMHLD	49	264	6	72
NMTAP	49	336	5
NMTAP	50	0	5
NMTAP	50	48	5
NMTAP	50	96	5
NMTAP	50	144	5
NMHLD	50	192	5	72
NMHLD	50	264	4	72
NMTAP	50	336	3
NMSTR	51	0	3
NMSI_	51	0	3	96	48	5
NMTAP	51	96	2
NMHLD	51	192	0	72
NMHLD	51	264	1	72
NMTAP	51	336	2
NMTAP	52	0	2
NMTAP	52	48	4
NMTAP	52	96	4
NMTAP	52	144	3
EXTAP	52	192	6
EXTAP	52	204	5
EXTAP	52	240	1
EXTAP	52	252	2
BRTAP	52	288	7
NMHLD	53	0	3	0
NMHLD	53	72	3	0
NMHLD	53	144	3	0
NMTAP	53	192	2
NMTAP	53	192	4
NMTAP	53	240	2
NMTAP	53	240	4
NMHLD	53	288	5	0
NMHLD	53	360	5	0
NMHLD	54	48	5	0
NMTAP	54	96	4
NMTAP	54	96	6
NMTAP	54	144	4
NMTAP	54	144	6
NMHLD	54	192	3	0
NMHLD	54	264	3	0
NMHLD	54	336	3	0
NMHLD	55	0	2	0
NMHLD	55	72	2	0
NMHLD	55	144	2	0
NMTAP	55	192	1
NMTAP	55	192	3
NMTAP	55	240	1
NMTAP	55	240	3
NMHLD	55	288	0	0
NMHLD	55	360	0	0
NMHLD	56	48	0	0
NMTAP	56	96	1
NMTAP	56	96	7
NMTAP	56	144	1
NMTAP	56	144	7
NMHLD	56	192	6	0
NMHLD	56	264	6	0
NMHLD	56	336	6	0
NMTAP	57	0	5
NMTAP	57	48	5
NMTAP	57	96	5
NMTAP	57	144	5
NMHLD	57	192	4	0
NMHLD	57	264	4	0
NMHLD	57	336	4	0
NMTAP	58	0	3
NMTAP	58	0	5
NMTAP	58	48	6
NMTAP	58	96	2
NMTAP	58	96	4
NMTAP	58	144	1
NMHLD	58	192	0	0
NMHLD	58	192	7	0
NMHLD	58	264	0	0
NMHLD	58	264	7	0
NMHLD	58	336	0	0
NMHLD	58	336	7	0
NMTAP	59	0	1
NMTAP	59	0	6
NMTAP	59	48	1
NMTAP	59	48	6
NMTAP	59	96	2
NMTAP	59	96	5
NMTAP	59	144	2
NMTAP	59	144	5
NMTAP	59	192	3
NMTAP	59	216	4
NMTAP	59	240	3
NMTAP	59	264	4
NMTAP	59	288	2
NMTAP	59	312	5
NMTAP	59	336	2
NMTAP	59	360	5
EXTAP	60	0	1
EXTAP	60	0	6
EXTAP	60	80	0
EXTAP	60	96	1
EXTAP	60	112	2
EXTAP	60	176	7
EXTAP	60	192	6
EXTAP	60	208	5
BXTAP	60	272	0
BXTAP	60	288	7
NMTAP	61	0	3
NMTAP	61	0	4
NMTAP	61	48	2
NMTAP	61	72	3
NMTAP	61	96	1
NMSTR	61	144	0
NMSCR	61	144	0	96	48	3
NMTAP	61	192	7
NMTAP	61	240	6
NMTAP	61	288	5
NMTAP	61	336	4
NMTAP	62	0	2
NMTAP	62	0	6
NMTAP	62	48	1
NMTAP	62	72	0
NMTAP	62	96	1
NMTAP	62	144	5
NMTAP	62	168	4
NMTAP	62	192	6
NMTAP	62	240	2
NMTAP	62	264	3
NMTAP	62	288	1
NMTAP	62	336	6
NMTAP	62	360	7
NMSTR	63	0	6
NMSXR	63	0	6	96	240	3
NMTAP	63	96	3
NMTAP	63	192	2
NMTAP	63	288	1
NMSTR	64	0	0
NMSCL	64	0	0	96	48	5
NMSCR	64	0	0	96	48	3
NMHLD	64	192	4	72
NMHLD	64	264	5	72
NMTAP	64	336	6
EXTAP	65	0	6
NMTAP	65	24	5
NMTAP	65	48	4
NMTAP	65	72	3
EXTAP	65	96	1
EXTAP	65	120	0
EXTAP	65	144	1
EXTAP	65	168	0
EXTAP	65	192	1
NMTAP	65	216	2
NMTAP	65	240	3
NMTAP	65	264	4
EXTAP	65	288	6
EXTAP	65	312	7
EXTAP	65	336	6
EXTAP	65	360	7
EXTAP	66	0	6
NMTAP	66	24	5
NMTAP	66	48	4
NMTAP	66	72	3
EXTAP	66	96	0
NMTAP	66	120	1
NMTAP	66	144	2
NMTAP	66	168	3
EXTAP	66	192	7
NMTAP	66	216	6
NMTAP	66	240	5
NMTAP	66	264	4
EXTAP	66	288	1
NMTAP	66	312	2
NMTAP	66	336	3
NMTAP	66	360	4
EXHLD	67	0	5	96
EXHLD	67	0	6	96
NMTAP	67	144	4
NMTAP	67	144	7
NMSTR	67	192	0
NMSCL	67	192	0	96	48	5
NMSTR	67	192	3
NMSCL	67	192	3	96	48	0
EXTAP	68	0	6
EXTAP	68	0	7
NMTAP	68	48	5
NMTAP	68	96	3
EXSTR	68	144	2
NMSI_	68	144	2	96	48	7
EXSTR	68	144	6
NMSI_	68	144	6	96	48	3
EXTAP	68	240	2
EXTAP	68	240	6
EXTAP	68	336	1
EXTAP	68	336	5
NMTAP	69	0	2
NMTAP	69	48	3
NMTAP	69	96	4
NMTAP	69	96	6
NMSTR	69	144	7
NMSCL	69	144	7	96	48	4
NMTAP	69	192	0
NMTAP	69	240	1
NMTAP	69	288	2
NMTAP	69	336	3
NMTAP	70	0	1
NMTAP	70	0	5
NMTAP	70	48	6
NMTAP	70	72	7
NMTAP	70	96	6
NMTAP	70	144	1
NMTAP	70	168	0
NMTAP	70	192	1
NMTAP	70	240	6
NMTAP	70	264	4
NMTAP	70	288	5
NMTAP	70	336	1
NMTAP	70	360	3
NMSTR	71	0	2
NMSXR	71	0	2	96	240	7
NMTAP	71	96	7
NMTAP	71	192	6
NMTAP	71	288	5
NMSTR	72	0	4
NMSCL	72	0	4	96	48	1
NMSCR	72	0	4	96	48	7
NMHLD	72	192	0	72
NMHLD	72	264	1	72
NMTAP	72	336	3
EXTAP	73	0	2
EXTAP	73	0	4
NMTAP	73	48	5
NMTAP	73	96	6
NMTAP	73	96	7
NMTAP	73	144	0
NMTAP	73	192	1
NMTAP	73	192	3
NMTAP	73	240	2
NMTAP	73	288	3
NMTAP	73	288	4
NMTAP	73	336	5
EXTAP	74	0	4
EXTAP	74	0	6
NMTAP	74	48	3
NMTAP	74	96	2
NMTAP	74	96	4
NMTAP	74	144	1
NMTAP	74	192	0
NMTAP	74	192	7
NMTAP	74	240	6
NMTAP	74	288	4
NMTAP	74	288	5
NMTAP	75	0	2
NMTAP	75	24	3
NMTAP	75	48	2
NMTAP	75	72	3
NMTAP	75	96	1
NMTAP	75	144	5
NMTAP	75	168	4
NMTAP	75	192	5
NMTAP	75	216	4
NMTAP	75	240	6
NMTAP	75	288	0
NMTAP	75	288	7
NMTAP	75	336	0
NMTAP	75	336	7
NMTAP	76	0	1
NMTAP	76	24	6
NMTAP	76	48	1
NMTAP	76	72	6
NMTAP	76	96	2
NMTAP	76	120	5
NMTAP	76	144	2
NMTAP	76	168	5
EXTAP	76	192	3
EXTAP	76	204	4
EXTAP	76	216	5
EXTAP	76	228	6
EXTAP	76	240	7
EXTAP	76	252	0
EXTAP	76	264	1
EXTAP	76	276	2
EXTAP	76	288	3
EXTAP	76	300	4
EXTAP	76	312	5
EXTAP	76	324	6
EXTAP	76	336	7
EXTAP	76	348	0
EXTAP	76	360	1
EXTAP	76	372	2
NMHLD	78	0	2	384
NMHLD	79	0	3	384
NMHLD	80	0	4	384
NMHLD	80	192	5	192
NMHLD	81	192	6	96
NMTAP	82	0	3
NMTAP	82	0	5
NMHLD	82	192	1	96
NMTAP	83	0	2
NMTAP	83	0	4
NMTAP	83	192	3
NMTAP	83	192	5
NMHLD	84	0	4	192
NMHLD	84	192	3	192
NMSTR	85	0	4
NMSCR	85	0	4	96	192	3
NMSUL	85	0	4	96	192	3
BRHLD	86	0	1	192
BRHLD	86	0	5	192
NMSTR	86	240	1
NMSI_	86	240	1	96	48	5
NMTAP	86	240	5
NMTAP	86	336	7
NMSTR	87	0	7
NMSF_	87	0	7	96	48	3
NMTAP	87	96	7
NMHLD	87	192	0	72
NMTAP	87	192	6
NMHLD	87	264	2	72
NMTAP	87	336	3
NMTAP	88	0	1
NMTAP	88	0	4
NMTAP	88	144	5
NMTAP	88	168	4
NMTAP	88	192	5
NMTAP	88	240	1
NMHLD	88	240	7	72
NMHLD	88	312	5	72
NMTAP	89	0	4
NMTAP	89	96	2
NMTAP	89	96	3
NMTAP	89	144	2
NMTAP	89	144	3
NMSTR	89	192	0
BRSI_	89	192	0	96	48	4
NMTAP	89	192	4
NMTTP	89	288	0	C	1	M1
BRHLD	90	0	2	96
BRHLD	90	0	6	96
NMTAP	90	144	1
NMTAP	90	168	0
NMSTR	90	192	1
NMSCR	90	192	1	96	48	4
NMTAP	90	288	7
NMTAP	90	336	7
NMTAP	91	0	0
NMSTR	91	0	6
NMSCL	91	0	6	96	48	3
NMTAP	91	96	0
NMTAP	91	144	0
NMTAP	91	192	1
NMTAP	91	192	7
NMTAP	91	264	3
NMTAP	91	264	4
NMTAP	91	336	0
NMTAP	91	336	6
NMTAP	92	0	0
NMTAP	92	0	6
NMTAP	92	48	1
NMTAP	92	96	2
NMTAP	92	96	3
NMTAP	92	144	5
NMTAP	92	168	4
NMTAP	92	192	6
NMTAP	92	240	7
NMTAP	92	288	0
NMTAP	92	288	6
NMTAP	92	336	1
NMSTR	93	0	2
NMSI_	93	0	2	96	48	0
NMSTR	93	0	3
NMSI_	93	0	3	96	48	7
NMSTR	93	192	4
NMSI_	93	192	4	96	48	0
NMSTR	93	192	5
NMSI_	93	192	5	96	48	7
EXTAP	94	0	1
EXTAP	94	0	3
NMTAP	94	48	2
NMTAP	94	96	4
NMTAP	94	144	3
NMTAP	94	192	4
NMTAP	94	192	6
NMTAP	94	240	5
NMTAP	94	288	3
NMTAP	94	336	4
EXTAP	95	0	2
EXTAP	95	0	3
NMTAP	95	48	1
NMTAP	95	96	7
NMTAP	95	144	0
NMTAP	95	192	6
NMTAP	95	192	7
NMTAP	95	240	5
NMTAP	95	288	2
NMTAP	95	336	3
EXTAP	96	0	4
EXTAP	96	0	5
NMTAP	96	48	6
NMTAP	96	96	0
NMTAP	96	144	7
EXTAP	96	192	0
EXTAP	96	192	1
NMTAP	96	240	2
NMTAP	96	288	5
NMTAP	96	336	4
EXTAP	97	0	2
EXTAP	97	0	3
NMTAP	97	48	1
EXTAP	97	96	0
EXTAP	97	96	7
NMTAP	97	144	6
EXTAP	97	192	4
EXTAP	97	192	5
NMTAP	97	240	6
EXSTR	97	288	0
NMSUL	97	288	0	96	96	3
EXSTR	97	288	7
NMSUR	97	288	7	96	96	4
NMTAP	98	144	1
NMTAP	98	168	0
NMTAP	98	192	1
NMTAP	98	240	5
NMTAP	98	264	4
NMTAP	98	288	5
NMTAP	98	336	3
NMSTR	98	336	6
NMSCL	98	336	6	96	48	3
NMTAP	99	48	6
NMTAP	99	48	7
NMTAP	99	144	0
NMTAP	99	144	1
NMTAP	99	192	6
NMTAP	99	216	7
NMTAP	99	240	6
EXTAP	99	288	0
EXTAP	99	288	5
NMTAP	100	0	2
NMTAP	100	24	3
NMTAP	100	48	1
NMTAP	100	96	5
NMTAP	100	120	4
NMTAP	100	144	6
NMTAP	100	192	1
NMTAP	100	216	0
NMTAP	100	240	1
EXTAP	100	288	2
EXTAP	100	288	7
EXTAP	100	336	2
EXTAP	100	336	7
NMSTR	101	48	5
NMSCR	101	48	5	96	96	3
NMTAP	101	96	4
NMTAP	101	144	3
BRTAP	101	288	1
BRTAP	101	288	7
NMSTR	102	0	0
NMSI_	102	0	0	96	48	4
NMSTR	102	0	6
NMSI_	102	0	6	96	48	4
NMTAP	102	48	7
EXTAP	102	96	0
EXTAP	102	96	6
NMHLD	102	192	1	96
NMHLD	102	192	3	96
NMTAP	102	336	2
NMTAP	102	360	3
NMSTR	103	0	2
NMSI_	103	0	2	96	48	7
NMTAP	103	96	2
NMSTR	103	96	6
NMSI_	103	96	6	96	48	3
NMSTR	103	192	1
NMSI_	103	192	1	96	48	5
NMTAP	103	192	6
NMTAP	103	288	1
NMHLD	104	0	0	96
NMHLD	104	0	6	96
NMTAP	104	144	0
NMTAP	104	144	6
NMTAP	104	168	1
NMTAP	104	168	5
NMSTR	104	192	2
NMSXR	104	192	2	96	144	3
NMSTR	104	192	4
NMSXL	104	192	4	96	144	3
NMSTR	105	96	7
NMSI_	105	96	7	96	48	3
NMSTR	105	192	3
NMSF_	105	192	3	96	48	7
EXHLD	106	0	1	96
EXHLD	106	0	5	96
NMTAP	106	144	2
NMTAP	106	144	6
EXHLD	106	192	2	96
EXHLD	106	192	6	96
NMTAP	106	336	5
NMTAP	106	360	4
EXTAP	107	0	5
NMTAP	107	48	3
NMTAP	107	48	6
NMTAP	107	96	2
NMTAP	107	96	7
NMSTR	107	144	0
NMSI_	107	144	0	96	48	4
NMSTR	107	144	1
NMSI_	107	144	1	96	48	3
CNSI_	107	288	3	0	48	7
CNSI_	107	288	4	0	48	6
EXTAP	108	0	0
EXTAP	108	0	1
NMTAP	108	48	2
EXTAP	108	96	3
NMTAP	108	144	4
NMTAP	108	144	5
EXTAP	108	192	2
EXTAP	108	192	6
BRTAP	108	288	3
BRTAP	108	288	4
NMSTR	109	0	1
NMSI_	109	0	1	96	48	5
NMTAP	109	24	0
NMTAP	109	48	2
NMTAP	109	72	0
BRTAP	109	96	1
NMSTR	109	192	6
NMSI_	109	192	6	96	48	2
NMTAP	109	216	7
NMTAP	109	240	5
NMTAP	109	264	7
BRTAP	109	288	6
NMSTR	110	0	0
BRSI_	110	0	0	96	48	4
NMTAP	110	12	1
NMTAP	110	24	2
NMTAP	110	36	3
NMTAP	110	48	4
NMTAP	110	60	5
NMTAP	110	72	6
NMTAP	110	84	7
NMSTR	110	192	7
BRSI_	110	192	7	96	48	3
NMTAP	110	204	6
NMTAP	110	216	5
NMTAP	110	228	4
NMTAP	110	240	3
NMTAP	110	252	2
NMTAP	110	264	1
NMTAP	110	276	0
NMTTP	111	0	0	C	1	M1
NMTTP	111	0	1	B	0	M1
NMTTP	111	0	1	A	0	M1
NMTTP	111	0	5	B	0	M1
NMTTP	111	0	5	A	0	M1
NMTAP	113	0	3
NMTAP	113	0	4
NMTAP	113	144	2
NMTAP	113	168	3
NMTAP	113	192	2
NMTAP	113	336	5
NMTAP	113	360	4
NMTAP	114	0	5
NMTAP	114	96	4
NMTAP	114	192	3
NMSTR	114	288	2
NMSCL	114	288	2	96	1728	4
NMHLD	115	0	7	1728

T_REC_TAP	532
T_REC_BRK	10
T_REC_XTP	92
T_REC_BXX	3
T_REC_HLD	97
T_REC_XHO	8
T_REC_BHO	6
T_REC_BXH	0
T_REC_STR	65
T_REC_BST	0
T_REC_XST	6
T_REC_XBS	0
T_REC_TTP	39
T_REC_THO	0
T_REC_SLD	71
T_REC_BSL	4
T_REC_ALL	933
T_NUM_TAP	734
T_NUM_BRK	23
T_NUM_HLD	105
T_NUM_SLD	71
T_NUM_ALL	933
T_JUDGE_TAP	747
T_JUDGE_HLD	280
T_JUDGE_SLD	75
T_JUDGE_ALL	1102
TTM_EACHPAIRS	161
TTM_SCR_TAP	367000
TTM_SCR_BRK	59800
TTM_SCR_HLD	105000
TTM_SCR_SLD	106500
TTM_SCR_ALL	638300
TTM_SCR_S	616950
TTM_SCR_SS	636000
TTM_RAT_ACV	10036

