VERSION	0.00.00	1.04.00
FES_MODE	0
BPM_DEF	190.000	190.000	190.000	190.000
MET_DEF	4	4
RESOLUTION	384
CLK_DEF	384
COMPATIBLE_CODE	MA2

BPM	0	0	190.000
MET	0	0	4	4

NMTTP	1	0	5	E	0	M1
NMTTP	1	96	4	E	0	M1
NMTTP	1	192	3	E	0	M1
NMTHO	1	288	0	288	C	0	M1
NMTTP	3	0	1	D	0	M1
NMTTP	3	96	0	D	0	M1
NMTTP	3	192	7	D	0	M1
NMTTP	3	288	0	C	0	M1
NMTTP	4	0	2	E	0	M1
NMTTP	4	0	6	E	0	M1
NMHLD	5	0	2	288
NMTAP	5	96	3
NMTAP	5	192	3
NMTAP	5	288	3
NMHLD	6	0	5	288
NMTAP	6	96	4
NMTAP	6	192	4
NMTAP	6	288	4
NMHLD	7	0	1	384
NMTAP	7	96	3
NMTAP	7	192	3
NMTAP	7	288	2
NMSTR	8	0	2
NMSI_	8	0	2	96	96	5
NMTAP	9	0	0
NMHLD	9	0	5	288
NMTAP	9	96	7
NMTAP	9	192	6
NMTAP	9	288	6
NMTAP	10	0	7
NMTAP	10	96	0
NMTAP	10	96	6
NMTAP	10	192	1
NMTAP	10	288	2
NMTAP	10	288	4
NMHLD	11	0	1	192
NMTAP	11	0	4
NMTAP	11	96	3
NMTAP	11	192	3
NMTAP	11	288	2
NMTAP	11	288	4
EXTAP	11	336	2
EXTAP	11	336	4
NMTAP	12	48	0
NMTAP	12	48	6
NMTAP	12	96	0
NMTAP	12	96	6
EXHLD	12	144	0	144
EXHLD	12	144	6	144
NMHLD	13	0	5	1056
NMTAP	13	96	3
NMTAP	13	192	3
NMTAP	13	288	3
NMTAP	14	0	4
NMTAP	14	96	4
NMTAP	14	192	4
NMTAP	14	288	4
NMTAP	15	0	6
NMTAP	15	96	6
NMTAP	15	192	6
NMTAP	15	288	6
NMTAP	16	0	0
NMTAP	16	96	0
NMTAP	16	192	1
NMTAP	16	288	1
NMHLD	17	0	2	1056
NMTAP	17	96	5
NMTAP	17	192	4
NMTAP	17	288	3
NMTAP	18	0	1
NMTAP	18	96	0
NMTAP	18	192	7
NMTAP	18	288	6
NMTAP	19	0	5
NMTAP	19	96	4
NMTAP	19	192	3
NMSTR	19	288	1
NMSXL	19	288	1	96	240	5
EXHLD	21	0	0	144
EXHLD	21	0	7	144
EXTAP	21	240	1
EXTAP	21	240	3
EXTAP	21	336	4
EXTAP	21	336	5
EXTAP	22	0	4
EXTAP	22	0	5
NMTAP	22	96	6
NMTAP	22	96	7
EXTAP	22	192	4
EXTAP	22	192	5
EXTAP	22	264	3
EXTAP	22	264	4
EXTAP	22	336	2
EXTAP	22	336	3
EXTAP	23	0	2
EXHLD	23	0	3	384
NMTAP	23	240	0
NMTAP	23	312	1
NMTAP	24	0	2
NMTAP	24	96	2
NMTAP	24	96	3
NMTAP	24	192	2
NMTAP	24	192	3
BXTAP	24	288	0
BXTAP	24	288	1
NMTAP	25	0	0
NMTAP	25	0	1
NMTAP	25	96	4
NMTAP	25	96	5
NMTAP	25	192	6
NMTAP	25	192	7
NMTAP	25	288	2
NMTAP	25	288	3
NMSTR	26	0	1
NMSCR	26	0	1	96	48	4
NMSTR	26	192	6
NMSCL	26	192	6	96	48	3
NMSTR	27	0	0
NMSI_	27	0	0	96	48	4
NMTAP	27	192	5
NMTAP	27	288	5
NMTTP	28	0	3	E	0	M1
NMTTP	28	48	3	B	0	M1
NMTTP	28	96	4	B	0	M1
NMTTP	28	144	5	B	0	M1
BXTAP	28	240	1
BXTAP	28	240	7
BXTAP	28	288	1
BXTAP	28	288	7
NMTAP	29	0	0
NMTAP	29	48	0
NMTAP	29	96	0
NMTAP	29	192	2
NMTAP	29	192	3
NMTAP	29	288	4
NMTAP	29	288	5
NMSTR	30	0	6
NMSCL	30	0	6	96	48	4
NMTAP	30	0	7
NMSTR	30	192	1
NMSCR	30	192	1	96	48	3
NMTAP	31	0	7
NMTAP	31	96	0
NMTAP	31	96	1
NMTAP	31	192	2
NMTAP	31	192	3
NMTAP	31	288	4
NMTAP	31	288	5
NMTAP	32	0	6
NMTAP	32	0	7
NMHLD	32	96	6	96
NMHLD	32	192	4	96
NMTAP	32	288	3
NMTAP	33	0	0
NMTAP	33	0	1
NMTAP	33	96	3
NMTAP	33	96	4
NMTAP	33	192	6
NMTAP	33	192	7
NMTAP	33	288	3
NMTAP	33	288	4
NMTAP	34	0	0
NMTAP	34	0	1
NMTAP	34	96	2
NMTAP	34	96	3
NMTAP	34	192	4
NMTAP	34	192	5
NMTAP	34	288	6
NMTAP	34	288	7
NMTAP	35	0	0
NMTAP	35	0	5
NMTAP	35	96	2
NMTAP	35	96	3
NMTAP	35	192	0
NMTAP	35	192	1
NMTAP	35	288	3
NMTAP	35	288	4
NMTAP	36	0	5
NMTAP	36	0	7
NMTAP	36	96	3
NMTAP	36	96	4
NMTAP	36	192	0
NMTAP	36	192	2
NMTAP	36	288	3
NMTAP	36	288	4
NMSTR	37	0	1
NMSXR	37	0	1	96	480	4
NMSTR	37	0	6
NMSXL	37	0	6	96	480	3
NMHLD	39	0	1	288
NMTAP	39	96	3
NMTAP	39	192	3
NMTAP	39	288	3
NMHLD	40	0	5	288
NMTAP	40	96	7
NMTAP	40	192	7
NMTAP	40	288	7
NMHLD	41	0	1	768
NMTAP	41	96	3
NMTAP	41	192	2
NMTAP	41	288	0
NMTAP	42	0	7
NMTAP	42	96	6
NMTAP	42	192	5
NMTAP	42	288	4
NMTAP	43	0	3
NMTAP	43	48	3
NMTAP	43	96	2
NMTAP	43	144	2
NMTAP	43	192	5
NMTAP	43	240	5
NMSTR	43	288	3
NMSCL	43	288	3	96	192	6
EXTAP	45	0	2
EXTAP	45	0	3
EXTAP	45	96	2
EXTAP	45	96	3
NMHLD	45	192	1	72
NMHLD	45	264	2	72
NMTAP	45	336	3
EXTAP	46	0	3
EXTAP	46	96	4
EXTAP	46	96	5
NMHLD	46	192	6	72
NMHLD	46	264	5	72
NMTAP	46	336	4
EXTAP	47	0	4
EXTAP	47	96	3
EXTAP	47	96	4
NMHLD	47	192	1	72
NMHLD	47	264	2	72
NMTAP	47	336	3
EXSTR	48	0	3
NMSUR	48	0	3	96	192	5
EXTAP	49	0	6
EXTAP	49	96	6
EXTAP	49	96	7
NMHLD	49	192	5	72
NMHLD	49	264	6	72
NMTAP	49	336	7
EXTAP	50	0	7
EXTAP	50	96	0
EXTAP	50	96	1
NMHLD	50	192	2	72
NMHLD	50	264	1	72
NMTAP	50	336	0
EXTAP	51	0	0
NMTAP	51	96	6
NMTAP	51	96	7
NMTAP	51	192	4
NMTAP	51	192	5
NMTAP	51	288	2
NMTAP	51	288	3
NMTAP	52	0	0
NMTAP	52	0	5
NMTAP	52	96	1
NMTAP	52	96	4
NMTAP	52	192	2
NMTAP	52	192	3
BRTAP	52	288	6
BRTAP	52	288	7
NMTAP	53	0	0
NMTAP	53	0	5
NMTAP	53	96	4
NMTAP	53	144	4
NMTAP	53	192	2
NMTAP	53	240	2
NMTAP	53	288	3
NMTAP	54	0	1
NMTAP	54	48	1
NMTAP	54	96	0
NMTAP	54	144	0
NMSTR	54	192	1
NMSI_	54	192	1	96	48	3
CNSI_	54	336	3	0	48	0
CNSI_	55	0	0	0	192	4
NMTAP	55	288	7
NMTAP	56	0	0
NMTAP	56	48	0
NMTAP	56	96	6
NMTAP	56	144	6
NMTAP	56	192	7
NMTAP	56	288	5
NMTAP	56	336	5
NMTAP	57	0	3
NMTAP	57	48	3
NMTAP	57	96	4
NMHLD	57	192	2	72
NMHLD	57	264	1	72
NMTAP	57	336	0
NMTAP	58	0	0
NMTAP	58	96	6
NMHLD	58	192	5	72
NMHLD	58	264	6	72
NMTAP	58	336	7
NMTAP	59	0	7
NMTAP	59	96	1
NMTAP	59	144	1
NMTAP	59	192	6
NMTAP	59	240	6
NMTAP	59	288	0
NMTAP	59	336	0
NMSTR	60	0	7
NMSCL	60	0	7	96	96	4
BXTAP	60	288	2
BXTAP	60	288	4
NMTAP	61	0	1
NMTAP	61	0	5
NMTAP	61	48	0
NMTAP	61	96	7
NMTAP	61	192	6
NMSTR	61	192	7
NMSI_	61	192	7	96	48	2
NMTAP	62	0	6
NMTAP	62	48	7
NMTAP	62	96	0
NMSTR	62	192	0
NMSI_	62	192	0	96	48	5
NMTAP	62	192	1
NMSTR	63	0	1
NMSCR	63	0	1	96	96	5
NMTAP	64	0	6
NMTAP	64	0	7
NMTAP	64	96	4
NMTAP	64	96	5
NMTAP	64	192	2
NMTAP	64	192	3
NMTAP	64	288	0
NMTAP	64	288	1
NMTAP	65	0	2
NMTAP	65	0	6
NMTAP	65	48	3
NMTAP	65	96	4
NMSTR	65	192	4
NMSI_	65	192	4	96	48	1
NMTAP	65	192	5
NMTAP	66	0	5
NMTAP	66	48	4
NMTAP	66	96	3
NMTAP	66	192	2
NMSTR	66	192	3
NMSI_	66	192	3	96	48	6
NMHLD	67	0	1	144
NMTAP	67	144	0
NMSTR	67	192	0
NMSCR	67	192	0	96	96	4
NMTAP	68	96	2
NMTAP	68	144	2
EXTAP	68	240	1
EXTAP	68	240	5
EXTAP	68	336	2
EXTAP	68	336	6
EXTAP	69	0	2
EXTAP	69	0	6
NMTAP	69	96	0
NMTAP	69	96	5
NMTAP	69	192	6
NMSTR	69	192	7
NMSI_	69	192	7	96	48	2
NMTAP	70	0	6
NMTAP	70	48	7
NMTAP	70	96	0
NMSTR	70	192	0
NMSI_	70	192	0	96	48	5
NMTAP	70	192	1
NMSTR	71	0	1
NMSCR	71	0	1	96	96	5
NMTAP	72	0	6
NMTAP	72	0	7
NMTAP	72	96	4
NMTAP	72	96	5
NMTAP	72	192	2
NMTAP	72	192	3
NMTAP	72	288	1
NMTAP	72	288	4
NMTAP	73	0	6
NMTAP	73	48	6
NMTAP	73	96	7
NMTAP	73	144	7
NMTAP	73	192	5
NMTAP	73	240	5
NMTAP	73	288	4
NMTAP	73	288	6
NMTAP	74	0	2
NMTAP	74	48	2
NMTAP	74	96	3
NMTAP	74	144	3
NMTAP	74	192	1
NMTAP	74	240	1
NMTAP	74	288	0
NMTAP	74	288	2
NMTAP	75	0	5
NMTAP	75	48	5
NMTAP	75	96	4
NMTAP	75	144	4
NMTAP	75	192	6
NMTAP	75	240	6
NMTAP	75	288	0
NMTAP	75	336	0
NMSTR	76	0	1
BRSCL	76	0	1	96	288	2
NMTAP	76	0	5
NMHLD	78	0	4	384
NMHLD	79	0	1	768
NMTAP	79	192	3
NMHLD	80	0	3	384
NMTAP	81	192	0
NMHLD	82	0	0	384
NMTAP	82	192	7
NMHLD	83	0	6	576
NMTAP	83	192	7
NMHLD	84	0	7	192
BRSTR	85	0	0
BRSI_	85	0	0	96	96	3
BRSTR	85	0	5
BRSI_	85	0	5	96	96	2
EXTAP	86	0	1
EXTAP	86	0	4
NMTAP	86	96	6
NMTAP	86	96	7
EXTAP	86	192	4
EXTAP	86	192	5
EXTAP	86	240	4
EXTAP	86	240	5
EXTAP	86	336	2
EXTAP	86	336	7
EXTAP	87	0	2
EXTAP	87	0	7
NMTAP	87	96	0
NMTAP	87	96	1
EXTAP	87	192	2
EXTAP	87	192	3
EXTAP	87	264	1
EXTAP	87	264	4
EXTAP	87	336	0
EXTAP	87	336	5
EXHLD	88	0	0	144
EXHLD	88	0	5	144
NMTAP	88	240	6
NMTAP	88	240	7
NMTAP	88	312	0
NMTAP	88	312	7
NMHLD	89	0	0	96
NMHLD	89	0	1	96
EXTAP	89	192	2
EXTAP	89	192	7
BXTAP	89	288	0
BXTAP	89	288	1
NMSTR	90	0	0
NMSI_	90	0	0	96	48	5
NMSTR	90	0	1
NMSI_	90	0	1	96	48	4
NMSTR	90	192	6
NMSI_	90	192	6	96	48	3
NMSTR	90	192	7
NMSI_	90	192	7	96	48	2
NMSTR	91	0	0
NMSI_	91	0	0	96	48	4
NMSTR	91	0	1
NMSI_	91	0	1	96	48	5
NMSTR	91	192	6
NMSI_	91	192	6	96	48	2
NMSTR	91	192	7
NMSI_	91	192	7	96	48	3
NMTAP	92	0	0
NMTAP	92	0	1
NMTAP	92	96	6
NMTAP	92	96	7
NMTAP	92	192	4
NMTAP	92	192	5
NMTAP	92	288	2
NMTAP	92	288	3
BXTAP	93	0	1
BXTAP	93	0	4
BXTAP	93	96	3
BXTAP	93	96	6
BXTAP	93	192	0
BXTAP	93	192	1
NMTAP	94	0	2
NMTAP	94	48	2
NMTAP	94	96	2
NMTAP	94	96	3
NMTAP	94	192	5
NMTAP	94	240	5
NMTAP	94	288	4
NMTAP	94	288	5
NMTAP	95	0	1
NMTAP	95	48	1
NMTAP	95	96	1
NMTAP	95	96	3
NMTAP	95	192	6
NMTAP	95	240	6
NMTAP	95	288	4
NMTAP	95	288	6
NMTAP	96	0	0
NMTAP	96	48	0
NMTAP	96	96	0
NMTAP	96	96	3
NMTAP	96	192	7
NMTAP	96	240	7
NMTAP	96	288	4
NMTAP	96	288	7
NMSTR	97	0	0
NMSCR	97	0	0	96	96	4
NMHLD	97	0	6	192
NMTAP	98	0	6
NMTAP	98	48	6
NMTAP	98	96	7
NMTAP	98	144	7
NMTAP	98	192	5
NMTAP	98	240	5
NMTAP	98	288	0
NMTAP	99	0	1
NMTAP	99	48	1
NMTAP	99	96	3
NMTAP	99	144	3
NMTAP	99	192	2
NMTAP	99	240	2
NMTAP	99	288	5
EXTAP	100	0	0
EXTAP	100	24	7
EXTAP	100	48	0
EXTAP	100	72	7
EXTAP	100	96	0
NMSTR	100	192	2
NMSLR	100	192	2	96	192	7
NMSTR	100	192	5
NMSLL	100	192	5	96	192	0
BRTAP	101	288	1
BRTAP	101	288	6
NMSTR	102	0	2
NMSI_	102	0	2	96	48	7
NMTAP	102	0	4
NMSTR	102	192	5
NMSI_	102	192	5	96	48	0
NMTAP	103	0	1
NMTAP	103	96	0
NMTAP	103	96	7
NMTAP	103	192	4
NMTAP	103	192	5
NMTAP	103	288	2
NMTAP	103	288	3
NMTAP	104	0	0
NMTAP	104	0	1
NMSTR	104	96	6
NMSCL	104	96	6	96	48	3
NMSTR	104	96	7
NMSUL	104	96	7	96	48	3
NMTAP	105	0	2
NMTAP	105	96	0
NMTAP	105	96	1
NMTAP	105	192	0
NMTAP	105	192	1
NMTAP	105	288	2
NMTAP	105	288	7
NMTAP	106	0	1
BRSTR	106	0	5
NMSCR	106	0	5	96	48	0
EXTAP	106	144	2
EXSTR	106	192	2
NMSCL	106	192	2	96	48	7
EXTAP	106	336	5
EXSTR	107	0	5
NMSI_	107	0	5	96	48	0
EXTAP	107	144	2
EXSTR	107	192	2
NMSI_	107	192	2	96	48	7
NMTAP	108	0	4
NMTAP	108	48	4
NMTAP	108	96	1
NMTAP	108	144	1
NMTAP	108	192	5
NMTAP	108	240	5
NMTAP	108	288	0
NMTAP	108	336	0
NMTAP	109	0	6
NMTAP	109	24	7
NMTAP	109	48	6
NMTAP	109	72	7
BXTAP	109	96	6
NMTAP	109	192	1
NMTAP	109	216	0
NMTAP	109	240	1
NMTAP	109	264	0
BXTAP	109	288	1
EXHLD	110	0	0	96
EXTAP	110	0	7
BXTAP	110	96	2
EXTAP	110	192	0
EXHLD	110	192	7	96
BXTAP	110	288	5
NMSTR	111	0	0
NMSXR	111	0	0	96	1440	3
NMSTR	111	0	7
NMSXL	111	0	7	96	1440	4

T_REC_TAP	352
T_REC_BRK	4
T_REC_XTP	66
T_REC_BXX	20
T_REC_HLD	36
T_REC_XHO	9
T_REC_BHO	0
T_REC_BXH	0
T_REC_STR	39
T_REC_BST	3
T_REC_XST	4
T_REC_XBS	0
T_REC_TTP	13
T_REC_THO	1
T_REC_SLD	43
T_REC_BSL	3
T_REC_ALL	593
T_NUM_TAP	474
T_NUM_BRK	30
T_NUM_HLD	46
T_NUM_SLD	43
T_NUM_ALL	593
T_JUDGE_TAP	501
T_JUDGE_HLD	237
T_JUDGE_SLD	46
T_JUDGE_ALL	784
TTM_EACHPAIRS	139
TTM_SCR_TAP	237000
TTM_SCR_BRK	78000
TTM_SCR_HLD	46000
TTM_SCR_SLD	64500
TTM_SCR_ALL	425500
TTM_SCR_S	409850
TTM_SCR_SS	422500
TTM_RAT_ACV	10071

