VERSION	0.00.00	1.04.00
FES_MODE	0
BPM_DEF	145.000	145.000	145.000	145.000
MET_DEF	4	4
RESOLUTION	384
CLK_DEF	384
COMPATIBLE_CODE	MA2

BPM	0	0	145.000
MET	0	0	4	4

NMTAP	1	0	2
NMTAP	1	12	3
NMHLD	1	24	4	168
NMTAP	2	0	5
NMTAP	2	12	4
NMHLD	2	24	3	168
NMTTP	2	336	3	E	0	M1
NMTTP	2	352	3	B	0	M1
NMTTP	2	368	4	B	0	M1
NMTTP	3	0	5	E	0	M1
NMTHO	3	144	0	240	C	0	M1
NMTAP	4	144	5
NMTAP	4	192	4
NMTAP	4	240	3
NMTAP	4	288	2
NMTAP	4	336	1
NMTAP	5	0	1
NMTAP	5	12	2
NMHLD	5	24	3	360
NMTTP	5	192	2	B	0	M1
NMTTP	5	192	3	B	0	M1
NMTAP	6	0	6
NMTAP	6	12	5
NMHLD	6	24	4	360
NMTTP	6	192	4	B	0	M1
NMTTP	6	192	5	B	0	M1
NMTHO	7	0	0	288	C	0	M1
NMTAP	8	192	0
NMTAP	8	192	7
NMTAP	8	288	2
NMTAP	8	288	5
NMTAP	9	0	3
NMHLD	9	0	6	72
NMHLD	9	72	5	72
NMSTR	9	144	4
NMSCR	9	144	4	96	48	6
NMTAP	9	240	3
NMTAP	9	288	2
NMTAP	9	336	1
NMHLD	10	0	1	72
NMHLD	10	72	2	72
NMSTR	10	144	3
NMSCL	10	144	3	96	48	1
NMTAP	10	240	0
NMTAP	10	288	7
NMTAP	10	336	6
NMHLD	11	0	6	72
NMHLD	11	72	5	72
NMSTR	11	144	4
NMSCR	11	144	4	96	48	6
NMTAP	11	240	2
NMSTR	11	288	2
NMSUL	11	288	2	96	192	7
NMHLD	12	0	6	192
NMTAP	12	288	6
NMTAP	12	288	7
NMHLD	13	0	6	72
NMHLD	13	72	5	72
NMSTR	13	144	4
NMSLR	13	144	4	96	144	3
NMTAP	13	240	3
NMTAP	13	288	2
NMTAP	13	336	1
NMHLD	14	0	1	72
NMHLD	14	72	2	72
NMSTR	14	144	3
NMSLL	14	144	3	96	144	4
NMTAP	14	240	4
NMTAP	14	288	5
NMTAP	14	336	6
NMSTR	15	0	7
NMSCL	15	0	7	96	96	4
NMTAP	15	96	4
NMSTR	15	192	0
NMSCR	15	192	0	96	96	3
NMTAP	15	288	3
NMTAP	15	336	4
NMTAP	16	0	4
NMTAP	16	72	3
NMTAP	16	72	5
NMHLD	16	144	2	72
NMHLD	16	144	6	72
NMTAP	16	240	2
NMTAP	16	240	6
NMTAP	16	288	1
NMTAP	16	336	0
BRTAP	17	0	1
BRTAP	17	0	7
NMTAP	17	48	5
NMTAP	17	72	3
NMTAP	17	120	1
NMTAP	17	120	7
NMTAP	17	168	2
NMTAP	17	168	6
NMTAP	17	216	3
NMTAP	17	240	5
NMTAP	17	288	2
NMTAP	17	288	4
NMTAP	17	336	1
NMTAP	17	336	3
NMTAP	18	0	1
NMTAP	18	24	0
NMTAP	18	48	1
NMSTR	18	72	0
NMSI_	18	72	0	96	48	4
NMTAP	18	120	1
NMTAP	18	120	7
NMTAP	18	168	6
NMTAP	18	216	5
NMTAP	18	240	5
EXTAP	18	288	4
EXTAP	18	288	6
NMTAP	19	0	6
NMTAP	19	24	7
NMTAP	19	48	6
NMSTR	19	72	7
NMSI_	19	72	7	96	48	3
NMTAP	19	120	0
NMTAP	19	120	6
NMTAP	19	168	1
NMTAP	19	216	2
NMTAP	19	240	2
NMTAP	19	288	3
NMTAP	19	288	4
NMTAP	19	336	4
NMTAP	19	336	5
NMTAP	20	0	6
NMTAP	20	24	7
NMTAP	20	48	6
NMTAP	20	72	7
NMTAP	20	120	0
NMTAP	20	120	6
NMTAP	20	168	1
NMTAP	20	168	5
NMTAP	20	216	2
NMTAP	20	240	4
EXTAP	20	288	0
EXTAP	20	288	6
NMTAP	21	0	5
NMTAP	21	24	4
NMTAP	21	48	5
NMSTR	21	72	4
NMSI_	21	72	4	96	48	0
NMTAP	21	120	3
NMTAP	21	120	5
NMTAP	21	168	2
NMTAP	21	216	1
NMTAP	21	240	1
NMTAP	21	288	2
NMTAP	21	288	7
NMTAP	21	336	3
NMTAP	21	336	6
NMTAP	22	0	5
NMTAP	22	24	4
NMTAP	22	48	5
NMSTR	22	72	4
BRSI_	22	72	4	96	48	0
NMTAP	22	120	3
NMTAP	22	120	5
NMTAP	22	168	6
NMTAP	22	216	7
NMHLD	22	240	7	48
NMTAP	22	288	1
NMTAP	22	312	0
NMTAP	22	336	1
NMTAP	22	360	0
NMTAP	23	0	2
NMTAP	23	24	3
NMTAP	23	48	2
NMTAP	23	72	3
NMTAP	23	120	2
NMTAP	23	120	4
NMTAP	23	168	1
NMTAP	23	168	5
NMTAP	23	216	6
NMTAP	23	240	0
NMTAP	23	288	1
NMTAP	23	288	5
NMTAP	23	336	2
NMTAP	23	360	3
BRTAP	24	0	1
BRTAP	24	72	0
BRTAP	24	72	7
BRSTR	24	144	4
NMSCL	24	144	4	96	48	2
BRTAP	24	144	6
NMTAP	24	240	5
NMTAP	24	288	5
NMTAP	25	0	2
NMTAP	25	0	3
NMTAP	25	72	4
NMTAP	25	96	3
NMSTR	25	144	4
NMSUR	25	144	4	96	96	2
NMSTR	25	144	5
NMSCL	25	144	5	96	48	3
NMHLD	26	0	3	72
NMHLD	26	72	4	72
NMTAP	26	144	5
NMTAP	26	240	4
NMTAP	26	240	6
NMTAP	26	288	4
NMTAP	26	288	6
NMTAP	27	0	4
NMTAP	27	0	5
NMTAP	27	72	3
NMTAP	27	96	4
NMSTR	27	144	2
NMSCR	27	144	2	96	48	4
NMSTR	27	144	3
NMSUL	27	144	3	96	96	5
NMHLD	28	0	4	72
NMHLD	28	72	3	72
NMTAP	28	144	2
NMTAP	28	192	2
NMTAP	28	240	3
NMTAP	28	288	2
NMTAP	28	288	4
NMTAP	28	336	3
NMTAP	29	0	4
NMTAP	29	0	5
NMTAP	29	72	3
NMTAP	29	96	4
NMSTR	29	144	2
NMSLL	29	144	2	96	96	4
NMSTR	29	144	3
NMSCR	29	144	3	96	48	5
NMHLD	30	0	5	72
NMHLD	30	72	6	72
NMTAP	30	144	7
NMTAP	30	240	6
NMTAP	30	240	7
NMSTR	30	288	6
NMSI_	30	288	6	96	96	4
NMTAP	30	288	7
NMTAP	31	0	0
NMTAP	31	96	1
CNSI_	31	96	4	0	96	0
CNSI_	31	192	0	0	96	2
NMTAP	31	192	2
NMTAP	31	288	3
NMSTR	31	336	3
BRSCR	31	336	3	96	48	4
BRTAP	32	48	4
CNSI_	32	96	4	0	48	0
CNSI_	32	144	0	0	72	2
NMTAP	32	288	2
NMTAP	32	288	4
NMHLD	33	0	1	168
NMTTP	33	0	3	B	0	M1
NMTTP	33	0	4	B	0	M1
NMTTP	33	0	4	E	1	M1
NMTAP	33	168	0
NMSTR	33	192	1
NMSI_	33	192	1	96	48	4
NMTAP	33	240	2
NMTAP	33	288	6
NMTAP	33	336	6
NMTTP	34	0	3	B	0	M1
NMTTP	34	0	4	B	0	M1
NMTTP	34	0	4	E	1	M1
NMHLD	34	0	5	168
NMTAP	34	168	7
NMTAP	34	192	6
NMTAP	34	240	0
NMTAP	34	240	5
NMSTR	34	288	1
NMSI_	34	288	1	96	48	4
NMTAP	34	336	2
NMTAP	35	0	4
NMTAP	35	72	7
NMTAP	35	144	3
NMSTR	35	144	6
NMSI_	35	144	6	96	48	3
NMTAP	35	240	0
NMTAP	35	288	0
CNSCR	35	288	3	0	48	5
NMHLD	36	0	6	48
NMHLD	36	0	7	48
NMHLD	36	72	6	48
NMHLD	36	72	7	48
NMTAP	36	144	0
NMSTR	36	144	5
NMSCL	36	144	5	96	48	3
NMTAP	36	240	2
NMTAP	36	288	2
NMTAP	36	336	1
NMHLD	37	0	1	168
NMTTP	37	0	3	B	1	M1
NMTTP	37	0	3	E	0	M1
NMTTP	37	0	4	E	0	M1
NMTAP	37	168	0
NMSTR	37	192	1
NMSI_	37	192	1	96	48	4
NMTAP	37	240	2
NMTAP	37	288	7
NMTAP	37	336	5
NMTTP	38	0	4	B	1	M1
NMTTP	38	0	4	E	0	M1
NMTTP	38	0	5	E	0	M1
NMHLD	38	0	6	168
NMTAP	38	168	7
NMTAP	38	192	6
EXTAP	38	240	0
NMTAP	38	240	5
NMTAP	38	288	1
NMTAP	38	288	4
NMTAP	38	336	2
NMTAP	39	0	3
NMHLD	39	0	5	72
NMTAP	39	72	4
NMSTR	39	144	3
NMSI_	39	144	3	96	48	0
NMSTR	39	144	6
NMSCL	39	144	6	96	48	4
CNSCR	39	288	0	0	48	2
CNSI_	39	288	4	0	48	7
NMTTP	40	0	0	C	0	M1
NMTTP	40	0	0	E	0	M1
NMTTP	40	0	4	E	0	M1
NMTAP	40	96	2
NMTAP	40	96	5
NMTAP	40	144	1
NMTAP	40	144	6
NMTAP	40	192	0
NMTAP	40	240	1
NMTAP	40	240	7
NMTAP	40	288	2
NMTAP	40	288	6
NMTAP	40	336	3
NMTAP	41	0	3
NMSTR	41	0	5
NMSI_	41	0	5	96	48	3
NMTAP	41	48	2
NMTAP	41	96	1
NMTAP	41	144	0
NMTAP	41	168	0
EXSTR	41	192	3
NMSCR	41	192	3	96	48	6
NMTAP	41	240	1
NMTAP	41	288	2
NMTAP	41	288	3
NMTAP	41	336	1
NMSTR	42	0	2
NMSI_	42	0	2	96	48	4
NMTAP	42	0	7
NMTAP	42	48	7
NMTAP	42	96	6
NMTAP	42	144	5
NMTAP	42	168	5
EXSTR	42	192	4
NMSCL	42	192	4	96	48	1
NMTAP	42	240	6
NMTAP	42	288	4
NMTAP	42	288	5
NMTAP	42	336	6
NMSTR	43	0	5
NMSCL	43	0	5	96	48	3
NMTAP	43	48	5
NMSTR	43	96	1
NMSCL	43	96	1	96	48	7
NMTAP	43	144	1
NMSTR	43	192	6
NMSI_	43	192	6	96	48	2
NMTAP	43	240	6
NMSTR	43	288	4
NMSI_	43	288	4	96	48	0
NMSI_	43	288	4	96	48	6
CNSI_	43	336	2	0	48	4
NMTAP	43	336	4
EXTAP	44	96	0
EXTAP	44	96	6
NMTAP	44	192	0
NMTAP	44	240	0
NMTAP	44	288	1
NMTAP	44	288	7
NMTAP	44	336	2
NMSTR	45	0	2
NMSI_	45	0	2	96	48	4
NMTAP	45	0	5
NMTAP	45	48	6
NMTAP	45	96	7
NMTAP	45	144	0
NMTAP	45	168	0
EXSTR	45	192	4
NMSCL	45	192	4	96	48	1
NMTAP	45	240	6
NMTAP	45	288	4
NMSTR	45	288	5
NMSI_	45	288	5	96	48	7
NMTAP	45	336	6
NMSTR	46	0	0
NMSI_	46	0	0	96	48	4
NMTAP	46	0	5
NMTAP	46	48	1
NMTAP	46	96	0
NMTAP	46	96	5
NMTAP	46	144	6
NMTAP	46	168	6
EXTAP	46	192	4
NMTAP	46	240	4
NMTAP	46	240	5
NMTAP	46	288	3
NMTAP	46	288	4
NMTAP	46	336	2
NMTAP	46	336	3
NMSTR	47	0	2
NMSLR	47	0	2	96	120	0
NMTAP	47	0	3
NMTAP	47	96	0
NMTAP	47	144	7
NMTAP	47	192	6
NMSTR	47	240	5
NMSCR	47	240	5	96	192	3
NMTAP	47	288	1
NMHLD	47	336	2	1536
NMTTP	49	0	1	E	0	M1
NMTTP	49	12	1	B	0	M1
NMTTP	49	192	7	E	0	M1
NMTTP	49	204	6	B	0	M1
NMTTP	50	0	2	B	0	M1
NMTTP	50	12	3	E	0	M1
NMTTP	50	192	5	B	0	M1
NMTTP	50	204	5	E	0	M1
NMSTR	51	0	3
NMSCR	51	0	3	96	96	5
NMSTR	52	192	3
NMSCL	52	192	3	96	48	0
NMTAP	52	192	5
NMSTR	52	288	7
BRSI_	52	288	7	96	48	3
BXTAP	53	0	0
BRTAP	53	0	7
NMTAP	53	72	1
NMTAP	53	96	1
EXSTR	53	96	3
NMSI_	53	96	3	96	48	7
NMTAP	53	144	2
NMTAP	53	144	4
NMSTR	53	192	3
NMSI_	53	192	3	96	48	0
NMTAP	53	192	5
NMTAP	53	240	4
NMTAP	53	288	2
NMTAP	53	288	3
NMTAP	53	336	1
EXTAP	54	0	0
NMTAP	54	0	1
NMTAP	54	72	1
NMTAP	54	96	0
NMTAP	54	144	2
NMTAP	54	144	7
NMSTR	54	192	6
NMSCR	54	192	6	96	48	1
NMTAP	54	240	5
NMTAP	54	288	4
NMTAP	54	336	3
NMHLD	55	0	2	72
NMTAP	55	72	3
NMSTR	55	96	3
NMSI_	55	96	3	96	48	7
NMTAP	55	144	2
NMTAP	55	144	4
NMSTR	55	192	3
NMSCL	55	192	3	96	32	0
NMTAP	55	192	5
NMTAP	55	240	4
NMHLD	55	288	2	96
NMTAP	55	288	3
EXTAP	55	336	7
EXTAP	55	352	6
EXTAP	55	368	5
EXTAP	56	0	4
NMTAP	56	72	1
NMTAP	56	96	0
NMTAP	56	144	2
NMTAP	56	144	7
NMSTR	56	192	3
NMSI_	56	192	3	96	48	7
NMSTR	56	192	6
NMSI_	56	192	6	96	48	4
NMTAP	56	288	3
NMTAP	56	288	6
BRTAP	57	0	0
NMTAP	57	72	1
NMTAP	57	96	1
NMSTR	57	96	3
NMSI_	57	96	3	96	48	7
NMTAP	57	144	2
NMTAP	57	144	4
NMSTR	57	192	3
NMSI_	57	192	3	96	48	0
NMTAP	57	192	5
NMTAP	57	240	4
NMSTR	57	288	2
NMSI_	57	288	2	96	48	4
NMTAP	57	288	3
NMTAP	57	336	1
NMTAP	58	0	2
NMTAP	58	0	7
NMTAP	58	72	5
NMTAP	58	96	5
NMTAP	58	144	4
NMTAP	58	144	6
NMSTR	58	192	3
NMSCR	58	192	3	96	72	7
NMTAP	58	192	5
NMTAP	58	240	2
NMTAP	58	240	4
NMTAP	58	288	1
NMTAP	58	336	1
NMTAP	59	0	1
NMTAP	59	24	0
NMTAP	59	48	2
NMTAP	59	96	6
NMTAP	59	120	7
NMTAP	59	144	5
NMTAP	59	192	2
NMTAP	59	216	3
NMTAP	59	240	1
NMTAP	59	288	5
NMTAP	59	312	3
NMHLD	59	336	7	48
NMTAP	60	0	4
NMTAP	60	24	6
NMTAP	60	48	3
NMTAP	60	72	5
NMTAP	60	96	2
NMTAP	60	120	4
NMTAP	60	144	1
NMTAP	60	168	3
NMSTR	60	192	0
NMSCR	60	192	0	96	48	3
NMSTR	60	192	4
NMSCR	60	192	4	96	48	7
NMTAP	60	288	0
NMTAP	60	288	4
NMTAP	61	0	6
NMTAP	61	24	4
NMTAP	61	48	6
NMTAP	61	72	4
NMTAP	61	96	5
NMHLD	61	120	5	48
NMTAP	61	168	4
NMSTR	61	192	4
NMSCR	61	192	4	96	48	7
NMTAP	61	240	2
NMTAP	61	240	6
NMTAP	61	288	3
NMTAP	61	288	4
NMTAP	61	336	2
NMTAP	62	0	1
NMTAP	62	24	1
NMTAP	62	48	0
NMHLD	62	72	2	48
NMTAP	62	120	4
NMTAP	62	144	4
NMTAP	62	168	3
NMSTR	62	192	5
NMSI_	62	192	5	96	48	3
NMTAP	62	240	4
NMTAP	62	240	6
NMSTR	62	288	5
NMSI_	62	288	5	96	48	1
NMTAP	62	336	0
BRTAP	63	0	1
BRTAP	63	0	5
NMTAP	63	96	2
NMTAP	63	96	7
NMTAP	63	144	3
NMTAP	63	144	6
NMTAP	63	192	4
NMTAP	63	192	5
NMTAP	63	240	3
NMTAP	63	256	4
NMTAP	63	272	2
NMTAP	63	288	3
NMHLD	63	336	1	96
NMHLD	63	336	5	96
NMTAP	64	96	1
NMTAP	64	96	5
NMTAP	64	144	7
NMSTR	64	192	0
NMSI_	64	192	0	96	48	2
NMSTR	64	192	6
NMSI_	64	192	6	96	48	2
NMSTR	64	288	0
NMSI_	64	288	0	96	48	4
NMTAP	64	288	6
BRTAP	65	0	0
BRTAP	65	0	7
NMTAP	65	72	6
EXSTR	65	96	4
NMSI_	65	96	4	96	48	0
NMTAP	65	96	6
NMTAP	65	144	3
NMTAP	65	144	5
NMTAP	65	192	2
NMSTR	65	192	4
NMSI_	65	192	4	96	48	7
NMTAP	65	240	3
NMTAP	65	288	4
NMTAP	65	288	5
NMTAP	65	336	6
NMTAP	66	0	6
EXTAP	66	0	7
NMTAP	66	72	0
NMTAP	66	72	5
NMTAP	66	96	0
NMTAP	66	96	5
NMTAP	66	144	1
NMTAP	66	144	4
NMSTR	66	192	2
NMSCL	66	192	2	96	48	7
NMTAP	66	192	3
NMTAP	66	264	3
NMTAP	66	288	2
NMTAP	66	336	6
NMSTR	67	0	5
BRSLR	67	0	5	96	96	3
NMSTR	67	96	3
BRSI_	67	96	3	96	48	5
NMTAP	67	144	2
NMTAP	67	192	1
NMSTR	67	240	0
BRSF_	67	240	0	96	48	4
CNSCR	67	240	5	0	24	7
NMTAP	68	96	3
NMTAP	68	96	5
NMSTR	68	144	2
NMSI_	68	144	2	96	48	7
NMSTR	68	144	6
NMSI_	68	144	6	96	48	3
NMSTR	68	240	2
BRSCR	68	240	2	96	624	2
NMSTR	68	240	6
BRSCR	68	240	6	96	624	6
BRTAP	68	336	2
BRTAP	68	336	6
NMTAP	70	336	4
NMTAP	70	360	3
NMHLD	71	0	2	192
NMTAP	71	96	4
NMTAP	71	144	4
NMTAP	71	192	6
NMHLD	71	240	6	96
NMTAP	71	336	4
NMTAP	71	360	3
NMHLD	72	0	2	96
NMTAP	72	96	3
NMTAP	72	144	3
NMTAP	72	192	4
NMTAP	72	240	4
NMTAP	72	288	3
NMTAP	72	288	5
NMTAP	72	336	3
NMTAP	72	336	5
NMSTR	73	0	2
NMSI_	73	0	2	96	96	7
NMTAP	73	48	2
NMTAP	73	96	7
NMTAP	73	144	6
NMSTR	73	192	5
NMSI_	73	192	5	96	96	0
NMTAP	73	240	5
NMTAP	73	288	1
NMTAP	73	336	2
NMSTR	74	0	3
NMSI_	74	0	3	96	96	7
NMTAP	74	48	3
NMTAP	74	96	6
NMTAP	74	144	5
NMSTR	74	192	4
NMSI_	74	192	4	96	96	0
NMTAP	74	240	4
NMTAP	74	288	1
NMTAP	74	336	2
NMSTR	75	0	3
NMSCR	75	0	3	96	96	6
NMTAP	75	48	3
NMTAP	75	96	7
NMTAP	75	144	7
NMTAP	75	192	0
CNSI_	75	192	6	0	96	2
NMTAP	75	240	0
NMTAP	75	288	7
NMTAP	75	336	7
NMSTR	76	0	2
NMSI_	76	0	2	96	96	7
NMTAP	76	0	7
NMTAP	76	48	2
NMTAP	76	96	6
NMTAP	76	144	6
NMTAP	76	192	5
CNSI_	76	192	7	0	96	4
NMTAP	76	240	5
NMTAP	76	288	6
NMTAP	76	336	6
NMSTR	77	0	4
NMSI_	77	0	4	96	96	2
NMTAP	77	0	7
NMTAP	77	48	4
NMTAP	77	96	6
NMTAP	77	144	6
NMSTR	77	192	5
NMSI_	77	192	5	96	96	3
NMTAP	77	240	5
EXTAP	77	288	7
NMTAP	77	336	0
NMSTR	78	0	1
NMSI_	78	0	1	96	96	7
NMTAP	78	48	1
NMTAP	78	96	3
NMTAP	78	144	4
NMSTR	78	192	5
NMSI_	78	192	5	96	96	7
NMTAP	78	240	5
NMTAP	78	288	1
NMTAP	78	336	2
NMSTR	79	0	3
NMSI_	79	0	3	96	96	7
NMTAP	79	48	3
NMTAP	79	96	7
NMTAP	79	144	6
NMTAP	79	192	5
CNSI_	79	192	7	0	96	1
NMTAP	79	240	4
CNSI_	79	288	1	0	96	4
NMTAP	79	288	5
NMTAP	79	336	6
NMSTR	80	0	7
BRSI_	80	0	7	96	96	1
NMTAP	80	48	7
NMTAP	80	96	4
NMTAP	80	144	4
CNSI_	80	192	1	0	96	4
NMTAP	80	192	3
NMTAP	80	240	3
NMTAP	80	288	2
CNSI_	80	288	4	0	96	6
NMTAP	80	336	1
NMHLD	81	0	0	384
NMTTP	81	192	0	E	0	M1
NMTTP	81	204	1	E	0	M1
NMTTP	81	216	2	E	0	M1
NMHLD	82	0	6	384
NMTTP	82	192	6	E	0	M1
NMTTP	82	204	5	E	0	M1
NMTTP	82	216	4	E	0	M1
NMHLD	83	0	2	384
NMTTP	83	192	2	D	0	M1
NMTTP	83	204	3	D	0	M1
NMTTP	83	216	4	D	0	M1
NMHLD	84	0	4	192
NMTAP	84	192	5
NMSTR	84	240	4
NMSUL	84	240	4	96	1200	3
NMTAP	84	288	3
NMTTP	84	336	3	D	0	M1
NMTTP	84	348	2	A	0	M1
NMTTP	84	360	2	D	0	M1

T_REC_TAP	447
T_REC_BRK	15
T_REC_XTP	15
T_REC_BXX	1
T_REC_HLD	48
T_REC_XHO	0
T_REC_BHO	0
T_REC_BXH	0
T_REC_STR	81
T_REC_BST	1
T_REC_XST	5
T_REC_XBS	0
T_REC_TTP	43
T_REC_THO	2
T_REC_SLD	79
T_REC_BSL	9
T_REC_ALL	746
T_NUM_TAP	591
T_NUM_BRK	26
T_NUM_HLD	50
T_NUM_SLD	79
T_NUM_ALL	746
T_JUDGE_TAP	608
T_JUDGE_HLD	177
T_JUDGE_SLD	88
T_JUDGE_ALL	873
TTM_EACHPAIRS	121
TTM_SCR_TAP	295500
TTM_SCR_BRK	67600
TTM_SCR_HLD	50000
TTM_SCR_SLD	118500
TTM_SCR_ALL	531600
TTM_SCR_S	513150
TTM_SCR_SS	529000
TTM_RAT_ACV	10049

