VERSION	0.00.00	1.04.00
FES_MODE	0
BPM_DEF	145.000	145.000	145.000	145.000
MET_DEF	4	4
RESOLUTION	384
CLK_DEF	384
COMPATIBLE_CODE	MA2

BPM	0	0	145.000
MET	0	0	4	4

NMSTR	1	0	1
NMSCL	1	0	1	96	480	6
NMSTR	3	0	2
NMSCL	3	0	2	96	480	5
NMSTR	5	0	3
NMSCL	5	0	3	96	480	4
NMTTP	7	0	0	E	0	M1
NMTTP	7	192	2	B	0	M1
NMTTP	7	192	5	B	0	M1
NMTTP	8	0	3	D	0	M1
NMTTP	8	0	4	D	0	M1
NMTTP	8	0	5	D	0	M1
NMHLD	9	0	2	576
NMSTR	9	0	5
NMSI_	9	0	5	96	48	1
CNSI_	9	144	1	0	48	7
CNSI_	9	192	7	0	384	4
NMSTR	11	0	1
NMSI_	11	0	1	96	48	4
NMHLD	11	0	3	576
CNSI_	11	144	4	0	24	6
CNSI_	11	168	6	0	408	2
NMHLD	13	0	1	576
NMSTR	13	0	4
NMSI_	13	0	4	96	96	7
CNSI_	13	192	7	0	96	3
CNSI_	13	288	3	0	288	0
NMSTR	15	0	3
NMSUR	15	0	3	96	192	0
NMHLD	15	0	5	288
EXTAP	16	0	6
EXTAP	16	0	7
EXTAP	16	72	6
EXTAP	16	72	7
BXTAP	16	144	0
BXTAP	16	144	5
NMTAP	16	288	0
NMTAP	16	288	1
NMSTR	17	0	7
NMSCL	17	0	7	96	192	1
NMSTR	18	0	0
NMSCR	18	0	0	96	192	6
NMSTR	19	0	4
NMSCR	19	0	4	96	192	2
NMSTR	20	0	3
NMSCL	20	0	3	96	192	5
NMTAP	20	288	4
NMHLD	21	0	1	72
NMHLD	21	72	3	72
NMTAP	21	144	4
EXTAP	21	240	6
EXTAP	21	240	7
EXTAP	21	288	6
EXTAP	21	288	7
NMHLD	22	0	5	72
NMHLD	22	72	3	72
NMTAP	22	144	2
EXTAP	22	240	1
EXTAP	22	240	7
EXTAP	22	288	1
EXTAP	22	288	7
NMHLD	23	0	2	72
NMHLD	23	72	4	72
NMTAP	23	144	5
EXTAP	23	240	6
EXTAP	23	240	7
EXTAP	23	288	6
EXTAP	23	288	7
NMHLD	24	0	5	72
NMHLD	24	72	7	72
NMTAP	24	144	0
EXTAP	24	240	1
EXTAP	24	240	6
EXTAP	24	288	1
EXTAP	24	288	6
NMTAP	25	0	2
NMTAP	25	72	2
NMTAP	25	72	3
NMTAP	25	144	2
NMHLD	25	144	3	144
NMTAP	25	288	0
NMTAP	26	0	5
NMTAP	26	72	4
NMTAP	26	72	5
NMHLD	26	144	4	144
NMTAP	26	144	5
NMTAP	26	288	7
NMHLD	27	0	3	288
NMTAP	27	0	6
NMTAP	27	96	5
NMTAP	27	192	4
NMTAP	27	288	2
NMSTR	27	336	2
NMSCR	27	336	2	96	96	5
NMTAP	28	240	1
NMTAP	28	288	1
NMTAP	28	336	7
NMTAP	29	0	7
NMTAP	29	72	2
NMTAP	29	72	6
NMTAP	29	144	2
NMTAP	29	144	6
NMTAP	29	240	5
NMTAP	29	288	5
NMTAP	29	336	4
NMTAP	30	0	4
NMTAP	30	72	3
NMTAP	30	72	6
NMTAP	30	144	3
NMHLD	30	144	6	144
NMTAP	30	288	7
NMHLD	31	0	1	96
NMTAP	31	96	3
NMHLD	31	192	5	96
NMTAP	31	288	7
NMSTR	31	336	7
NMSXL	31	336	7	96	192	3
NMSXR	31	336	7	96	192	3
NMTAP	33	0	2
NMHLD	33	0	5	192
NMTAP	33	96	0
NMTAP	33	144	0
NMTAP	33	192	7
EXTAP	33	288	0
EXTAP	33	288	6
NMHLD	34	0	1	192
NMTAP	34	0	5
NMTAP	34	96	4
NMTAP	34	144	4
NMTAP	34	192	3
EXTAP	34	288	2
EXTAP	34	288	4
NMSTR	35	0	2
NMSCL	35	0	2	96	48	0
NMSTR	35	192	5
NMSCR	35	192	5	96	48	7
NMTAP	36	0	1
NMTAP	36	96	2
NMTAP	36	96	4
NMTAP	36	192	3
NMTAP	36	192	5
NMTAP	36	288	2
NMTAP	36	288	6
NMTAP	37	0	2
NMHLD	37	0	6	192
NMTAP	37	96	3
NMTAP	37	144	3
NMTAP	37	192	4
EXTAP	37	288	3
EXTAP	37	288	5
NMHLD	38	0	2	192
NMTAP	38	0	6
NMTAP	38	96	7
NMTAP	38	144	7
NMTAP	38	192	0
EXTAP	38	288	1
EXTAP	38	288	7
NMSTR	39	0	0
NMSLR	39	0	0	96	96	4
NMSTR	39	192	6
NMSLL	39	192	6	96	96	2
NMTAP	40	0	0
NMTAP	40	96	1
NMTAP	40	96	7
NMTAP	40	192	2
NMTAP	40	192	6
NMTAP	40	288	3
NMTAP	40	288	5
NMTAP	41	0	2
NMTAP	41	0	4
NMTAP	41	96	0
NMTAP	41	192	3
NMTAP	41	192	5
NMTAP	41	288	7
NMTAP	42	0	4
NMTAP	42	0	5
NMTAP	42	96	2
NMTAP	42	96	3
NMTAP	42	192	0
NMTAP	42	192	1
NMTAP	42	288	2
NMTAP	42	288	7
NMSTR	43	0	6
NMSI_	43	0	6	96	48	4
NMSTR	43	192	2
NMSI_	43	192	2	96	48	0
NMHLD	44	0	5	96
NMHLD	44	96	7	96
NMHLD	44	192	0	96
NMTAP	44	288	2
NMTAP	45	0	0
NMTAP	45	0	6
NMTAP	45	96	4
NMTAP	45	192	1
NMTAP	45	192	7
NMTAP	45	288	3
NMTAP	46	0	6
NMTAP	46	0	7
NMTAP	46	96	4
NMTAP	46	96	5
NMTAP	46	192	2
NMTAP	46	192	3
NMTAP	46	288	0
NMTAP	46	288	1
NMTAP	47	0	3
NMTAP	47	0	6
NMTAP	47	96	2
NMTAP	47	144	2
NMTAP	47	192	3
NMTAP	47	240	3
EXHLD	47	336	0	240
EXHLD	47	336	5	240
NMTTP	49	0	0	A	0	M1
NMTTP	49	0	7	A	0	M1
NMTTP	50	0	2	A	0	M1
NMTTP	50	0	3	E	0	M1
NMTTP	50	0	5	E	0	M1
NMTTP	50	0	5	A	0	M1
NMTTP	51	0	3	A	0	M1
NMTTP	51	0	4	A	0	M1
NMTTP	51	0	4	D	0	M1
NMTAP	52	192	1
NMTAP	52	192	5
NMTAP	52	288	2
NMTAP	52	288	6
BRSTR	53	0	3
NMSCL	53	0	3	96	48	7
BRTAP	53	0	7
NMSTR	53	192	4
NMSCR	53	192	4	96	48	0
NMSTR	54	0	3
NMSCL	54	0	3	96	48	7
NMSTR	54	192	4
NMSI_	54	192	4	96	48	7
NMTAP	55	0	0
NMTAP	55	96	2
NMTAP	55	96	6
NMTAP	55	144	2
NMTAP	55	144	6
NMSTR	55	240	1
BRSI_	55	240	1	96	48	4
NMSTR	55	240	5
BRSI_	55	240	5	96	48	0
NMTAP	56	192	2
NMTAP	56	192	6
NMTAP	56	288	1
NMTAP	56	288	5
BRTAP	57	0	0
BRSTR	57	0	4
NMSCR	57	0	4	96	48	0
NMSTR	57	192	3
NMSCL	57	192	3	96	48	7
NMSTR	58	0	4
NMSCR	58	0	4	96	48	0
NMTAP	58	192	1
NMTAP	58	288	2
BRHLD	59	0	3	288
NMTAP	59	0	5
NMTAP	59	96	7
NMTAP	59	192	0
NMTAP	59	288	2
EXTAP	60	0	0
EXTAP	60	0	1
EXTAP	60	96	3
EXTAP	60	96	4
EXTAP	60	192	0
EXTAP	60	192	6
EXTAP	60	288	3
EXTAP	60	288	4
BXTAP	61	0	1
NMTAP	61	48	1
NMTAP	61	96	0
NMTAP	61	144	0
NMSTR	61	192	2
BRSI_	61	192	2	96	48	7
BXTAP	62	0	6
NMTAP	62	48	6
NMTAP	62	96	7
NMTAP	62	144	7
NMSTR	62	192	5
BRSI_	62	192	5	96	48	0
EXSTR	63	0	1
NMSI_	63	0	1	96	48	6
NMSTR	63	192	5
NMSI_	63	192	5	96	48	2
NMTAP	64	0	1
NMTAP	64	96	0
NMTAP	64	96	1
NMTAP	64	192	6
NMTAP	64	192	7
NMTAP	64	288	0
NMTAP	64	288	5
BRTAP	65	0	1
BRSTR	65	0	4
NMSCR	65	0	4	96	48	0
NMTAP	65	96	2
NMSTR	65	192	3
NMSCL	65	192	3	96	48	7
NMTAP	65	288	6
NMTAP	66	0	4
NMTAP	66	96	2
NMTAP	66	96	3
NMTAP	66	192	1
NMTAP	66	192	4
NMTAP	66	288	6
NMTAP	66	288	7
NMTAP	67	0	4
NMHLD	67	0	5	240
NMTAP	67	96	7
NMTAP	67	144	7
NMTAP	67	240	0
NMTAP	67	336	1
NMTAP	67	336	6
NMTAP	68	0	1
NMTAP	68	0	6
NMTAP	68	96	3
NMTAP	68	96	4
NMTAP	68	144	3
NMTAP	68	144	4
BRTAP	68	240	2
BRTAP	68	240	5
BXHLD	68	336	0	240
BXHLD	68	336	7	240
NMTTP	70	0	3	A	0	M1
NMTTP	70	0	5	A	0	M1
NMTTP	70	96	2	A	0	M1
NMTTP	70	192	1	A	0	M1
NMTTP	70	288	0	A	0	M1
NMTTP	71	0	2	A	0	M1
NMTTP	71	0	4	A	0	M1
NMTTP	71	96	5	A	0	M1
NMTTP	71	192	6	A	0	M1
NMTTP	71	288	7	A	0	M1
NMTTP	72	0	2	A	0	M1
NMTTP	72	0	4	A	0	M1
NMTTP	72	96	1	A	0	M1
NMTTP	72	96	5	A	0	M1
NMTTP	72	192	0	A	0	M1
NMTTP	72	192	6	A	0	M1
NMHLD	73	0	6	144
NMTAP	73	96	7
NMTAP	73	144	7
NMTAP	73	240	4
NMTAP	73	240	5
NMTAP	73	336	2
NMTAP	73	336	4
NMHLD	74	0	2	144
NMTAP	74	0	4
NMTAP	74	96	1
NMTAP	74	144	1
NMTAP	74	240	0
NMTAP	74	240	7
NMTAP	74	336	2
NMTAP	75	0	2
NMTAP	75	96	3
NMTAP	75	96	5
NMTAP	75	144	3
NMTAP	75	144	5
NMTAP	75	240	6
NMTAP	75	240	7
NMTAP	75	288	6
NMTAP	75	288	7
NMTAP	76	0	0
NMTAP	76	0	5
NMTAP	76	96	2
NMTAP	76	96	3
NMTAP	76	144	2
NMTAP	76	144	3
NMTAP	76	240	0
NMTAP	76	240	1
NMSTR	76	336	2
BRSCR	76	336	2	96	192	5
NMHLD	76	336	7	528
NMTAP	78	0	5
NMTAP	78	96	4
NMTAP	78	192	3
NMTAP	78	192	5
NMTAP	78	288	2
NMTAP	78	288	6
NMHLD	78	336	2	48
NMHLD	78	336	6	48
NMTAP	79	96	1
NMTAP	79	96	5
NMHLD	79	144	1	48
NMHLD	79	144	5	48
NMTAP	79	288	0
NMTAP	79	288	4
NMHLD	79	336	0	48
NMHLD	79	336	4	48
NMTAP	80	96	3
NMTAP	80	96	7
NMHLD	80	144	3	96
NMTAP	80	144	7
EXTAP	80	240	1
EXTAP	80	288	2
EXSTR	80	336	3
NMSCL	80	336	3	96	624	4
NMSTR	83	0	4
NMSCR	83	0	4	96	576	3

T_REC_TAP	199
T_REC_BRK	5
T_REC_XTP	38
T_REC_BXX	4
T_REC_HLD	36
T_REC_XHO	2
T_REC_BHO	1
T_REC_BXH	2
T_REC_STR	32
T_REC_BST	3
T_REC_XST	2
T_REC_XBS	0
T_REC_TTP	31
T_REC_THO	0
T_REC_SLD	33
T_REC_BSL	5
T_REC_ALL	393
T_NUM_TAP	302
T_NUM_BRK	20
T_NUM_HLD	38
T_NUM_SLD	33
T_NUM_ALL	393
T_JUDGE_TAP	314
T_JUDGE_HLD	155
T_JUDGE_SLD	38
T_JUDGE_ALL	507
TTM_EACHPAIRS	103
TTM_SCR_TAP	151000
TTM_SCR_BRK	52000
TTM_SCR_HLD	38000
TTM_SCR_SLD	49500
TTM_SCR_ALL	290500
TTM_SCR_S	279850
TTM_SCR_SS	288500
TTM_RAT_ACV	10069

