VERSION	0.00.00	1.04.00
FES_MODE	0
BPM_DEF	200.000	200.000	200.000	200.000
MET_DEF	4	4
RESOLUTION	384
CLK_DEF	384
COMPATIBLE_CODE	MA2

BPM	0	0	200.000
MET	0	0	4	4

NMTTP	2	0	0	E	0	M1
NMTTP	3	0	3	E	0	M1
NMTTP	3	0	7	E	0	M1
NMTHO	4	0	0	768	C	0	M1
NMTTP	4	0	6	E	0	M1
NMTTP	5	0	5	E	0	M1
NMTTP	6	0	4	E	0	M1
NMTTP	7	0	3	E	0	M1
NMTTP	8	0	2	E	0	M1
NMTTP	9	0	1	E	0	M1
NMTAP	9	48	5
NMTAP	9	96	6
NMTAP	9	144	7
NMTAP	9	192	0
NMTAP	9	240	1
NMTAP	9	288	2
NMTAP	9	336	3
NMSTR	10	0	4
NMSCR	10	0	4	96	192	7
NMHLD	10	192	1	192
NMSTR	11	0	0
NMSCL	11	0	0	96	192	5
NMHLD	11	192	3	192
NMSTR	12	0	4
NMSCR	12	0	4	96	192	7
NMHLD	12	192	1	192
NMSTR	13	0	0
NMSCL	13	0	0	96	192	5
NMTAP	13	96	2
NMTAP	13	192	3
NMTAP	13	288	4
NMTAP	14	0	5
NMHLD	14	192	4	96
NMHLD	14	192	6	96
NMHLD	15	0	5	144
NMHLD	15	144	4	144
NMTAP	15	288	3
NMTAP	16	0	3
NMTAP	16	0	4
NMHLD	16	192	1	96
NMHLD	16	192	3	96
NMHLD	17	0	2	144
NMHLD	17	144	3	144
NMTAP	17	288	4
NMSTR	18	0	3
NMSCL	18	0	3	96	192	0
NMTAP	18	0	4
NMHLD	18	192	6	192
NMSTR	19	0	7
NMSCR	19	0	7	96	192	2
NMTAP	19	96	5
NMHLD	19	192	4	192
NMSTR	20	0	3
NMSCL	20	0	3	96	192	0
NMTAP	20	96	5
NMHLD	20	192	6	192
NMSTR	21	0	7
NMSCR	21	0	7	96	192	2
NMTAP	21	96	5
NMTAP	21	192	4
NMTAP	21	288	3
NMTAP	22	0	2
NMHLD	22	192	1	96
NMHLD	22	192	3	96
NMHLD	23	0	0	144
NMHLD	23	144	1	144
NMTAP	23	288	2
NMHLD	24	0	7	144
NMHLD	24	144	6	144
NMTAP	24	288	5
NMTTP	25	0	4	E	1	M1
NMTAP	25	192	0
NMTAP	25	216	1
NMTAP	25	240	2
NMTAP	25	264	3
NMTAP	25	288	7
NMTAP	25	312	6
NMTAP	25	336	5
NMTAP	25	360	4
NMTAP	26	0	1
NMTAP	26	48	1
NMTAP	26	48	3
NMTAP	26	144	2
NMTAP	26	192	2
NMTAP	26	192	3
NMTAP	26	288	5
NMTAP	26	336	4
NMTAP	26	336	5
NMTAP	27	48	6
NMTAP	27	96	4
NMSTR	27	96	6
NMSI_	27	96	6	96	48	3
NMSTR	27	192	2
NMSI_	27	192	2	96	48	5
NMTAP	27	288	7
NMTAP	28	0	6
NMTAP	28	48	4
NMTAP	28	48	6
NMTAP	28	144	5
NMTAP	28	192	4
NMTAP	28	192	5
NMTAP	28	288	2
NMTAP	28	336	2
NMTAP	28	336	3
NMTAP	29	48	1
NMSTR	29	96	1
NMSI_	29	96	1	96	48	4
NMTAP	29	96	3
NMSTR	29	192	5
NMSI_	29	192	5	96	48	2
NMTAP	29	288	0
NMHLD	30	0	1	144
NMHLD	30	144	3	144
NMTAP	30	288	4
NMTAP	31	96	4
NMSTR	31	96	5
NMSXL	31	96	5	96	144	4
NMTAP	31	192	3
NMHLD	31	336	1	240
NMSTR	32	192	3
NMSCR	32	192	3	96	144	1
NMTAP	32	336	2
NMTAP	33	96	3
NMTAP	33	192	2
NMTAP	33	192	4
NMTAP	33	288	1
NMTAP	33	288	5
NMTAP	34	0	6
NMTAP	34	48	7
NMTAP	34	96	6
NMTAP	34	144	1
NMTAP	34	192	0
NMTAP	34	240	1
NMTAP	34	288	6
NMTAP	34	336	4
NMTAP	35	0	5
NMTAP	35	48	1
NMTAP	35	96	3
NMTAP	35	144	2
NMSTR	35	192	4
NMSI_	35	192	4	96	48	7
NMTAP	35	288	3
NMTAP	35	288	4
NMTAP	36	0	1
NMTAP	36	48	0
NMTAP	36	96	1
NMTAP	36	144	6
NMTAP	36	192	7
NMTAP	36	240	6
NMTAP	36	288	1
NMTAP	36	336	3
NMTAP	37	0	2
NMTAP	37	48	6
NMTAP	37	96	4
NMTAP	37	144	5
NMTAP	37	192	3
NMSTR	37	240	4
NMSCR	37	240	4	96	48	7
NMTAP	37	288	2
NMHLD	37	336	1	144
NMTAP	38	96	0
NMTAP	38	144	1
NMTAP	38	192	2
NMTAP	38	192	3
NMTAP	38	240	4
NMTAP	38	288	1
NMTAP	38	288	5
NMTAP	38	336	0
NMTAP	39	0	6
NMTAP	39	0	7
NMTAP	39	48	5
NMTAP	39	96	3
NMTAP	39	96	4
NMTAP	39	144	2
NMTAP	39	192	0
NMTAP	39	192	1
NMSTR	39	240	7
NMSI_	39	240	7	96	48	3
NMTAP	39	288	2
NMTAP	39	288	6
BRTAP	39	336	3
NMTAP	40	96	0
NMTAP	40	96	7
NMTAP	40	144	0
NMTAP	40	144	7
NMTAP	40	192	6
NMTAP	40	240	5
NMTAP	40	288	3
NMTAP	40	336	2
NMSTR	41	0	1
NMSCR	41	0	1	96	96	7
NMHLD	41	0	4	384
NMTTP	41	192	0	D	0	M1
NMTTP	41	216	1	D	0	M1
NMTTP	41	240	2	D	0	M1
NMTTP	41	264	3	D	0	M1
NMTTP	41	288	4	D	0	M1
NMTTP	41	312	5	D	0	M1
NMTTP	41	336	6	D	0	M1
NMTTP	41	360	7	D	0	M1
NMTTP	42	0	0	D	1	M1
NMHLD	44	0	3	192
NMTAP	44	192	4
NMSTR	45	0	5
NMSUL	45	0	5	96	288	3
NMHLD	46	0	2	192
NMTAP	46	192	3
NMTAP	46	288	2
NMTAP	46	336	2
NMTAP	47	48	3
NMTAP	47	96	3
NMTAP	47	192	4
NMTAP	47	288	5
NMSTR	48	0	6
NMSCL	48	0	6	96	192	3
NMTAP	48	96	2
NMTAP	48	192	1
NMTAP	48	288	0
NMSTR	49	0	1
NMSCR	49	0	1	96	192	4
NMTAP	49	96	5
NMTAP	49	192	6
NMTAP	49	288	7
NMHLD	50	0	6	144
NMHLD	50	144	5	144
NMTAP	50	288	4
NMHLD	51	96	3	96
NMHLD	51	96	5	96
NMTAP	51	240	3
NMTAP	51	240	5
NMHLD	52	0	1	144
NMHLD	52	144	2	144
NMTAP	52	288	3
NMHLD	53	96	2	96
NMHLD	53	192	3	96
NMHLD	53	288	4	96
NMSTR	54	0	5
NMSCL	54	0	5	96	240	7
NMSTR	55	0	2
NMSCR	55	0	2	96	240	0
NMSTR	56	0	3
NMSCL	56	0	3	96	288	4
NMTTP	57	0	0	C	1	M1
NMTAP	57	192	0
NMTAP	57	216	1
NMTAP	57	240	2
NMTAP	57	264	3
NMTAP	57	288	7
NMTAP	57	312	6
NMTAP	57	336	5
NMTAP	57	360	4
BRSTR	58	0	0
NMSI_	58	0	0	96	48	4
NMTAP	58	96	7
NMTAP	58	144	6
NMTAP	58	192	3
NMTAP	58	192	5
NMTAP	58	240	2
NMTAP	58	288	1
NMSTR	58	288	3
NMSI_	58	288	3	96	48	7
NMSTR	59	0	1
NMSCR	59	0	1	96	48	4
NMTAP	59	0	3
NMTAP	59	96	0
NMTAP	59	96	1
NMHLD	59	192	7	72
NMHLD	59	264	6	72
NMTAP	59	336	5
NMSTR	60	0	5
NMSCL	60	0	5	96	48	2
NMTAP	60	96	1
NMTAP	60	144	0
NMTAP	60	192	6
NMTAP	60	240	5
NMSTR	60	288	0
NMSCL	60	288	0	96	48	5
NMSCR	60	288	0	96	48	3
NMTAP	60	288	4
NMTAP	61	0	0
EXTAP	61	96	1
EXTAP	61	96	7
NMTAP	61	192	2
NMHLD	61	192	6	72
NMHLD	61	264	5	72
NMTAP	61	336	4
NMSTR	62	0	4
NMSI_	62	0	4	96	48	0
NMTAP	62	96	7
NMTAP	62	192	2
NMHLD	62	192	6	72
NMHLD	62	264	5	72
NMTAP	62	336	4
NMSTR	63	0	4
NMSI_	63	0	4	96	48	0
NMTAP	63	96	6
NMTAP	63	192	2
NMHLD	63	192	6	72
NMHLD	63	264	5	72
NMTAP	63	336	4
NMSTR	64	0	4
NMSI_	64	0	4	96	48	0
NMTAP	64	96	5
NMSTR	64	144	5
NMSLL	64	144	5	96	96	6
NMTAP	64	240	1
NMSTR	64	288	1
NMSI_	64	288	1	96	48	5
NMTAP	65	0	0
NMTAP	65	0	1
NMTAP	65	96	4
NMTAP	65	96	6
NMHLD	65	192	0	72
NMHLD	65	264	2	72
NMTAP	65	336	3
NMSTR	66	0	3
NMSCL	66	0	3	96	48	0
NMTAP	66	96	3
NMSTR	66	144	6
NMSCL	66	144	6	96	48	3
NMTAP	66	240	6
NMSTR	66	288	1
NMSCL	66	288	1	96	48	6
NMTAP	67	0	1
NMTAP	67	0	2
EXTAP	67	96	4
EXTAP	67	96	5
NMHLD	67	192	7	72
NMHLD	67	264	6	72
NMTAP	67	336	5
NMSTR	68	0	5
NMSI_	68	0	5	96	48	3
NMTAP	68	96	5
NMSTR	68	144	1
NMSI_	68	144	1	96	48	5
NMTAP	68	240	1
NMSTR	68	288	7
NMSCL	68	288	7	96	48	4
NMSCR	68	288	7	96	48	2
NMTAP	69	0	7
EXTAP	69	96	0
EXTAP	69	96	6
NMHLD	69	192	1	72
NMTAP	69	192	5
NMHLD	69	264	2	72
NMTAP	69	336	3
NMSTR	70	0	3
NMSI_	70	0	3	96	48	7
NMTAP	70	96	0
NMHLD	70	192	1	72
NMTAP	70	192	5
NMHLD	70	264	2	72
NMTAP	70	336	3
NMSTR	71	0	3
NMSI_	71	0	3	96	48	7
NMTAP	71	96	1
NMHLD	71	192	1	72
NMTAP	71	192	5
NMHLD	71	264	2	72
NMTAP	71	336	3
NMSTR	72	0	3
NMSI_	72	0	3	96	48	7
NMTAP	72	96	2
NMSTR	72	144	2
NMSLR	72	144	2	96	96	1
NMTAP	72	240	6
NMSTR	72	288	6
NMSI_	72	288	6	96	48	2
NMTAP	73	0	6
NMTAP	73	0	7
BRTAP	73	96	0
BRTAP	73	96	1
NMTAP	73	192	7
NMTAP	73	216	6
NMTAP	73	240	5
NMTAP	73	264	4
NMTAP	73	288	7
NMTAP	73	312	0
NMTAP	73	336	1
NMTAP	73	360	2
BRTAP	74	0	3
BRTAP	74	0	7
NMTAP	74	96	4
NMTAP	74	96	5
NMTAP	74	144	3
NMTAP	74	192	2
NMTAP	74	192	6
NMTAP	74	240	7
NMTAP	74	288	0
NMTAP	74	288	1
NMTAP	74	336	2
NMTAP	75	0	3
NMTAP	75	0	4
NMTAP	75	48	5
NMTAP	75	96	6
NMTAP	75	96	7
NMTAP	75	144	0
EXTAP	75	192	1
EXTAP	75	192	5
NMTAP	75	216	4
NMTAP	75	240	3
NMTAP	75	264	2
NMTAP	75	288	1
NMTAP	75	312	0
NMTAP	75	336	7
NMTAP	75	360	6
BRTAP	76	0	1
BRTAP	76	0	5
NMTAP	76	96	2
NMTAP	76	96	3
NMTAP	76	144	4
NMTAP	76	192	1
NMTAP	76	192	5
NMTAP	76	240	0
NMTAP	76	288	6
NMTAP	76	288	7
NMTAP	76	336	5
NMTAP	77	0	3
NMTAP	77	0	4
NMTAP	77	48	2
NMTAP	77	96	0
NMTAP	77	96	1
NMTAP	77	144	7
EXTAP	77	192	2
EXTAP	77	192	6
NMTAP	77	216	3
NMTAP	77	240	4
NMTAP	77	264	5
NMTAP	77	288	6
NMTAP	77	312	7
NMTAP	77	336	0
NMTAP	77	360	1
BRTAP	78	0	2
BRTAP	78	0	6
NMHLD	78	96	4	96
NMTAP	78	96	5
NMTAP	78	192	2
NMTAP	78	216	1
NMSTR	78	240	0
BRSCR	78	240	0	96	48	3
NMTAP	78	264	7
NMTAP	78	288	6
NMTAP	78	312	5
EXTAP	78	336	4
NMTAP	79	96	2
NMHLD	79	96	4	96
NMTAP	79	192	6
NMTAP	79	216	7
NMSTR	79	240	0
BRSCL	79	240	0	96	48	5
NMTAP	79	264	1
NMTAP	79	288	2
NMTAP	79	312	3
EXTAP	79	336	4
NMHLD	80	96	4	96
NMTAP	80	96	6
NMTAP	80	192	1
NMTAP	80	216	0
NMSTR	80	240	7
BRSCR	80	240	7	96	48	2
NMTAP	80	264	6
NMTAP	80	288	5
NMTAP	80	312	4
EXTAP	80	336	3
NMTAP	81	96	4
NMTAP	81	96	5
NMSTR	81	192	2
NMSI_	81	192	2	96	48	7
NMSTR	81	192	6
NMSI_	81	192	6	96	48	3
NMTAP	81	288	2
NMTAP	81	288	6
BRTAP	82	0	1
BRTAP	82	0	5
NMTAP	82	192	2
NMTAP	82	192	4
NMTAP	82	288	3
NMTAP	82	336	3
NMTAP	83	48	5
NMTAP	83	96	5
NMTAP	83	192	4
NMTAP	83	192	6
NMSTR	83	288	3
NMSCL	83	288	3	96	120	5
NMTAP	83	288	5
NMTAP	84	192	3
NMTAP	84	192	5
NMTAP	84	288	4
NMTAP	84	336	4
NMTAP	85	48	2
NMTAP	85	96	2
NMTAP	85	192	1
NMSTR	85	192	3
NMSI_	85	192	3	96	48	7
NMTAP	85	288	0
EXTAP	86	0	6
EXTAP	86	0	7
NMTAP	86	48	5
NMTAP	86	96	5
EXTAP	86	144	3
EXTAP	86	144	4
NMTAP	86	192	2
NMTAP	86	240	2
EXTAP	86	288	0
EXTAP	86	288	1
NMTAP	86	336	2
NMTAP	87	0	2
EXTAP	87	48	3
EXTAP	87	48	4
NMTAP	87	96	5
NMTAP	87	144	5
EXSTR	87	192	6
NMSI_	87	192	6	96	48	2
EXSTR	87	192	7
NMSI_	87	192	7	96	48	3
EXTAP	87	288	6
EXTAP	87	288	7
NMTAP	88	0	0
NMTAP	88	0	4
NMTAP	88	24	1
NMTAP	88	48	2
NMTAP	88	72	3
NMTAP	88	96	0
NMTAP	88	120	7
NMTAP	88	144	6
NMTAP	88	168	5
NMTAP	88	192	1
NMTAP	88	204	2
NMTAP	88	216	3
NMTAP	88	228	4
NMTAP	88	240	5
NMTAP	88	252	6
NMTAP	88	264	7
NMTAP	88	276	0
NMTAP	88	288	1
NMTAP	88	300	2
NMTAP	88	312	3
NMTAP	88	324	4
NMTAP	88	336	5
NMTAP	88	348	6
NMTAP	88	360	7
NMTAP	88	372	0
BXTAP	89	0	1
BXTAP	89	0	5
NMSTR	90	0	2
NMSCL	90	0	2	96	672	4
NMHLD	90	0	3	192
NMHLD	91	0	5	192
NMHLD	92	0	7	192
NMHLD	93	0	1	192
NMHLD	93	0	5	192
NMTAP	94	0	2
NMTAP	94	0	4
NMTAP	94	48	3
NMTAP	94	96	4
NMTAP	94	144	5
NMTAP	94	240	2
NMTAP	94	288	3
NMTAP	94	336	4
NMTAP	95	48	1
NMTAP	95	96	2
NMTAP	95	144	3
NMTAP	95	192	4
NMTAP	95	240	2
NMTAP	95	288	3
NMTAP	95	336	1
NMTAP	96	0	6
NMTAP	96	48	5
NMTAP	96	96	4
NMTAP	96	144	3
NMTAP	96	192	5
NMTAP	96	240	4
NMTAP	96	288	3
NMTAP	96	336	2
NMTAP	97	0	4
NMTAP	97	48	2
NMTAP	97	72	3
NMTAP	97	96	2
NMTAP	97	144	1
NMTAP	97	192	0
NMTAP	97	240	7
NMTAP	97	288	6
NMTAP	97	336	5
NMTTP	98	0	4	E	0	M1
NMTTP	98	0	4	D	0	M1
NMSTR	98	192	2
NMSCR	98	192	2	96	1776	5
NMHLD	98	192	5	192
NMTTP	100	0	0	E	0	M1
NMTTP	101	0	0	C	0	M1
NMTTP	102	0	4	E	0	M1

T_REC_TAP	352
T_REC_BRK	11
T_REC_XTP	23
T_REC_BXX	2
T_REC_HLD	63
T_REC_XHO	0
T_REC_BHO	0
T_REC_BXH	0
T_REC_STR	53
T_REC_BST	1
T_REC_XST	2
T_REC_XBS	0
T_REC_TTP	25
T_REC_THO	1
T_REC_SLD	55
T_REC_BSL	3
T_REC_ALL	591
T_NUM_TAP	455
T_NUM_BRK	17
T_NUM_HLD	64
T_NUM_SLD	55
T_NUM_ALL	591
T_JUDGE_TAP	469
T_JUDGE_HLD	194
T_JUDGE_SLD	58
T_JUDGE_ALL	721
TTM_EACHPAIRS	86
TTM_SCR_TAP	227500
TTM_SCR_BRK	44200
TTM_SCR_HLD	64000
TTM_SCR_SLD	82500
TTM_SCR_ALL	418200
TTM_SCR_S	404050
TTM_SCR_SS	416500
TTM_RAT_ACV	10040

