VERSION	0.00.00	1.04.00
FES_MODE	0
BPM_DEF	200.000	200.000	200.000	200.000
MET_DEF	4	4
RESOLUTION	384
CLK_DEF	384
COMPATIBLE_CODE	MA2

BPM	0	0	200.000
MET	0	0	4	4

NMTTP	2	0	0	E	0	M1
NMTTP	3	0	0	C	0	M1
NMTTP	3	0	7	E	0	M1
NMTTP	4	0	0	C	0	M1
NMTTP	4	0	6	E	0	M1
NMTTP	5	0	5	E	0	M1
NMTTP	6	0	4	E	0	M1
NMTTP	7	0	3	E	0	M1
NMTHO	8	0	0	384	C	1	M1
NMTTP	8	0	2	E	0	M1
NMHLD	10	0	1	384
NMHLD	11	0	2	384
NMSTR	12	0	3
NMSCL	12	0	3	96	288	7
NMHLD	14	0	6	384
NMHLD	15	0	5	384
NMSTR	16	0	4
NMSCR	16	0	4	96	288	0
NMHLD	18	0	2	384
NMTAP	18	192	3
NMTAP	18	288	4
NMHLD	19	0	5	384
NMTAP	19	192	4
NMTAP	19	288	4
NMHLD	20	0	3	384
NMTAP	20	192	4
NMTAP	20	288	5
NMHLD	21	0	6	384
NMTAP	21	192	4
NMTAP	21	288	4
NMHLD	22	0	5	192
NMHLD	22	192	4	192
NMHLD	23	0	3	192
NMHLD	23	192	2	192
NMHLD	24	0	1	192
NMTAP	24	192	0
BRTAP	25	0	7
NMTAP	25	192	0
NMTAP	25	192	6
NMTAP	25	288	1
NMSTR	26	0	2
NMSI_	26	0	2	96	120	5
NMTAP	26	192	6
NMTAP	26	288	6
NMSTR	27	0	5
NMSI_	27	0	5	96	120	2
NMTAP	27	192	0
NMTAP	27	288	0
NMSTR	28	0	1
NMSCR	28	0	1	96	144	4
NMTAP	28	192	7
NMTAP	28	288	7
NMTAP	29	0	4
NMTAP	29	0	6
NMTAP	29	96	4
NMTAP	29	96	6
NMTAP	29	192	3
NMTAP	29	192	4
NMTAP	29	288	2
NMTAP	29	288	3
NMHLD	30	0	1	192
NMTAP	30	192	3
NMTAP	30	288	3
NMTAP	31	0	2
NMTAP	31	0	3
NMTAP	31	96	4
NMTAP	31	96	5
NMTAP	31	192	3
NMTAP	31	192	6
NMTAP	31	288	3
NMTAP	31	288	6
NMHLD	32	0	5	192
NMTAP	32	192	4
NMTAP	32	288	4
NMTAP	33	0	4
NMTAP	33	0	5
NMTAP	33	96	3
NMTAP	33	96	4
NMHLD	33	192	2	96
NMHLD	33	192	3	96
NMTAP	34	0	2
NMTAP	34	48	2
NMTAP	34	96	3
NMTAP	34	192	1
NMTAP	34	192	4
NMTAP	34	288	2
NMTAP	34	288	3
NMTAP	35	0	5
NMTAP	35	48	5
NMTAP	35	96	4
NMTAP	35	192	3
NMTAP	35	192	6
NMTAP	35	288	4
NMTAP	35	288	5
NMTAP	36	0	6
NMTAP	36	48	6
NMTAP	36	96	7
NMTAP	36	192	0
NMTAP	36	192	5
NMTAP	36	288	6
NMTAP	36	288	7
NMTAP	37	0	1
NMTAP	37	48	1
NMTAP	37	96	0
NMTAP	37	192	2
NMTAP	37	192	7
NMTAP	37	288	0
NMSTR	37	288	1
NMSCR	37	288	1	96	144	4
NMTAP	38	192	5
NMTAP	38	288	4
NMSTR	38	288	5
NMSCR	38	288	5	96	144	0
NMTAP	39	192	1
NMTAP	39	288	0
NMTAP	39	288	1
NMTAP	40	0	0
NMTAP	40	0	7
NMTAP	40	96	6
NMTAP	40	96	7
NMTAP	40	192	5
NMTAP	40	192	6
NMTAP	40	288	4
NMSTR	40	288	5
NMSCR	40	288	5	96	288	2
NMTTP	42	0	3	B	0	M1
NMTTP	42	0	4	B	0	M1
NMTTP	42	0	4	E	1	M1
NMTHO	44	0	0	384	C	0	M1
NMTTP	46	0	1	E	0	M1
NMTTP	46	192	2	E	0	M1
NMTTP	47	0	3	E	0	M1
NMTTP	47	192	4	E	0	M1
NMTTP	48	0	5	E	0	M1
NMTTP	48	192	6	E	0	M1
NMTTP	49	0	0	C	0	M1
NMHLD	50	0	6	144
NMTAP	50	144	4
NMTAP	50	288	3
NMTAP	50	288	5
NMHLD	51	0	2	144
NMTAP	51	144	4
NMTAP	51	288	3
NMTAP	51	288	5
NMHLD	52	0	6	144
NMTAP	52	144	4
NMTAP	52	288	3
NMTAP	52	288	5
NMTAP	53	0	3
NMTAP	53	96	2
NMTAP	53	192	1
NMTAP	53	192	3
NMTAP	53	288	1
NMTAP	53	288	3
NMHLD	54	0	2	96
NMHLD	54	0	4	96
NMHLD	54	144	2	96
NMHLD	54	144	4	96
NMTAP	54	288	2
NMTAP	54	288	4
NMHLD	55	0	3	96
NMHLD	55	0	5	96
NMHLD	55	144	3	96
NMHLD	55	144	5	96
NMTAP	55	288	3
NMTAP	55	288	5
NMHLD	56	0	2	96
NMHLD	56	0	4	96
NMHLD	56	144	1	96
NMHLD	56	144	5	96
NMTAP	56	288	1
NMTAP	56	288	5
BRTAP	57	0	7
EXTAP	57	192	0
EXTAP	57	192	6
EXTAP	57	264	1
EXTAP	57	264	5
EXTAP	57	336	2
EXTAP	57	336	4
EXTAP	58	0	2
EXTAP	58	0	4
NMTAP	58	96	1
NMTAP	58	96	3
NMTAP	58	144	1
NMTAP	58	144	3
NMTAP	58	240	4
NMTAP	58	240	6
NMTAP	58	288	4
NMTAP	58	288	6
NMSTR	59	0	7
NMSI_	59	0	7	96	48	3
NMHLD	59	192	2	72
NMHLD	59	264	1	72
NMTAP	59	336	0
NMTAP	60	0	0
NMTAP	60	96	1
NMTAP	60	96	7
NMTAP	60	144	1
NMTAP	60	144	7
NMTAP	60	240	0
NMTAP	60	240	6
NMTAP	60	288	0
NMTAP	60	288	6
BRTAP	61	0	2
BRTAP	61	0	4
NMHLD	61	192	1	72
NMHLD	61	264	2	72
NMTAP	61	336	3
NMTAP	62	0	3
NMTAP	62	96	0
NMTAP	62	96	4
NMHLD	62	192	1	72
NMHLD	62	264	2	72
NMTAP	62	336	3
NMTAP	63	0	3
NMTAP	63	96	0
NMTAP	63	96	4
NMHLD	63	192	1	72
NMHLD	63	264	2	72
NMTAP	63	336	3
NMTAP	64	0	3
NMTAP	64	96	4
NMTAP	64	96	5
NMTAP	64	144	4
NMTAP	64	144	5
NMTAP	64	240	1
NMTAP	64	240	7
BRHLD	64	288	1	96
BRHLD	64	288	7	96
EXTAP	65	96	0
EXTAP	65	192	1
EXTAP	65	192	7
EXTAP	65	264	2
EXTAP	65	264	6
EXTAP	65	336	3
EXTAP	65	336	5
EXTAP	66	0	3
EXTAP	66	0	5
NMTAP	66	96	4
NMTAP	66	96	6
NMTAP	66	144	4
NMTAP	66	144	6
NMTAP	66	240	1
NMTAP	66	240	3
NMTAP	66	288	1
NMTAP	66	288	3
NMSTR	67	0	0
NMSI_	67	0	0	96	48	4
NMHLD	67	192	5	72
NMHLD	67	264	6	72
NMTAP	67	336	7
NMTAP	68	0	7
NMTAP	68	96	0
NMTAP	68	96	6
NMTAP	68	144	0
NMTAP	68	144	6
NMTAP	68	240	1
NMTAP	68	240	7
NMTAP	68	288	1
NMTAP	68	288	7
BRTAP	69	0	3
BRTAP	69	0	5
NMHLD	69	192	6	72
NMHLD	69	264	5	72
NMTAP	69	336	4
NMTAP	70	0	4
NMTAP	70	96	3
NMTAP	70	96	7
NMHLD	70	192	6	72
NMHLD	70	264	5	72
NMTAP	70	336	4
NMTAP	71	0	4
NMTAP	71	96	3
NMTAP	71	96	7
NMHLD	71	192	6	72
NMHLD	71	264	5	72
NMTAP	71	336	4
NMTAP	72	0	4
NMTAP	72	96	3
NMTAP	72	96	5
NMTAP	72	144	3
NMTAP	72	144	5
NMTAP	72	240	2
NMTAP	72	240	4
NMSTR	72	288	2
NMSCL	72	288	2	96	192	5
NMTAP	72	288	4
BXTAP	74	0	4
BXTAP	74	0	5
NMTAP	74	96	4
NMTAP	74	96	5
NMTAP	74	192	1
NMTAP	74	192	3
NMTAP	74	288	0
NMTAP	74	288	7
NMSTR	75	0	1
NMSI_	75	0	1	96	48	4
NMTAP	75	0	7
NMTAP	75	96	7
NMSTR	75	192	6
NMSI_	75	192	6	96	48	3
NMTAP	75	192	7
NMTAP	75	288	7
BXTAP	76	0	2
NMTAP	76	96	2
NMTAP	76	96	3
NMTAP	76	192	4
NMTAP	76	192	6
NMTAP	76	288	0
NMTAP	76	288	7
NMTAP	77	0	0
NMSTR	77	0	6
NMSI_	77	0	6	96	48	3
NMTAP	77	96	0
NMTAP	77	192	0
NMSTR	77	192	1
NMSI_	77	192	1	96	48	4
NMTAP	77	288	0
BRTAP	78	0	7
NMTAP	78	96	5
NMTAP	78	144	4
NMHLD	78	192	5	96
NMTAP	78	288	0
NMTAP	78	336	0
NMTAP	79	48	1
NMTAP	79	48	3
NMTAP	79	96	1
NMHLD	79	96	3	96
NMTAP	79	192	2
NMTAP	79	288	4
NMTAP	79	288	5
NMTAP	79	336	4
NMTAP	79	336	5
NMTAP	80	48	6
NMTAP	80	48	7
NMTAP	80	96	6
NMTAP	80	96	7
NMTAP	80	192	3
NMTAP	80	288	1
NMTAP	80	288	7
NMTAP	80	336	1
NMTAP	80	336	7
NMTAP	81	48	2
NMTAP	81	48	6
NMTAP	81	96	2
NMTAP	81	96	6
NMSTR	81	192	4
NMSI_	81	192	4	96	48	0
NMSTR	81	192	5
NMSI_	81	192	5	96	48	1
BRTAP	82	0	2
BRTAP	82	0	7
NMTAP	82	192	3
NMSTR	82	288	2
NMSCL	82	288	2	96	96	7
NMSTR	83	96	6
NMSCL	83	96	6	96	96	3
EXTAP	83	288	1
EXHLD	83	336	1	144
NMTAP	84	96	0
NMTAP	84	192	0
NMTAP	84	192	7
NMSTR	84	288	6
NMSCL	84	288	6	96	96	3
NMSTR	85	96	2
NMSCL	85	96	2	96	96	7
EXTAP	85	288	6
BXHLD	85	336	6	144
NMTAP	86	96	0
NMTAP	86	144	0
NMTAP	86	240	2
NMTAP	86	240	7
NMTAP	86	288	2
NMTAP	86	288	7
NMTAP	87	0	1
NMTAP	87	0	4
NMTAP	87	48	1
NMTAP	87	48	4
NMTAP	87	144	3
NMTAP	87	144	6
NMTAP	87	192	3
NMSTR	87	192	6
NMSI_	87	192	6	96	48	2
BXSTR	88	0	0
NMSI_	88	0	0	96	48	4
BXSTR	88	0	1
NMSI_	88	0	1	96	48	4
BXSTR	88	192	6
NMSI_	88	192	6	96	48	3
BXSTR	88	192	7
NMSI_	88	192	7	96	48	3
BRTAP	89	0	1
BRHLD	89	0	4	384
NMSTR	90	0	2
NMSCL	90	0	2	96	672	4
NMHLD	93	0	2	192
NMHLD	93	0	5	192
NMTAP	94	0	2
NMTAP	94	48	3
NMTAP	94	96	4
NMHLD	94	144	5	240
NMTAP	95	0	2
NMTAP	95	48	3
NMTAP	95	96	4
NMHLD	95	144	5	240
NMTAP	96	0	3
NMTAP	96	48	3
NMTAP	96	96	4
NMHLD	96	144	2	240
NMTAP	97	0	4
NMTAP	97	48	4
NMTAP	97	96	3
NMHLD	97	144	5	240
NMTHO	98	0	0	1896	C	0	M1
NMTTP	99	0	5	E	0	M1
NMTTP	100	0	6	E	0	M1
NMTTP	101	0	7	E	0	M1
NMTTP	102	0	0	E	0	M1

T_REC_TAP	245
T_REC_BRK	10
T_REC_XTP	19
T_REC_BXX	3
T_REC_HLD	56
T_REC_XHO	1
T_REC_BHO	3
T_REC_BXH	1
T_REC_STR	23
T_REC_BST	0
T_REC_XST	0
T_REC_XBS	4
T_REC_TTP	23
T_REC_THO	3
T_REC_SLD	27
T_REC_BSL	0
T_REC_ALL	418
T_NUM_TAP	310
T_NUM_BRK	21
T_NUM_HLD	60
T_NUM_SLD	27
T_NUM_ALL	418
T_JUDGE_TAP	327
T_JUDGE_HLD	267
T_JUDGE_SLD	27
T_JUDGE_ALL	621
TTM_EACHPAIRS	112
TTM_SCR_TAP	155000
TTM_SCR_BRK	54600
TTM_SCR_HLD	60000
TTM_SCR_SLD	40500
TTM_SCR_ALL	310100
TTM_SCR_S	298800
TTM_SCR_SS	308000
TTM_RAT_ACV	10068

