VERSION	0.00.00	1.04.00
FES_MODE	0
BPM_DEF	148.000	148.000	148.000	148.000
MET_DEF	4	4
RESOLUTION	384
CLK_DEF	384
COMPATIBLE_CODE	MA2

BPM	0	0	148.000
MET	0	0	4	4
MET	42	0	4	7
MET	47	96	4	4
MET	65	96	8	14
MET	70	192	4	4

NMTTP	1	192	1	E	0	M1
NMTTP	1	204	2	E	0	M1
NMTTP	1	216	3	E	0	M1
NMTTP	1	228	4	E	0	M1
NMTTP	1	240	5	E	0	M1
NMTTP	1	252	6	E	0	M1
NMTTP	1	264	7	E	0	M1
NMTTP	1	276	0	E	0	M1
NMTHO	1	288	0	96	C	0	M1
NMTTP	1	288	1	E	0	M1
NMTAP	2	192	4
NMTAP	2	192	5
NMTAP	2	336	3
NMTAP	2	336	4
NMTAP	3	96	2
NMTAP	3	96	3
NMTAP	3	192	1
NMTAP	3	192	4
NMTAP	3	288	3
NMTAP	3	288	4
NMTAP	4	0	3
NMTAP	4	0	6
NMTAP	4	192	3
NMTAP	4	192	4
NMTAP	4	336	2
NMHLD	4	336	3	144
NMTAP	5	48	4
NMHLD	5	96	4	96
NMHLD	5	192	5	96
NMHLD	5	288	6	96
BRSTR	6	0	7
NMSI_	6	0	7	96	48	3
NMTAP	6	96	2
NMTAP	6	144	1
NMSTR	6	192	0
NMSI_	6	192	0	96	48	4
NMTAP	6	288	5
NMSTR	6	336	6
NMSI_	6	336	6	96	48	1
NMSTR	7	48	3
NMSI_	7	48	3	96	48	7
NMTAP	7	96	3
NMSTR	7	144	4
NMSI_	7	144	4	96	48	0
NMTAP	7	192	4
NMSTR	7	288	2
NMSI_	7	288	2	96	48	6
NMTAP	8	0	2
NMHLD	8	0	5	96
NMSTR	8	96	7
NMSI_	8	96	7	96	48	3
NMHLD	8	192	4	96
NMTAP	8	192	7
NMTAP	8	288	2
BRHLD	8	336	1	96
BRTAP	8	336	5
NMTAP	9	48	7
NMTAP	9	64	6
NMTAP	9	80	5
NMSTR	9	96	4
NMSI_	9	96	4	96	48	7
NMTAP	9	192	3
NMTAP	9	192	4
NMTAP	9	288	0
NMTAP	9	288	6
EXTAP	10	0	2
EXHLD	10	0	5	384
NMTTP	10	96	3	B	0	M1
NMTTP	10	192	0	C	0	M1
NMTTP	10	288	7	B	0	M1
NMHLD	11	0	2	384
NMTTP	11	96	5	E	0	M1
NMTTP	11	192	0	C	0	M1
NMTTP	11	288	1	E	0	M1
NMHLD	12	0	5	288
NMTTP	12	96	3	A	0	M1
NMTTP	12	192	0	C	0	M1
NMSTR	12	288	7
NMSCR	12	288	7	96	96	3
NMTAP	13	0	6
NMTAP	13	144	5
NMHLD	13	192	5	96
NMTAP	13	240	4
EXHLD	13	288	7	96
NMTAP	13	336	4
NMSTR	14	0	5
NMSSL	14	0	5	96	96	1
NMTAP	14	144	2
NMHLD	14	192	2	96
NMTAP	14	240	3
EXHLD	14	288	0	96
NMTAP	14	336	3
NMSTR	15	0	2
NMSSR	15	0	2	96	96	6
NMTAP	15	144	5
NMHLD	15	192	5	96
NMTAP	15	240	4
NMTAP	15	256	3
NMTAP	15	272	2
NMTAP	15	288	1
NMTAP	15	336	4
NMHLD	16	0	0	144
NMHLD	16	0	3	144
NMHLD	16	192	2	144
NMHLD	16	192	5	144
NMSTR	17	0	3
BRSI_	17	0	3	96	48	0
NMSTR	17	0	7
BRSI_	17	0	7	96	48	4
CNSCR	17	144	0	0	48	2
CNSCR	17	144	4	0	48	6
NMTAP	17	240	5
NMTAP	17	256	4
NMTAP	17	272	5
NMSTR	17	288	4
NMSI_	17	288	4	96	48	1
NMSI_	17	288	4	96	48	7
BRTAP	18	0	4
NMTAP	18	144	2
NMTAP	18	168	3
NMHLD	18	192	2	48
NMHLD	18	240	1	48
NMHLD	18	288	0	48
NMTTP	18	336	7	B	1	M1
NMTAP	19	48	4
NMTAP	19	72	3
NMTAP	19	96	4
NMTAP	19	144	2
NMSTR	19	192	1
NMSI_	19	192	1	96	48	4
NMTAP	19	192	3
NMTAP	19	240	4
NMTAP	19	264	5
NMTAP	19	288	6
NMTAP	19	336	5
NMTAP	20	0	2
NMTAP	20	0	7
NMTAP	20	48	1
NMTAP	20	64	0
NMTAP	20	80	1
NMTAP	20	96	0
NMTAP	20	144	7
NMTAP	20	192	1
NMTAP	20	192	6
NMSTR	20	240	0
NMSF_	20	240	0	96	96	4
NMTAP	20	240	5
NMTAP	20	288	4
NMSTR	21	96	7
NMSI_	21	96	7	96	48	3
NMSTR	21	192	1
NMSI_	21	192	1	96	48	5
BRTAP	21	288	6
EXTAP	22	0	3
EXTAP	22	32	3
EXTAP	22	64	3
EXTAP	22	96	2
EXTAP	22	96	4
NMTAP	22	144	5
NMTAP	22	168	4
NMHLD	22	192	5	48
NMHLD	22	240	6	48
NMHLD	22	288	7	48
NMTTP	22	336	0	B	1	M1
NMTAP	23	48	3
NMTAP	23	72	4
NMTAP	23	96	3
NMTAP	23	144	5
NMTAP	23	192	4
NMSTR	23	192	6
NMSI_	23	192	6	96	48	3
NMTAP	23	240	3
NMTAP	23	264	2
NMTAP	23	288	1
NMTAP	23	336	2
BXSTR	24	0	0
NMSUR	24	0	0	96	48	4
BXSTR	24	0	4
NMSUR	24	0	4	96	48	0
BXTAP	24	192	3
BXTAP	24	192	7
NMTAP	24	240	2
NMTAP	24	264	4
NMTAP	24	288	1
NMTAP	24	312	4
BXSTR	24	336	0
BRSI_	24	336	0	96	48	4
NMTAP	25	48	5
CNSCL	25	96	4	0	96	1
NMTAP	25	96	5
NMTTP	25	192	7	E	0	M1
NMTTP	25	224	6	E	0	M1
NMTTP	25	256	5	E	0	M1
NMTTP	25	288	3	E	0	M1
NMTTP	25	320	2	E	0	M1
NMTTP	25	352	1	E	0	M1
NMTTP	26	0	0	E	0	M1
NMTTP	26	0	7	E	0	M1
NMTAP	26	144	5
NMTAP	26	168	4
NMHLD	26	192	5	48
NMHLD	26	240	6	48
NMHLD	26	288	7	48
NMTTP	26	336	0	B	1	M1
NMTAP	27	48	3
NMTAP	27	72	4
NMTAP	27	96	3
NMTAP	27	144	5
NMTAP	27	192	4
NMSTR	27	192	6
NMSI_	27	192	6	96	48	3
NMTAP	27	240	3
NMTAP	27	264	2
NMTAP	27	288	1
NMTAP	27	336	2
NMTAP	28	0	0
NMTAP	28	0	5
NMTAP	28	48	6
NMTAP	28	64	7
NMTAP	28	80	6
NMTAP	28	96	7
NMTAP	28	144	0
NMTAP	28	192	1
NMTAP	28	192	6
NMTAP	28	240	2
NMSTR	28	240	7
NMSF_	28	240	7	96	96	3
NMTAP	28	288	3
NMSTR	29	96	0
NMSI_	29	96	0	96	48	4
NMSTR	29	192	6
NMSI_	29	192	6	96	48	2
BRTAP	29	288	1
BXHLD	30	0	0	48
BXHLD	30	0	7	48
BXHLD	30	96	4	48
BXHLD	30	96	5	48
NMHLD	30	192	2	48
NMTAP	30	192	3
NMHLD	30	240	1	48
NMHLD	30	288	0	48
NMTTP	30	336	7	B	1	M1
NMTAP	31	48	4
NMTAP	31	72	3
NMTAP	31	96	4
NMTAP	31	144	2
NMSTR	31	192	1
NMSI_	31	192	1	96	48	4
NMTAP	31	192	3
NMTAP	31	240	4
NMTAP	31	264	5
NMTAP	31	288	6
NMTAP	31	336	5
EXSTR	32	0	3
NMSV_	32	0	3	96	48	1
EXHLD	32	0	7	96
EXHLD	32	192	0	96
EXSTR	32	192	6
NMSV_	32	192	6	96	48	4
NMTTP	33	0	3	E	0	M1
NMTTP	33	32	2	E	0	M1
NMTTP	33	64	1	E	0	M1
NMTTP	33	96	7	E	0	M1
NMTTP	33	128	6	E	0	M1
NMTTP	33	160	5	E	0	M1
NMTTP	33	192	3	E	0	M1
NMTTP	33	192	4	E	0	M1
NMSTR	33	288	4
NMSI_	33	288	4	96	48	0
NMSTR	33	288	5
NMSI_	33	288	5	96	48	1
EXTAP	34	0	4
EXTAP	34	0	5
NMSTR	34	96	2
NMSI_	34	96	2	96	48	6
NMSTR	34	96	3
NMSI_	34	96	3	96	48	7
NMTAP	34	192	2
NMTAP	34	192	3
NMTAP	34	288	0
NMTAP	34	288	5
NMSTR	34	336	1
NMSXL	34	336	1	96	96	0
NMTAP	34	336	4
NMTAP	35	48	0
NMSTR	35	96	7
NMSI_	35	96	7	96	48	4
NMTAP	35	144	6
NMTAP	35	192	5
NMSTR	35	288	3
NMSI_	35	288	3	96	48	6
NMSI_	35	288	3	96	48	7
NMTAP	36	0	3
NMSTR	36	96	4
NMSI_	36	96	4	96	48	0
NMSTR	36	96	5
NMSI_	36	96	5	96	48	1
NMTAP	36	192	4
NMTAP	36	192	5
NMTAP	36	288	2
NMTAP	36	288	7
NMTAP	36	336	3
NMSTR	36	336	6
NMSXR	36	336	6	96	96	7
NMTAP	37	48	7
NMSTR	37	96	0
NMSI_	37	96	0	96	48	4
NMTAP	37	144	1
NMTAP	37	192	2
NMTAP	37	288	3
NMTAP	37	288	6
NMTAP	37	336	2
EXSTR	38	0	1
NMSUR	38	0	1	96	48	5
EXTAP	38	0	4
NMTAP	38	96	5
NMTAP	38	144	6
NMTAP	38	192	3
NMSTR	38	192	7
NMSUL	38	192	7	96	48	3
NMTAP	38	288	3
NMSTR	38	336	2
NMSCL	38	336	2	96	48	6
NMTAP	39	48	6
NMSTR	39	96	4
NMSI_	39	96	4	96	48	0
NMTAP	39	144	3
NMSTR	39	192	2
NMSI_	39	192	2	96	48	6
NMTAP	39	288	2
NMSTR	39	288	7
NMSI_	39	288	7	96	48	4
NMSUL	39	288	7	96	48	2
NMTAP	40	0	7
NMSTR	40	96	0
NMSCR	40	96	0	96	48	3
NMSTR	40	96	3
NMSCR	40	96	3	96	48	6
NMTAP	40	192	0
NMTAP	40	192	3
NMTAP	40	288	4
NMTAP	40	288	7
NMSTR	40	336	3
NMSCL	40	336	3	96	48	0
NMTAP	40	336	6
NMTAP	41	48	7
NMTAP	41	64	6
NMTAP	41	80	5
NMSTR	41	96	4
NMSI_	41	96	4	96	24	0
NMSTR	41	192	4
NMSI_	41	192	4	96	48	2
NMSI_	41	192	4	96	48	6
BRTAP	41	288	4
EXTAP	42	0	1
EXTAP	42	0	7
EXTAP	42	72	6
EXTAP	42	84	5
EXHLD	42	96	4	48
NMTAP	42	144	3
NMTAP	42	192	2
NMTAP	42	192	4
NMTAP	42	240	2
NMTAP	42	256	3
NMTAP	42	272	2
NMTAP	42	288	3
NMSTR	42	336	1
NMSV_	42	336	1	96	96	3
NMTAP	43	48	4
NMTAP	43	96	4
EXTAP	43	192	7
EXTAP	43	204	6
EXTAP	43	216	5
EXTAP	43	288	2
EXTAP	43	288	3
NMTAP	43	336	1
NMTAP	43	352	0
NMTAP	43	368	1
NMTAP	44	0	0
NMTAP	44	48	2
NMTAP	44	96	3
NMTAP	44	144	4
NMTAP	44	192	3
NMSTR	44	240	2
NMSI_	44	240	2	96	48	6
NMTAP	44	336	4
NMSTR	45	0	4
NMSV_	45	0	4	96	96	7
NMTAP	45	96	0
EXTAP	45	192	1
EXTAP	45	204	2
EXTAP	45	216	3
NMTAP	45	288	6
NMTAP	45	336	5
NMTAP	46	0	4
NMTAP	46	48	3
NMTAP	46	96	2
NMSTR	46	144	1
NMSV_	46	144	1	96	96	3
NMTAP	46	240	4
NMTAP	46	288	4
EXTAP	47	0	7
EXTAP	47	12	6
EXTAP	47	24	5
BXSTR	47	96	2
NMSLL	47	96	2	96	96	6
NMTAP	47	168	3
NMTAP	47	240	5
BXSTR	47	288	5
NMSLR	47	288	5	96	96	1
NMTAP	47	360	4
NMTAP	48	48	2
NMTAP	48	144	3
NMTAP	48	144	4
NMSTR	48	192	5
NMSI_	48	192	5	96	48	1
NMTAP	48	208	4
NMTAP	48	224	5
NMTAP	48	240	4
BRTAP	48	288	3
EXHLD	49	96	4	432
EXTAP	49	96	5
NMTTP	49	288	0	B	0	M1
NMTTP	49	288	7	B	0	M1
NMTAP	50	0	3
NMHLD	50	48	3	240
NMTAP	50	240	2
NMTAP	50	288	2
NMTAP	51	0	1
NMTAP	51	0	4
NMTAP	51	96	2
NMHLD	51	96	3	336
NMTTP	51	288	0	B	0	M1
NMTTP	51	288	7	B	0	M1
NMTAP	52	0	4
NMHLD	52	48	4	144
NMTAP	52	144	5
NMHLD	52	192	5	96
NMHLD	52	288	6	96
NMTAP	53	0	7
NMHLD	53	96	0	432
NMTAP	53	96	1
NMTTP	53	288	3	B	0	M1
NMTTP	53	288	4	B	0	M1
NMTAP	54	0	7
NMHLD	54	48	7	240
NMTAP	54	240	6
NMTAP	54	288	6
NMTAP	55	0	0
NMTAP	55	0	5
NMTAP	55	96	6
NMHLD	55	96	7	336
NMTTP	55	288	3	B	0	M1
NMTTP	55	288	4	B	0	M1
NMTAP	56	0	0
NMHLD	56	48	0	144
NMTAP	56	144	1
NMTAP	56	192	2
NMTAP	56	240	3
NMSTR	56	288	4
NMSSR	56	288	4	96	96	0
NMSTR	56	288	5
NMSSL	56	288	5	96	96	1
NMTAP	57	192	2
NMTAP	57	192	6
NMTAP	57	288	0
NMTAP	57	288	4
NMTAP	57	304	1
NMTAP	57	320	2
NMTAP	57	336	7
NMTAP	57	352	6
NMTAP	57	368	5
NMTAP	58	0	0
NMTAP	58	0	4
BXSTR	58	48	2
NMSI_	58	48	2	96	48	6
BXTAP	58	48	6
NMTAP	58	144	4
NMSTR	58	192	4
NMSCR	58	192	4	96	48	7
NMTAP	58	288	3
NMSTR	58	288	4
NMSI_	58	288	4	96	48	1
NMSTR	59	0	4
NMSI_	59	0	4	96	48	7
NMTAP	59	0	5
NMTAP	59	96	2
NMSTR	59	96	4
NMSUL	59	96	4	96	48	0
NMSTR	59	192	4
NMSXL	59	192	4	96	96	3
NMTAP	59	192	6
NMTAP	59	288	1
NMTAP	59	288	4
NMTAP	60	0	2
NMSTR	60	48	1
NMSXL	60	48	1	96	96	0
NMTAP	60	144	0
NMSTR	60	192	7
NMSI_	60	192	7	96	48	4
NMTAP	60	240	6
NMTAP	60	288	5
NMTAP	61	0	3
NMTAP	61	48	2
NMTAP	61	96	1
NMSTR	61	96	3
NMSCL	61	96	3	96	48	0
NMSTR	61	192	3
NMSI_	61	192	3	96	48	6
NMTAP	61	192	4
NMTAP	61	288	2
NMSTR	61	288	3
NMSI_	61	288	3	96	48	0
NMSTR	62	0	3
NMSUR	62	0	3	96	48	7
NMTAP	62	0	5
NMTAP	62	96	1
NMSTR	62	96	3
NMSXR	62	96	3	96	96	4
NMTAP	62	192	3
NMTAP	62	192	6
NMTAP	62	240	7
NMSTR	62	288	6
NMSI_	62	288	6	96	48	2
NMSTR	63	0	0
NMSSL	63	0	0	96	96	4
NMTAP	63	0	6
NMTAP	63	96	0
NMTAP	63	96	5
NMTAP	63	192	6
NMTAP	63	240	5
NMSTR	63	288	4
NMSCR	63	288	4	96	48	7
NMSTR	63	336	3
NMSCL	63	336	3	96	48	0
BRTAP	64	0	4
BRTAP	64	48	3
NMTAP	64	144	7
NMTAP	64	160	6
NMTAP	64	176	5
NMTAP	64	192	0
NMSTR	64	192	4
NMSI_	64	192	4	96	48	0
NMSTR	64	288	4
NMSI_	64	288	4	96	48	2
NMSI_	64	288	4	96	48	6
BRTAP	65	0	4
EXTAP	65	96	0
EXHLD	65	96	7	48
NMHLD	65	144	6	48
NMHLD	65	192	5	48
EXHLD	65	240	0	48
NMHLD	65	288	1	48
NMHLD	65	336	2	48
EXHLD	66	0	4	48
NMHLD	66	48	5	48
NMHLD	66	96	6	48
EXHLD	66	144	3	48
NMHLD	66	192	2	48
NMHLD	66	240	1	48
EXTAP	66	288	0
NMTAP	66	336	2
NMTAP	66	336	7
EXTAP	67	0	6
NMTAP	67	24	4
NMTAP	67	48	6
NMTAP	67	72	4
NMTAP	67	96	6
EXTAP	67	144	1
NMTAP	67	168	3
NMTAP	67	192	1
NMTAP	67	216	3
NMTAP	67	240	1
EXTAP	67	288	5
NMTAP	67	312	7
NMTAP	67	336	5
NMTAP	67	360	7
NMTAP	68	0	5
EXTAP	68	48	2
EXTAP	68	48	4
NMTAP	68	96	5
NMTAP	68	120	1
NMTAP	68	144	6
NMTAP	68	168	0
EXTAP	68	192	7
NMTAP	68	224	7
NMTAP	68	256	7
EXHLD	68	288	1	96
NMTAP	68	336	0
NMTAP	68	352	7
NMTAP	68	368	6
NMTAP	69	0	5
EXTAP	69	48	4
EXHLD	69	48	6	96
NMTAP	69	96	4
NMTAP	69	112	3
NMTAP	69	128	2
NMTAP	69	144	1
EXHLD	69	192	0	96
EXTAP	69	192	4
NMTAP	69	240	4
NMTAP	69	256	5
NMTAP	69	272	6
NMTAP	69	288	7
EXTAP	69	336	0
EXTAP	69	336	6
NMTAP	70	0	1
NMTAP	70	0	5
NMTAP	70	16	2
NMTAP	70	32	3
NMTAP	70	48	7
NMTAP	70	64	6
NMTAP	70	80	5
EXTAP	70	96	1
NMTAP	70	112	0
NMTAP	70	128	7
NMTAP	70	144	6
NMTAP	70	160	5
NMTAP	70	176	4
EXHLD	70	192	3	32
EXHLD	70	192	6	32
NMHLD	70	256	1	32
NMHLD	70	256	4	32
NMHLD	70	320	0	32
NMHLD	70	320	7	32
NMHLD	71	0	4	32
NMHLD	71	0	6	32
NMHLD	71	64	1	32
NMHLD	71	64	3	32
BRHLD	71	128	2	112
BRHLD	71	128	5	112
NMSTR	71	288	0
BRSCR	71	288	0	96	96	3
NMSTR	71	288	4
BRSCR	71	288	4	96	96	7
NMTTP	72	192	7	E	0	M1
NMTTP	72	204	6	E	0	M1
NMTTP	72	216	5	E	0	M1
NMTTP	72	228	4	E	0	M1
NMTTP	72	240	3	E	0	M1
NMTTP	72	252	2	E	0	M1
NMTTP	72	264	1	E	0	M1
NMTTP	72	276	0	E	0	M1
EXSTR	72	288	2
NMSUR	72	288	2	96	96	5
NMTTP	72	288	7	E	0	M1

T_REC_TAP	294
T_REC_BRK	9
T_REC_XTP	38
T_REC_BXX	3
T_REC_HLD	52
T_REC_XHO	16
T_REC_BHO	3
T_REC_BXH	4
T_REC_STR	71
T_REC_BST	1
T_REC_XST	4
T_REC_XBS	6
T_REC_TTP	54
T_REC_THO	1
T_REC_SLD	82
T_REC_BSL	5
T_REC_ALL	643
T_NUM_TAP	461
T_NUM_BRK	31
T_NUM_HLD	69
T_NUM_SLD	82
T_NUM_ALL	643
T_JUDGE_TAP	480
T_JUDGE_HLD	168
T_JUDGE_SLD	87
T_JUDGE_ALL	735
TTM_EACHPAIRS	96
TTM_SCR_TAP	230500
TTM_SCR_BRK	80600
TTM_SCR_HLD	69000
TTM_SCR_SLD	123000
TTM_SCR_ALL	503100
TTM_SCR_S	485000
TTM_SCR_SS	500000
TTM_RAT_ACV	10062

