VERSION	0.00.00	1.04.00
FES_MODE	0
BPM_DEF	148.000	148.000	148.000	148.000
MET_DEF	4	4
RESOLUTION	384
CLK_DEF	384
COMPATIBLE_CODE	MA2

BPM	0	0	148.000
MET	0	0	4	4
MET	42	0	4	7
MET	47	96	4	4
MET	65	96	8	14
MET	70	192	4	4

NMTHO	1	192	0	96	C	0	M1
EXTAP	2	0	0
EXTAP	2	0	7
NMTAP	2	192	1
NMTAP	2	192	5
NMHLD	2	336	2	144
NMTAP	3	96	3
NMTAP	3	192	1
NMTAP	3	192	4
NMTAP	4	0	4
NMTAP	4	0	5
NMTAP	4	192	3
NMTAP	4	192	6
NMHLD	4	336	7	144
NMTAP	5	96	0
NMTAP	5	192	1
NMTAP	5	192	6
NMSTR	6	0	2
NMSCL	6	0	2	96	48	0
NMSTR	6	192	6
BRSCL	6	192	6	96	48	4
EXSTR	7	0	0
NMSI_	7	0	0	96	96	3
EXSTR	7	0	4
NMSI_	7	0	4	96	96	7
NMTAP	7	288	2
NMTAP	7	288	6
NMHLD	8	0	1	192
NMTAP	8	96	3
NMTAP	8	192	4
NMTAP	8	288	4
NMTAP	8	288	5
NMSTR	8	336	3
NMSUR	8	336	3	96	144	4
NMHLD	8	336	6	240
BRTAP	9	288	3
BRTAP	9	288	4
NMHLD	10	0	2	192
NMHLD	10	192	3	192
NMHLD	11	0	4	192
NMHLD	11	192	5	192
NMHLD	12	0	6	192
NMHLD	12	192	7	192
NMSTR	13	0	0
NMSXL	13	0	0	96	96	2
NMTAP	13	288	1
NMTAP	13	288	4
NMTAP	14	0	5
NMTAP	14	96	4
NMTAP	14	96	5
NMTAP	14	192	3
NMTAP	14	192	5
NMTAP	14	288	2
NMTAP	14	288	5
NMTAP	15	0	1
NMTAP	15	96	0
NMTAP	15	96	1
NMTAP	15	192	1
NMTAP	15	192	7
NMTAP	15	288	1
NMTAP	15	288	6
BRTAP	16	0	0
BRTAP	16	0	5
BRTAP	16	192	2
BRTAP	16	192	3
BRSTR	17	0	1
BRSV_	17	0	1	96	96	3
BRSTR	17	0	7
BRSV_	17	0	7	96	96	5
NMTAP	17	288	3
NMTAP	17	288	4
BXTAP	18	0	1
BXTAP	18	0	5
EXTAP	18	192	0
EXTAP	18	192	6
EXSTR	18	240	0
NMSCL	18	240	0	96	144	4
EXHLD	18	240	6	240
NMTAP	19	288	4
NMTAP	19	288	5
NMHLD	20	0	6	96
NMTAP	20	0	7
NMTAP	20	96	4
NMTAP	20	192	3
NMTAP	20	192	5
NMSTR	20	240	3
NMSCR	20	240	3	96	144	7
NMHLD	20	240	5	240
NMTAP	21	288	1
NMTAP	21	288	6
EXTAP	22	0	7
EXTAP	22	32	7
EXTAP	22	64	0
EXTAP	22	96	0
NMTAP	22	192	1
NMTAP	22	192	7
NMHLD	22	240	1	240
NMSTR	22	240	7
NMSCR	22	240	7	96	144	3
NMTAP	23	288	2
NMTAP	23	288	3
BXHLD	24	0	0	96
BXHLD	24	0	1	96
BXHLD	24	192	1	96
BXHLD	24	192	3	96
BXTAP	24	336	0
BXTAP	24	336	4
NMTAP	25	48	5
NMTAP	25	96	4
NMTAP	25	96	5
BRTAP	25	192	2
BRTAP	25	192	6
NMTTP	26	0	3	E	0	M1
NMTTP	26	0	3	A	0	M1
NMTTP	26	0	3	D	0	M1
NMTTP	26	0	4	A	0	M1
NMTTP	26	0	5	E	0	M1
NMTTP	26	0	5	D	0	M1
NMTAP	26	192	1
NMTAP	26	192	7
NMTAP	26	240	1
NMSTR	26	240	7
NMSCR	26	240	7	96	144	3
EXHLD	26	336	2	144
NMTAP	27	288	2
NMTAP	27	288	3
NMTAP	28	0	0
NMHLD	28	0	1	96
NMTAP	28	96	3
NMTAP	28	192	2
NMTAP	28	192	4
NMTAP	28	240	2
NMSTR	28	240	4
NMSCL	28	240	4	96	144	0
EXHLD	28	336	1	144
NMTAP	29	288	0
NMTAP	29	288	1
NMHLD	30	0	2	12
NMHLD	30	0	3	12
NMHLD	30	96	6	12
NMHLD	30	96	7	12
NMTAP	30	192	0
NMTAP	30	192	5
NMSTR	30	240	0
NMSCL	30	240	0	96	144	4
NMTAP	30	240	5
EXHLD	30	336	6	144
NMTAP	31	288	4
NMTAP	31	288	5
BXHLD	32	0	0	96
BXHLD	32	0	6	96
BXHLD	32	192	2	96
BXHLD	32	192	4	96
EXTAP	33	0	3
EXTAP	33	32	3
EXTAP	33	64	3
EXTAP	33	96	4
EXTAP	33	128	4
EXTAP	33	160	4
EXHLD	33	192	1	96
NMTTP	33	288	0	C	1	M1
EXSTR	34	0	0
NMSI_	34	0	0	96	48	4
NMSTR	34	96	6
NMSI_	34	96	6	96	48	2
NMHLD	34	192	1	96
NMTAP	34	288	3
NMTAP	34	336	0
NMTAP	34	336	4
NMTAP	35	48	2
NMTAP	35	48	6
NMSTR	35	96	2
NMSCR	35	96	2	96	96	5
NMSTR	35	96	6
NMSCR	35	96	6	96	96	1
NMSTR	36	0	7
NMSI_	36	0	7	96	48	3
NMSTR	36	96	1
NMSI_	36	96	1	96	48	5
NMHLD	36	192	6	96
NMTAP	36	288	4
NMTAP	36	336	3
NMSTR	36	336	7
NMSSR	36	336	7	96	144	3
NMSTR	37	288	1
NMSCR	37	288	1	96	96	5
EXTAP	38	0	3
NMSTR	38	96	6
BRSCR	38	96	6	96	96	2
EXTAP	38	192	0
NMTAP	38	288	3
EXSTR	39	0	3
NMSI_	39	0	3	96	96	0
EXSTR	39	0	7
NMSI_	39	0	7	96	96	4
NMTAP	39	288	1
NMTAP	39	288	5
NMHLD	40	0	2	96
NMTAP	40	0	4
NMHLD	40	96	3	96
NMTAP	40	192	4
NMTAP	40	288	4
NMTAP	40	288	5
NMSTR	40	336	3
NMSUR	40	336	3	96	144	4
NMHLD	40	336	6	240
BRTAP	41	288	0
BRTAP	41	288	7
NMTAP	42	0	2
NMTAP	42	48	2
NMTAP	42	96	3
NMTAP	42	144	3
NMHLD	42	192	2	96
NMTAP	42	288	4
NMHLD	42	336	5	96
NMTAP	43	48	4
NMTAP	43	96	4
NMTAP	43	192	3
NMTAP	43	192	6
NMTAP	43	288	5
NMTAP	43	336	5
NMTAP	44	0	4
NMTAP	44	48	4
NMHLD	44	96	5	96
NMTAP	44	192	3
NMHLD	44	240	2	96
NMTAP	44	336	3
NMTAP	45	0	3
NMTAP	45	96	1
NMTAP	45	96	4
NMTAP	45	192	0
NMTAP	45	240	0
NMTAP	45	288	7
NMTAP	45	336	7
NMHLD	46	0	0	96
NMTAP	46	96	6
NMHLD	46	144	5	96
NMTAP	46	240	4
NMTAP	46	288	4
NMTAP	47	0	3
NMTAP	47	0	6
EXTAP	47	96	4
EXTAP	47	96	5
EXTAP	47	168	3
EXTAP	47	168	4
EXTAP	47	240	2
EXTAP	47	240	3
EXTAP	47	288	2
EXTAP	47	288	3
EXTAP	47	360	3
EXTAP	47	360	4
EXTAP	48	48	4
EXTAP	48	48	5
BXTAP	48	144	0
BXTAP	48	144	2
BXTAP	48	216	3
BXTAP	48	216	4
BXTAP	48	288	0
BXTAP	48	288	6
NMHLD	49	96	3	1536
NMTTP	49	192	3	E	0	M1
NMTTP	50	0	4	E	0	M1
NMTTP	50	192	3	E	0	M1
NMTTP	51	0	4	E	0	M1
NMTTP	51	192	2	E	0	M1
NMTTP	52	0	5	E	0	M1
NMTTP	52	192	2	E	0	M1
NMTTP	53	0	5	E	0	M1
NMHLD	53	96	5	768
NMTTP	53	192	6	E	0	M1
NMTTP	54	0	4	E	0	M1
NMTTP	54	192	7	E	0	M1
NMTTP	55	0	3	E	0	M1
NMHLD	55	96	2	96
NMHLD	55	192	3	96
NMTAP	55	288	4
NMTAP	56	0	2
NMTAP	56	0	3
NMHLD	56	48	1	336
NMSTR	56	48	4
NMSUL	56	48	4	96	144	3
NMTHO	57	0	0	288	C	1	M1
NMTTP	57	96	3	E	0	M1
NMTTP	57	192	2	E	0	M1
NMTTP	57	288	1	E	0	M1
EXTAP	58	0	0
EXTAP	58	0	7
BXTAP	58	48	1
BXTAP	58	48	6
NMTAP	58	144	2
NMTAP	58	144	3
NMSTR	58	192	2
NMSI_	58	192	2	96	48	6
NMSTR	58	192	3
NMSI_	58	192	3	96	48	7
NMTAP	59	0	0
NMTAP	59	0	5
NMSTR	59	96	1
NMSI_	59	96	1	96	48	5
NMSTR	59	192	7
NMSI_	59	192	7	96	48	3
NMHLD	59	288	2	96
NMTAP	60	0	4
NMTAP	60	48	1
NMTAP	60	48	5
NMTAP	60	144	2
NMTAP	60	144	6
NMSTR	60	192	2
NMSI_	60	192	2	96	48	7
NMSTR	60	192	6
NMSI_	60	192	6	96	48	3
NMSTR	61	0	1
NMSCL	61	0	1	96	96	5
EXTAP	61	96	7
NMSTR	61	192	4
NMSCL	61	192	4	96	96	0
EXTAP	61	288	2
NMTAP	62	0	4
EXSTR	62	96	3
NMSV_	62	96	3	96	96	0
EXSTR	62	96	7
NMSV_	62	96	7	96	96	4
NMTAP	63	0	2
NMTAP	63	0	5
NMHLD	63	96	1	96
NMTAP	63	96	4
NMHLD	63	192	3	96
NMTAP	63	288	5
NMTAP	64	0	6
NMTAP	64	0	7
NMSTR	64	48	0
NMSUL	64	48	0	96	144	7
NMHLD	64	48	5	240
BRTAP	65	0	1
BRTAP	65	0	6
EXHLD	65	96	5	144
NMTAP	65	192	3
EXHLD	65	240	2	144
NMTAP	65	336	0
EXHLD	66	0	7	144
NMTAP	66	96	4
EXHLD	66	144	3	144
NMTAP	66	240	4
EXTAP	66	288	5
EXHLD	67	0	1	144
NMTAP	67	96	7
EXHLD	67	144	6	144
NMTAP	67	240	4
EXHLD	67	288	3	144
NMTAP	68	0	0
EXHLD	68	48	7	144
NMTAP	68	144	0
EXTAP	68	192	1
EXHLD	68	288	5	144
NMTAP	68	336	3
NMTAP	69	0	3
EXHLD	69	48	2	144
NMTAP	69	96	0
NMTAP	69	144	0
EXHLD	69	192	7	144
NMTAP	69	240	4
NMTAP	69	288	4
EXHLD	69	336	3	96
NMTAP	70	0	4
NMTAP	70	48	5
EXTAP	70	96	2
EXTAP	70	96	6
BXTAP	70	192	0
BXTAP	70	192	7
BXTAP	70	256	1
BXTAP	70	256	2
BXTAP	70	320	3
BXTAP	70	320	4
BXTAP	71	0	5
BXTAP	71	0	6
BXTAP	71	64	0
BXTAP	71	64	7
BXHLD	71	128	2	256
BXHLD	71	128	6	256
NMSTR	72	96	0
NMSCR	72	96	0	96	144	7
NMTAP	72	96	4
NMHLD	72	192	3	144

T_REC_TAP	145
T_REC_BRK	12
T_REC_XTP	36
T_REC_BXX	22
T_REC_HLD	39
T_REC_XHO	17
T_REC_BHO	0
T_REC_BXH	10
T_REC_STR	29
T_REC_BST	2
T_REC_XST	8
T_REC_XBS	0
T_REC_TTP	22
T_REC_THO	2
T_REC_SLD	35
T_REC_BSL	4
T_REC_ALL	383
T_NUM_TAP	240
T_NUM_BRK	50
T_NUM_HLD	58
T_NUM_SLD	35
T_NUM_ALL	383
T_JUDGE_TAP	276
T_JUDGE_HLD	242
T_JUDGE_SLD	39
T_JUDGE_ALL	557
TTM_EACHPAIRS	98
TTM_SCR_TAP	120000
TTM_SCR_BRK	130000
TTM_SCR_HLD	58000
TTM_SCR_SLD	52500
TTM_SCR_ALL	360500
TTM_SCR_S	344850
TTM_SCR_SS	355500
TTM_RAT_ACV	10140

