VERSION	0.00.00	1.04.00
FES_MODE	0
BPM_DEF	192.000	192.000	192.000	192.000
MET_DEF	4	4
RESOLUTION	384
CLK_DEF	384
COMPATIBLE_CODE	MA2

BPM	0	0	192.000
MET	0	0	4	4

NMTAP	2	240	3
NMTAP	2	240	4
NMTAP	2	288	3
NMTAP	2	288	4
NMSTR	3	0	5
NMSI_	3	0	5	96	48	0
NMTAP	3	96	4
NMTAP	3	144	4
NMSTR	3	192	3
NMSCL	3	192	3	96	48	0
NMTAP	3	288	5
NMTAP	3	336	6
NMSTR	4	0	6
NMSI_	4	0	6	96	48	3
NMSTR	4	96	2
NMSI_	4	96	2	96	48	7
NMSTR	4	192	4
NMSI_	4	192	4	96	48	0
NMTAP	4	288	3
NMSTR	5	0	2
NMSI_	5	0	2	96	48	7
NMTAP	5	96	3
NMTAP	5	144	3
NMSTR	5	192	4
NMSCR	5	192	4	96	48	7
NMTAP	5	288	2
NMTAP	5	336	1
NMSTR	6	0	1
NMSI_	6	0	1	96	48	4
NMSTR	6	96	5
NMSI_	6	96	5	96	48	0
NMSTR	6	192	3
NMSI_	6	192	3	96	48	7
NMTAP	6	288	4
NMSTR	7	0	5
NMSI_	7	0	5	96	48	0
NMTAP	7	96	4
NMTAP	7	144	4
NMSTR	7	192	3
NMSCL	7	192	3	96	48	0
NMTAP	7	288	5
NMTAP	7	336	6
NMSTR	8	0	6
NMSI_	8	0	6	96	48	3
NMSTR	8	96	2
NMSI_	8	96	2	96	48	7
NMSTR	8	192	4
NMSI_	8	192	4	96	48	0
NMTAP	8	288	3
NMSTR	9	0	2
NMSI_	9	0	2	96	48	7
NMTAP	9	96	3
NMTAP	9	144	3
NMSTR	9	192	4
NMSCR	9	192	4	96	48	7
NMTAP	9	288	2
NMTAP	9	336	1
NMSTR	10	0	0
NMSI_	10	0	0	96	48	3
NMTAP	10	96	4
NMHLD	10	144	5	96
NMTAP	10	240	3
NMTAP	10	288	3
NMTAP	11	0	5
NMTAP	11	96	5
NMTAP	11	192	5
NMTAP	11	288	5
NMTTP	12	0	4	E	0	M1
NMTAP	12	0	5
NMTTP	12	16	3	B	0	M1
NMTAP	12	96	5
NMTAP	12	192	5
NMTAP	12	288	5
NMHLD	13	0	3	240
NMTAP	13	0	5
NMTAP	13	96	5
NMTAP	13	192	5
NMTAP	13	288	5
NMTTP	13	336	4	E	0	M1
NMTAP	14	0	5
NMTAP	14	96	5
NMTTP	14	144	3	E	0	M1
NMTTP	14	192	2	B	0	M1
NMTAP	14	192	5
NMTTP	14	240	1	B	0	M1
NMTAP	14	288	5
EXSTR	15	0	3
NMSXR	15	0	3	96	288	4
NMTAP	15	0	5
NMTAP	15	96	5
NMTAP	15	192	5
NMTAP	15	288	5
NMTAP	16	0	5
NMTAP	16	96	5
NMTTP	16	144	4	E	0	M1
NMTAP	16	192	5
NMTTP	16	240	3	E	0	M1
NMTAP	16	288	5
NMHLD	17	0	3	192
NMTAP	17	0	5
NMTAP	17	96	5
NMTAP	17	192	5
NMTAP	17	288	2
NMTAP	17	288	4
NMTAP	18	0	1
NMTAP	18	0	5
NMTAP	18	48	6
NMTAP	18	72	0
NMTAP	18	96	6
NMSTR	18	144	1
NMSI_	18	144	1	96	48	7
NMTAP	18	144	5
BRTAP	18	240	3
BRTAP	18	288	3
NMHLD	19	0	5	96
NMTAP	19	96	7
NMHLD	19	144	7	96
NMSTR	19	240	3
NMSCR	19	240	3	96	48	6
NMSTR	19	336	0
NMSCR	19	336	0	96	48	3
NMTAP	20	48	5
NMHLD	20	96	5	96
NMTAP	20	192	4
NMTAP	20	288	3
NMTAP	20	288	6
NMHLD	21	0	2	96
NMTAP	21	96	0
NMHLD	21	144	0	96
NMSTR	21	240	4
NMSCL	21	240	4	96	48	1
NMSTR	21	336	7
NMSCL	21	336	7	96	48	4
NMTAP	22	48	2
NMHLD	22	96	2	96
NMTAP	22	192	3
NMTAP	22	288	1
NMTAP	22	288	4
NMHLD	23	0	6	96
NMHLD	23	96	4	96
NMTAP	23	192	7
NMSTR	23	240	7
NMSCL	23	240	7	96	48	4
NMSTR	23	336	2
NMSCL	23	336	2	96	48	7
NMSTR	24	48	5
NMSCL	24	48	5	96	48	2
NMTAP	24	144	0
NMTAP	24	192	0
NMTAP	24	288	1
NMTAP	24	288	4
NMTAP	25	0	3
NMSTR	25	0	6
NMSI_	25	0	6	96	48	2
NMTAP	25	96	1
NMSTR	25	144	0
NMSI_	25	144	0	96	48	4
NMTAP	25	240	5
NMTAP	25	288	6
NMHLD	25	336	7	96
NMTAP	26	48	0
NMTAP	26	96	0
NMTAP	26	192	4
NMTAP	26	288	2
NMSTR	27	0	0
NMSCR	27	0	0	96	96	4
NMTAP	27	96	5
NMTAP	27	144	6
NMHLD	27	192	6	96
NMTAP	27	288	7
NMTAP	27	336	7
NMHLD	28	48	2	96
NMHLD	28	48	4	96
NMSTR	28	192	1
NMSXR	28	192	1	96	192	4
NMTAP	28	288	3
NMTAP	28	336	3
NMTAP	29	48	5
NMTAP	29	96	6
NMHLD	29	144	6	96
NMSTR	29	240	4
NMSCR	29	240	4	96	144	3
NMTTP	29	336	0	C	1	M1
NMTAP	30	192	3
NMTAP	30	192	4
NMTAP	30	288	2
NMTAP	30	288	5
NMHLD	31	0	6	96
NMTAP	31	96	4
NMTAP	31	144	4
NMTAP	31	240	3
NMSTR	31	240	7
NMSI_	31	240	7	96	48	3
NMTAP	31	336	2
CNSLL	32	0	3	0	144	5
NMTAP	32	48	1
NMSTR	32	144	0
NMSCR	32	144	0	96	48	3
NMTAP	32	240	5
NMTAP	32	288	6
NMSTR	32	336	6
NMSCR	32	336	6	96	48	1
NMTAP	33	48	3
NMTAP	33	96	2
NMSTR	33	144	2
NMSI_	33	144	2	96	48	5
NMTAP	33	240	7
NMTAP	33	288	6
NMHLD	33	336	6	96
NMTAP	34	48	4
NMSTR	34	96	4
NMSI_	34	96	4	96	48	0
NMTAP	34	192	5
NMTAP	34	288	1
NMTAP	34	288	6
NMSTR	35	0	7
NMSCL	35	0	7	96	96	3
NMTAP	35	96	2
NMTAP	35	144	1
NMHLD	35	192	1	96
NMTAP	35	288	0
NMTAP	35	336	0
NMTAP	36	48	3
NMTAP	36	48	5
NMTAP	36	96	3
NMTAP	36	96	5
NMSTR	36	192	6
NMSXL	36	192	6	96	192	3
NMTAP	36	288	4
NMTAP	36	336	4
NMTAP	37	48	2
NMTAP	37	96	1
NMHLD	37	144	1	96
NMSTR	37	240	3
NMSCL	37	240	3	96	144	4
NMSUL	37	240	3	96	144	4
NMTAP	38	192	4
NMTAP	38	288	3
NMTAP	38	288	5
NMSTR	39	0	4
NMSI_	39	0	4	96	48	2
NMHLD	39	0	6	672
NMTAP	39	96	4
NMSTR	39	192	4
NMSI_	39	192	4	96	48	1
NMTAP	39	288	4
NMSTR	40	0	4
NMSI_	40	0	4	96	48	0
NMTAP	40	96	4
NMTAP	40	192	3
NMSTR	40	288	4
NMSXR	40	288	4	96	192	0
NMTAP	41	0	5
NMTAP	41	96	5
NMTAP	41	192	6
NMHLD	41	240	6	96
NMSTR	41	336	0
NMSI_	41	336	0	96	48	4
EXTAP	42	48	4
EXSTR	42	96	5
NMSCL	42	96	5	96	144	7
BRTAP	42	192	3
NMTTP	42	336	4	E	0	M1
NMTTP	43	0	3	E	0	M1
NMTTP	43	48	2	E	0	M1
NMTTP	43	96	1	E	0	M1
NMSTR	43	192	0
NMSI_	43	192	0	96	48	3
NMSI_	43	192	0	96	48	4
BRTAP	43	288	0
NMSTR	44	0	5
NMSCR	44	0	5	96	48	0
NMTAP	44	96	3
NMSTR	44	144	4
NMSI_	44	144	4	96	48	1
NMSTR	44	240	4
NMSI_	44	240	4	96	48	7
NMTAP	44	336	0
NMTAP	44	336	4
NMTAP	45	48	2
NMTAP	45	96	2
NMSTR	45	192	1
NMSI_	45	192	1	96	48	4
NMSTR	45	192	5
NMSI_	45	192	5	96	48	0
NMTAP	45	288	1
NMTAP	45	288	5
NMSTR	46	0	2
NMSCL	46	0	2	96	48	7
NMTAP	46	96	4
NMSTR	46	144	3
NMSI_	46	144	3	96	48	6
NMSTR	46	240	3
NMSI_	46	240	3	96	48	0
NMTAP	46	336	3
NMTAP	46	336	7
NMSTR	47	48	5
NMSXL	47	48	5	96	144	3
NMTAP	47	144	3
NMTAP	47	240	2
NMTAP	47	288	2
EXSTR	48	0	0
NMSI_	48	0	0	96	48	4
NMTAP	48	96	0
EXSTR	48	96	5
NMSI_	48	96	5	96	48	7
EXSTR	48	192	3
NMSI_	48	192	3	96	48	1
NMTAP	48	192	5
NMTAP	48	288	3
EXSTR	48	288	6
NMSI_	48	288	6	96	48	2
EXSTR	49	0	1
NMSI_	49	0	1	96	48	7
NMTAP	49	0	6
NMTAP	49	96	1
EXSTR	49	96	5
NMSI_	49	96	5	96	48	3
NMTAP	49	192	0
NMTAP	49	192	5
NMTAP	49	288	1
NMTAP	49	288	4
NMTAP	49	336	1
NMTAP	49	336	4
NMTAP	50	48	5
NMTAP	50	96	4
NMTAP	50	144	7
NMTAP	50	192	0
NMSTR	50	240	3
NMSI_	50	240	3	96	48	0
NMSI_	50	240	3	96	48	6
NMTAP	50	288	2
NMTAP	51	48	1
NMTAP	51	48	5
NMTAP	51	96	1
NMTAP	51	96	5
NMTAP	51	144	2
NMTAP	51	168	3
NMTAP	51	192	4
NMTAP	51	216	5
NMTAP	51	240	6
NMTAP	51	264	7
NMTAP	51	288	0
NMTAP	51	312	1
NMTAP	51	336	2
NMTAP	51	360	3
EXTAP	52	0	4
EXSTR	52	0	5
NMSCR	52	0	5	96	48	0
NMTAP	52	96	3
NMSTR	52	144	4
NMSI_	52	144	4	96	48	1
NMSTR	52	240	4
NMSI_	52	240	4	96	48	7
NMTAP	52	336	0
NMTAP	52	336	4
NMTAP	53	48	2
NMTAP	53	96	2
NMSTR	53	192	1
NMSI_	53	192	1	96	48	3
NMSTR	53	192	5
NMSI_	53	192	5	96	48	3
NMTAP	53	288	1
NMTAP	53	288	5
NMTAP	54	0	2
NMTAP	54	0	4
NMTAP	54	48	3
NMTAP	54	72	4
NMTAP	54	96	2
NMSTR	54	144	0
NMSI_	54	144	0	96	48	3
NMSTR	54	240	0
NMSI_	54	240	0	96	48	5
NMTAP	54	336	0
NMTAP	54	336	4
NMSTR	55	48	5
NMSXL	55	48	5	96	144	3
NMTAP	55	144	3
NMTAP	55	240	2
NMTAP	55	288	2
EXSTR	56	0	0
NMSI_	56	0	0	96	48	4
NMTAP	56	96	0
EXSTR	56	96	5
NMSI_	56	96	5	96	48	7
EXSTR	56	192	3
NMSI_	56	192	3	96	48	1
NMTAP	56	192	5
NMTAP	56	288	3
EXSTR	56	288	6
NMSI_	56	288	6	96	48	2
EXSTR	57	0	1
NMSI_	57	0	1	96	48	7
NMTAP	57	0	6
NMTAP	57	96	1
EXSTR	57	96	5
NMSI_	57	96	5	96	48	3
NMTAP	57	192	0
NMTAP	57	192	5
NMTAP	57	288	1
NMTAP	57	288	4
NMSTR	58	0	5
NMSI_	58	0	5	96	48	0
NMTAP	58	96	3
NMSTR	58	144	2
NMSI_	58	144	2	96	48	7
NMSTR	58	240	4
NMSCR	58	240	4	96	192	3
BRTAP	58	336	0
NMTAP	59	288	2
NMTAP	59	288	5
NMHLD	60	0	1	96
NMTAP	60	96	3
NMTAP	60	144	3
NMSTR	60	192	2
NMSCR	60	192	2	96	48	5
NMTAP	60	288	7
NMHLD	60	336	7	96
NMTAP	61	48	4
NMTAP	61	96	3
NMTAP	61	144	2
NMSTR	61	144	6
NMSXR	61	144	6	96	144	3
NMTAP	61	240	1
NMTAP	61	288	1
NMTAP	62	0	0
NMHLD	62	48	0	96
NMSTR	62	144	3
NMSI_	62	144	3	96	48	7
NMSTR	62	240	2
NMSI_	62	240	2	96	48	5
NMSTR	62	336	6
NMSI_	62	336	6	96	48	1
NMTAP	63	48	3
NMSTR	63	96	3
NMSXR	63	96	3	96	192	0
NMTAP	63	192	7
NMTAP	63	288	4
NMTAP	64	0	5
NMTAP	64	48	5
NMTAP	64	144	4
NMTAP	64	144	6
NMHLD	64	192	4	48
NMHLD	64	192	6	48
NMHLD	64	288	1	48
NMHLD	64	288	3	48
NMHLD	65	0	3	48
NMHLD	65	0	5	48
NMHLD	65	96	2	48
NMHLD	65	96	4	48
NMTAP	65	192	5
NMTAP	65	224	4
NMTAP	65	256	6
NMTAP	65	288	2
NMTAP	65	320	3
NMTAP	65	352	1
NMSTR	66	0	7
NMSI_	66	0	7	96	48	3
NMTAP	66	96	3
NMHLD	66	144	2	432
NMTAP	66	288	3
NMTAP	67	0	3
NMTAP	67	96	1
NMTAP	67	192	1
NMTAP	67	288	3
NMSTR	68	0	0
NMSI_	68	0	0	96	48	4
NMTAP	68	96	4
NMHLD	68	144	5	528
NMTTP	68	240	5	E	0	M1
NMTTP	68	288	4	E	0	M1
NMTTP	68	336	3	E	0	M1
NMTTP	69	0	2	E	0	M1
NMSTR	69	96	0
NMSSL	69	96	0	96	144	4
NMHLD	70	0	6	72
NMHLD	70	72	5	72
NMHLD	70	144	4	72
NMHLD	70	216	3	72
NMTAP	70	288	2
NMTAP	70	336	2
NMTAP	71	48	6
NMSTR	71	96	6
NMSCL	71	96	6	96	48	4
NMSTR	71	192	3
NMSCL	71	192	3	96	48	0
NMTAP	71	288	4
EXSTR	72	0	0
NMSLL	72	0	0	96	96	2
EXTAP	72	0	3
CNSI_	72	192	2	0	48	4
NMTAP	72	192	5
NMTAP	72	240	5
NMTAP	72	336	3
NMHLD	72	336	7	384
NMTAP	73	48	4
NMTAP	73	96	4
NMTAP	73	144	4
NMTAP	73	192	4
NMSTR	73	240	4
BRSI_	73	240	4	96	48	0
NMTAP	73	288	4
NMTTP	75	0	5	E	0	M1
NMTTP	75	16	4	E	0	M1
NMTTP	75	32	3	E	0	M1
NMHLD	75	336	2	192
NMTAP	76	144	3
NMTAP	76	240	3
NMTAP	76	288	4
NMTAP	76	336	5
NMHLD	77	0	5	528
NMSTR	77	144	4
NMSCL	77	144	4	96	96	1
NMTAP	78	144	3
NMTAP	78	240	2
NMTAP	78	240	4
NMTAP	78	288	2
NMTAP	78	288	4
NMTTP	79	0	1	A	0	M1
NMTTP	79	0	2	B	0	M1
NMTTP	79	0	2	E	0	M1
NMTTP	79	192	2	A	0	M1
NMTTP	79	192	3	E	0	M1
NMTTP	79	192	3	A	0	M1
NMTTP	80	0	3	B	0	M1
NMTTP	80	0	4	E	0	M1
NMTTP	80	0	4	A	0	M1
NMTTP	80	192	4	B	0	M1
NMTTP	80	192	5	E	0	M1
NMTTP	80	192	5	A	0	M1
NMTTP	81	0	5	B	0	M1
NMTTP	81	0	6	E	0	M1
NMTTP	81	0	6	A	0	M1
NMTTP	81	336	4	B	0	M1
NMTTP	81	336	5	B	0	M1
NMTTP	81	336	6	B	0	M1
NMTTP	82	48	3	B	0	M1
NMTTP	82	96	2	B	0	M1
NMTTP	82	144	1	B	0	M1
BRTAP	83	0	0
BRTAP	83	0	7
NMTAP	83	192	2
NMTAP	83	192	5
NMTAP	83	240	2
NMTAP	83	240	5
NMTAP	83	336	3
NMTAP	83	336	4
NMTAP	84	48	2
NMTAP	84	48	5
NMTAP	84	96	2
NMTAP	84	96	5
NMTAP	84	144	6
NMTAP	84	168	7
NMTAP	84	192	0
NMTAP	84	216	1
NMTAP	84	240	2
NMTAP	84	264	3
NMTAP	84	288	4
NMTAP	84	312	5
NMTAP	84	336	6
NMTAP	84	360	7
EXTAP	85	0	0
EXSTR	85	0	1
NMSCL	85	0	1	96	48	6
NMTAP	85	96	3
NMSTR	85	144	4
NMSI_	85	144	4	96	48	0
NMSTR	85	240	2
NMSI_	85	240	2	96	48	6
NMHLD	85	336	7	96
NMTAP	86	48	0
NMSTR	86	96	0
NMSLR	86	96	0	96	96	4
NMSTR	86	192	4
NMSI_	86	192	4	96	48	0
NMTAP	86	288	5
NMSTR	87	0	6
NMSCR	87	0	6	96	48	1
NMTAP	87	96	4
NMSTR	87	144	3
NMSI_	87	144	3	96	48	7
NMSTR	87	240	5
NMSI_	87	240	5	96	48	1
NMHLD	87	336	0	96
NMTAP	88	48	7
NMTAP	88	96	7
NMSTR	88	192	2
NMSI_	88	192	2	96	48	4
NMSTR	88	192	6
NMSI_	88	192	6	96	48	0
EXSTR	89	0	7
NMSCL	89	0	7	96	96	3
EXSTR	89	96	3
NMSCL	89	96	3	96	96	7
EXSTR	89	192	7
NMSCL	89	192	7	96	96	3
EXSTR	89	288	3
NMSCL	89	288	3	96	96	7
EXSTR	90	0	7
NMSCL	90	0	7	96	96	3
NMTAP	90	96	3
NMTAP	90	192	7
NMTAP	90	288	3
NMTAP	90	288	6
NMTAP	90	336	3
NMTAP	90	336	6
NMTAP	91	48	2
NMTAP	91	96	3
NMTAP	91	144	0
NMTAP	91	192	7
NMSTR	91	240	4
NMSI_	91	240	4	96	48	1
NMSI_	91	240	4	96	48	7
NMTAP	91	288	5
NMTAP	92	48	2
NMTAP	92	48	6
NMTAP	92	96	2
NMTAP	92	96	6
NMTAP	92	144	5
NMTAP	92	168	4
NMTAP	92	192	3
NMTAP	92	216	2
NMTAP	92	240	1
NMTAP	92	264	0
NMTAP	92	288	7
NMTAP	92	312	6
NMTAP	92	336	5
NMTAP	92	360	4
NMSTR	93	0	2
NMSCL	93	0	2	96	48	7
NMTAP	93	0	3
NMTAP	93	96	4
NMSTR	93	144	3
NMSV_	93	144	3	96	48	6
NMSTR	93	240	3
NMSV_	93	240	3	96	48	0
NMTAP	93	336	3
NMTAP	93	336	7
NMTAP	94	48	5
NMTAP	94	96	5
NMSTR	94	192	2
NMSI_	94	192	2	96	48	4
NMSTR	94	192	6
NMSI_	94	192	6	96	48	4
NMTAP	94	288	2
NMTAP	94	288	6
NMTAP	95	0	3
NMTAP	95	0	5
NMTAP	95	48	4
NMTAP	95	72	3
NMTAP	95	96	5
NMTAP	95	144	6
NMTAP	95	192	0
NMTAP	95	192	7
NMTAP	95	240	1
NMTAP	95	288	2
NMTAP	95	288	4
BRTAP	95	336	1
BRTAP	95	336	5
NMSTR	96	48	2
NMSXR	96	48	2	96	144	4
NMTAP	96	144	4
NMTAP	96	240	5
NMTAP	96	288	5
EXSTR	97	0	7
NMSI_	97	0	7	96	48	3
EXSTR	97	96	2
NMSI_	97	96	2	96	48	0
NMTAP	97	96	7
NMTAP	97	192	2
EXSTR	97	192	4
NMSI_	97	192	4	96	48	6
EXSTR	97	288	1
NMSI_	97	288	1	96	48	5
NMTAP	97	288	4
NMTAP	98	0	1
EXSTR	98	0	6
NMSI_	98	0	6	96	48	0
EXSTR	98	96	2
NMSI_	98	96	2	96	48	4
NMTAP	98	96	6
NMTAP	98	192	2
NMTAP	98	192	7
NMTAP	98	288	3
NMTAP	98	288	6
NMSTR	99	0	2
NMSI_	99	0	2	96	48	7
NMTAP	99	96	4
NMSTR	99	144	5
NMSI_	99	144	5	96	48	0
NMSTR	99	240	3
NMSCL	99	240	3	96	192	4
BRTAP	99	336	7
NMTAP	100	240	4
NMTAP	100	240	5
NMSTR	100	288	6
NMSI_	100	288	6	96	48	3
NMSTR	100	288	7
NMSI_	100	288	7	96	48	2
NMTAP	101	0	6
NMTAP	101	0	7
NMTAP	101	96	1
NMHLD	101	144	1	96
NMSTR	101	240	3
NMSI_	101	240	3	96	48	7
NMSTR	101	336	2
NMSI_	101	336	2	96	48	5
NMTAP	102	48	6
NMHLD	102	96	6	96
NMTAP	102	192	4
NMSTR	102	288	6
NMSI_	102	288	6	96	48	3
NMSTR	102	288	7
NMSI_	102	288	7	96	48	2
NMTAP	103	0	6
NMTAP	103	0	7
NMTAP	103	96	0
NMHLD	103	144	0	96
NMSTR	103	240	3
NMSXL	103	240	3	96	240	7
NMTAP	103	336	1
NMTAP	104	48	2
NMTAP	104	96	2
NMTAP	104	192	1
NMSTR	104	288	0
NMSI_	104	288	0	96	48	5
NMSTR	104	288	1
NMSI_	104	288	1	96	48	4
NMTAP	105	0	0
NMTAP	105	0	1
NMTAP	105	96	6
NMHLD	105	144	6	96
NMSTR	105	240	4
NMSI_	105	240	4	96	48	0
NMSTR	105	336	5
NMSI_	105	336	5	96	48	2
NMTAP	106	48	1
NMHLD	106	96	1	96
NMTAP	106	192	3
NMSTR	106	288	0
NMSI_	106	288	0	96	48	5
NMSTR	106	288	1
NMSI_	106	288	1	96	48	4
NMTAP	107	0	0
NMTAP	107	0	1
NMTAP	107	96	6
NMHLD	107	144	6	96
NMSTR	107	240	4
NMSI_	107	240	4	96	48	0
NMTAP	107	336	4
BRTAP	108	192	0
NMSTR	109	0	2
NMSI_	109	0	2	96	48	7
NMTAP	109	96	3
NMTAP	109	144	3
NMSTR	109	192	4
NMSCR	109	192	4	96	48	7
NMTAP	109	288	3
NMTAP	109	336	2
NMSTR	110	0	1
NMSI_	110	0	1	96	48	4
NMTAP	110	48	1
NMSTR	110	96	5
NMSI_	110	96	5	96	48	0
NMTAP	110	144	5
NMSTR	110	192	3
NMSI_	110	192	3	96	48	7
NMTAP	110	240	3
NMTAP	110	288	6
NMSTR	111	0	5
NMSI_	111	0	5	96	48	0
NMTAP	111	96	4
NMTAP	111	144	4
NMSTR	111	192	3
NMSCL	111	192	3	96	48	0
NMTAP	111	288	4
NMTAP	111	336	5
NMSTR	112	0	6
NMSI_	112	0	6	96	48	3
NMTAP	112	48	6
NMSTR	112	96	2
NMSI_	112	96	2	96	48	7
NMTAP	112	144	2
NMSTR	112	192	4
NMSI_	112	192	4	96	48	0
NMTAP	112	240	4
NMTAP	112	288	1
NMSTR	113	0	2
NMSI_	113	0	2	96	48	7
NMTAP	113	96	3
NMTAP	113	144	3
NMSTR	113	192	4
NMSCR	113	192	4	96	48	7
NMTAP	113	288	3
NMTAP	113	336	2
NMSTR	114	0	1
NMSI_	114	0	1	96	48	5
NMTAP	114	48	1
NMSTR	114	96	6
NMSI_	114	96	6	96	48	0
NMTAP	114	144	6
NMSTR	114	192	2
NMSI_	114	192	2	96	48	4
NMTAP	114	240	2
BRTAP	114	288	7
NMSTR	115	0	5
NMSI_	115	0	5	96	48	0
NMTAP	115	96	4
NMTAP	115	144	4
NMSTR	115	192	3
NMSCL	115	192	3	96	48	0
NMTAP	115	288	5
NMTAP	115	336	6
NMTAP	116	0	7
NMTAP	116	48	7
NMTAP	116	96	0
NMTAP	116	96	6
NMTAP	116	144	0
NMTAP	116	144	6
NMTAP	116	192	1
NMTAP	116	192	5
NMTAP	116	240	1
NMTAP	116	240	5
NMSTR	116	288	2
NMSCL	116	288	2	96	480	4
NMSTR	116	288	4
NMSCR	116	288	4	96	480	2
NMTAP	116	336	2
NMTAP	116	336	4
NMSTR	118	192	3
BRSF_	118	192	3	96	48	7

T_REC_TAP	400
T_REC_BRK	12
T_REC_XTP	4
T_REC_BXX	0
T_REC_HLD	50
T_REC_XHO	0
T_REC_BHO	0
T_REC_BXH	0
T_REC_STR	131
T_REC_BST	0
T_REC_XST	28
T_REC_XBS	0
T_REC_TTP	41
T_REC_THO	0
T_REC_SLD	161
T_REC_BSL	2
T_REC_ALL	829
T_NUM_TAP	604
T_NUM_BRK	14
T_NUM_HLD	50
T_NUM_SLD	161
T_NUM_ALL	829
T_JUDGE_TAP	616
T_JUDGE_HLD	142
T_JUDGE_SLD	163
T_JUDGE_ALL	921
TTM_EACHPAIRS	101
TTM_SCR_TAP	302000
TTM_SCR_BRK	36400
TTM_SCR_HLD	50000
TTM_SCR_SLD	241500
TTM_SCR_ALL	629900
TTM_SCR_S	609650
TTM_SCR_SS	628500
TTM_RAT_ACV	10022

