VERSION	0.00.00	1.04.00
FES_MODE	0
BPM_DEF	192.000	192.000	192.000	192.000
MET_DEF	4	4
RESOLUTION	384
CLK_DEF	384
COMPATIBLE_CODE	MA2

BPM	0	0	192.000
MET	0	0	4	4

NMTAP	3	0	2
NMTAP	3	96	2
NMTAP	3	192	1
NMTAP	3	192	3
NMTAP	3	288	3
NMTAP	3	288	4
NMTAP	4	0	5
NMTAP	4	96	5
NMTAP	4	192	4
NMTAP	4	192	6
NMTAP	4	288	3
NMTAP	4	288	4
NMTAP	5	0	1
NMTAP	5	96	0
NMTAP	5	96	1
NMTAP	5	192	6
NMTAP	5	288	6
NMTAP	5	288	7
NMTAP	6	0	5
NMTAP	6	96	4
NMTAP	6	96	5
NMTAP	6	192	3
NMTAP	6	192	6
NMTAP	7	0	6
NMTAP	7	96	6
NMTAP	7	192	5
NMTAP	7	192	7
NMTAP	7	288	0
NMTAP	7	288	7
NMTAP	8	0	1
NMTAP	8	96	1
NMTAP	8	192	0
NMTAP	8	192	2
NMTAP	8	288	0
NMTAP	8	288	7
NMTAP	9	0	1
NMTAP	9	0	6
NMTAP	9	96	1
NMTAP	9	96	6
NMTAP	9	192	2
NMTAP	9	192	5
NMSTR	9	288	2
NMSCL	9	288	2	96	192	5
NMTAP	9	288	5
NMHLD	11	0	5	768
NMTAP	11	192	3
NMTAP	11	288	3
NMTAP	12	0	4
NMTAP	12	96	4
NMTAP	12	192	3
NMHLD	13	0	2	768
NMTAP	13	192	4
NMTAP	13	288	4
NMTAP	14	0	3
NMTAP	14	96	3
NMTAP	14	192	4
NMHLD	15	0	5	768
NMTAP	15	192	3
NMTAP	15	288	3
NMTAP	16	0	4
NMTAP	16	96	4
NMTAP	16	192	3
NMTAP	17	0	2
NMTAP	17	96	2
NMTAP	17	96	3
NMTAP	17	192	5
NMTAP	17	288	4
NMTAP	17	288	5
NMHLD	18	0	3	96
NMHLD	18	0	4	96
EXTAP	18	144	3
EXTAP	18	144	4
BXTAP	18	240	2
BXTAP	18	240	5
NMTAP	19	0	2
NMTAP	19	96	2
NMTAP	19	96	3
NMTAP	19	192	5
NMTAP	19	288	4
NMTAP	19	288	5
NMTAP	20	0	6
NMTAP	20	96	6
NMTAP	20	96	7
NMTAP	20	192	1
NMTAP	20	192	5
NMTAP	20	288	2
NMTAP	20	288	3
NMTAP	21	0	4
NMTAP	21	96	4
NMTAP	21	96	5
NMTAP	21	192	3
NMTAP	21	288	2
NMTAP	21	288	3
NMTAP	22	0	1
NMTAP	22	96	0
NMTAP	22	96	1
NMTAP	22	192	2
NMTAP	22	192	6
NMTAP	22	288	4
NMTAP	22	288	5
NMHLD	23	0	3	96
NMHLD	23	96	2	96
NMHLD	23	192	1	96
NMHLD	23	288	0	96
NMHLD	24	0	7	96
NMHLD	24	96	6	96
NMHLD	24	192	5	96
NMTAP	24	288	4
NMHLD	25	0	3	96
NMHLD	25	0	4	96
EXTAP	25	144	2
EXTAP	25	144	5
EXTAP	25	240	1
EXTAP	25	240	6
BXSTR	25	336	0
NMSCR	25	336	0	96	144	3
BXSTR	25	336	7
NMSCL	25	336	7	96	144	4
NMSTR	27	0	1
NMSI_	27	0	1	96	96	4
NMTAP	27	288	7
NMSTR	28	0	7
NMSI_	28	0	7	96	96	4
NMTAP	28	288	0
NMSTR	29	0	0
NMSI_	29	0	0	96	96	3
NMTAP	29	288	6
NMTAP	30	0	4
NMTAP	30	0	5
NMTAP	30	96	4
NMTAP	30	96	5
NMTAP	30	192	3
NMTAP	30	192	6
NMSTR	31	0	6
NMSI_	31	0	6	96	96	3
NMTAP	31	288	0
NMSTR	32	0	0
NMSI_	32	0	0	96	96	3
NMTAP	32	288	7
NMSTR	33	0	7
NMSI_	33	0	7	96	96	4
NMTAP	33	288	1
NMTAP	34	0	2
NMTAP	34	0	3
NMTAP	34	96	2
NMTAP	34	96	3
NMTAP	34	192	1
NMTAP	34	192	4
NMSTR	35	0	1
NMSCL	35	0	1	96	120	6
NMTAP	35	288	5
NMSTR	36	0	5
NMSCL	36	0	5	96	120	2
NMTAP	36	288	1
NMSTR	37	0	1
NMSUR	37	0	1	96	120	6
NMTAP	37	288	7
NMTAP	38	0	0
NMTAP	38	0	7
NMTAP	38	96	0
NMTAP	38	96	7
NMTAP	38	192	1
NMTAP	38	192	6
NMTAP	39	0	4
NMTAP	39	0	5
NMTAP	39	96	4
NMTAP	39	96	5
NMTAP	39	192	6
NMTAP	39	192	7
NMTAP	39	288	6
NMTAP	39	288	7
NMTAP	40	0	0
NMTAP	40	0	1
NMTAP	40	96	0
NMTAP	40	96	1
NMTAP	40	192	2
NMTAP	40	192	3
NMTAP	40	288	2
NMTAP	40	288	3
NMTAP	41	0	1
NMTAP	41	0	4
NMTAP	41	96	3
NMTAP	41	96	6
NMTAP	41	192	2
NMTAP	41	192	5
NMTAP	41	288	3
NMTAP	41	288	4
NMTAP	41	336	3
NMTAP	41	336	4
NMTAP	42	48	2
NMTAP	42	48	5
NMHLD	42	96	2	192
NMTAP	42	96	5
NMTTP	43	0	5	E	0	M1
NMTTP	43	48	4	E	0	M1
NMTTP	43	96	3	E	0	M1
BRTAP	43	288	0
BRTAP	43	288	7
NMTAP	44	0	4
NMTAP	44	0	5
NMTAP	44	96	1
NMTAP	44	96	3
NMTAP	44	144	1
NMSTR	44	144	3
NMSI_	44	144	3	96	48	7
NMSTR	44	240	0
NMSCR	44	240	0	96	144	6
NMTAP	45	144	7
NMTAP	45	192	7
NMTAP	45	288	0
NMTAP	45	288	1
NMTAP	46	0	2
NMTAP	46	0	3
NMTAP	46	96	4
NMTAP	46	96	6
NMSTR	46	144	4
NMSI_	46	144	4	96	48	0
NMTAP	46	144	6
NMSTR	46	240	7
NMSCL	46	240	7	96	144	1
NMTAP	47	144	0
NMTAP	47	192	0
NMTAP	47	288	6
NMSTR	47	288	7
NMSI_	47	288	7	96	48	3
NMSTR	48	96	0
NMSI_	48	96	0	96	48	4
NMTAP	48	96	1
NMTAP	48	288	6
NMSTR	48	288	7
NMSI_	48	288	7	96	48	3
NMSTR	49	96	0
NMSI_	49	96	0	96	48	4
NMTAP	49	96	1
NMTAP	49	288	0
NMTAP	49	288	7
NMTAP	50	0	6
NMTAP	50	48	6
NMTAP	50	96	4
NMTAP	50	144	4
NMTAP	50	192	3
NMTAP	50	240	3
NMTAP	50	288	1
NMTAP	50	336	1
NMTAP	51	48	0
NMTAP	51	48	7
NMSTR	51	96	0
NMSI_	51	96	0	96	96	3
NMSTR	51	96	7
NMSI_	51	96	7	96	96	4
NMTAP	52	0	2
NMTAP	52	0	3
NMTAP	52	96	4
NMTAP	52	96	6
NMSTR	52	144	4
NMSI_	52	144	4	96	48	0
NMTAP	52	144	6
NMSTR	52	240	7
NMSCL	52	240	7	96	144	1
NMTAP	53	144	0
NMTAP	53	192	0
NMTAP	53	288	6
NMTAP	53	288	7
NMTAP	54	0	4
NMTAP	54	0	5
NMTAP	54	96	1
NMTAP	54	96	3
NMTAP	54	144	1
NMSTR	54	144	3
NMSI_	54	144	3	96	48	7
NMSTR	54	240	0
NMSCR	54	240	0	96	144	6
NMTAP	55	144	7
NMTAP	55	192	7
NMTAP	55	288	0
NMTAP	55	288	7
NMTAP	56	0	1
NMTAP	56	0	5
NMTAP	56	96	2
NMTAP	56	96	3
NMTAP	56	192	2
NMTAP	56	192	6
NMTAP	56	288	4
NMTAP	56	288	5
NMTAP	57	0	2
NMTAP	57	0	3
NMTAP	57	96	0
NMTAP	57	96	1
NMTAP	57	192	6
NMTAP	57	192	7
NMTAP	57	288	4
NMTAP	57	288	5
NMTAP	58	0	2
NMTAP	58	0	3
NMTAP	58	96	1
NMTAP	58	96	4
NMTAP	58	144	1
NMTAP	58	144	4
NMSTR	58	240	4
BRSF_	58	240	4	96	192	0
NMTAP	58	240	5
BRTAP	59	288	0
BRTAP	59	288	7
NMHLD	60	0	6	192
NMTAP	60	96	4
NMHLD	60	192	4	192
NMTAP	60	288	3
NMHLD	61	0	3	96
NMTAP	61	96	1
NMTAP	61	144	1
NMTAP	61	240	0
NMTAP	61	240	1
NMTAP	61	288	0
NMTAP	61	288	1
NMHLD	62	0	1	192
NMTAP	62	96	3
NMHLD	62	192	3	192
NMTAP	62	288	4
NMHLD	63	0	4	96
NMTAP	63	96	6
NMTAP	63	144	6
NMTAP	63	240	6
NMTAP	63	240	7
NMTAP	63	288	6
NMTAP	63	288	7
NMHLD	64	0	0	288
NMSTR	64	0	5
NMSSR	64	0	5	96	192	1
NMHLD	65	0	2	288
NMSTR	65	0	7
NMSSR	65	0	7	96	192	3
EXTAP	66	0	3
EXTAP	66	0	4
EXSTR	66	144	1
NMSI_	66	144	1	96	120	5
EXHLD	66	144	6	432
CNSI_	66	360	5	0	96	3
CNSI_	67	72	3	0	120	7
EXTAP	68	0	0
EXTAP	68	0	7
EXHLD	68	144	1	432
EXSTR	68	144	6
NMSI_	68	144	6	96	120	2
CNSI_	68	360	2	0	96	4
CNSI_	69	72	4	0	120	7
NMTAP	70	0	0
NMTAP	70	48	0
NMTAP	70	96	1
NMTAP	70	144	1
NMTAP	70	192	2
NMTAP	70	240	2
NMTAP	70	288	3
NMTAP	70	336	3
NMTAP	71	0	4
NMTAP	71	48	4
NMTAP	71	96	5
NMTAP	71	144	5
NMTAP	71	192	6
NMTAP	71	240	6
NMTAP	71	288	7
NMTAP	71	336	7
NMTAP	72	0	0
NMTAP	72	48	1
NMTAP	72	96	2
NMTAP	72	144	3
NMTAP	72	192	4
NMTAP	72	240	5
NMTAP	72	288	6
NMSTR	72	336	0
BRSCR	72	336	0	96	336	7
NMSTR	72	336	7
BRSCL	72	336	7	96	336	0
NMTTP	75	0	6	B	0	M1
NMTTP	75	0	7	B	0	M1
NMTTP	76	0	4	B	0	M1
NMTTP	76	0	5	B	0	M1
NMTTP	77	0	2	B	0	M1
NMTTP	77	0	3	B	0	M1
NMTTP	78	0	0	B	0	M1
NMTTP	78	0	1	B	0	M1
NMTTP	79	0	0	E	0	M1
NMTTP	80	0	1	E	0	M1
NMTTP	80	0	7	E	0	M1
NMTHO	81	0	0	336	C	0	M1
NMTAP	83	0	1
NMTAP	83	0	6
NMTAP	83	96	2
NMTAP	83	96	5
NMTAP	83	192	3
NMTAP	83	192	4
NMTAP	83	288	3
NMTAP	83	288	4
NMSTR	83	336	3
NMSI_	83	336	3	96	144	0
NMSTR	83	336	4
NMSI_	83	336	4	96	144	7
BRTAP	84	288	0
BRTAP	84	288	7
NMTAP	85	0	0
NMTAP	85	0	1
NMTAP	85	96	6
NMTAP	85	96	7
NMTAP	85	144	6
NMSTR	85	144	7
NMSI_	85	144	7	96	48	3
NMSTR	85	240	4
NMSCR	85	240	4	96	144	2
NMTAP	86	144	3
NMTAP	86	192	3
NMTAP	86	288	4
NMTAP	86	288	5
NMTAP	87	0	6
NMTAP	87	0	7
NMTAP	87	96	0
NMTAP	87	96	1
NMSTR	87	144	0
NMSI_	87	144	0	96	48	4
NMTAP	87	144	1
NMSTR	87	240	3
NMSCL	87	240	3	96	144	5
NMTAP	88	144	4
NMTAP	88	192	4
NMSTR	88	288	6
NMSI_	88	288	6	96	48	3
NMSTR	88	288	7
NMSI_	88	288	7	96	48	3
NMSTR	89	96	0
NMSI_	89	96	0	96	48	4
NMSTR	89	96	1
NMSI_	89	96	1	96	48	4
NMSTR	89	288	6
NMSI_	89	288	6	96	48	3
NMSTR	89	288	7
NMSI_	89	288	7	96	48	3
NMSTR	90	96	0
NMSI_	90	96	0	96	48	4
NMSTR	90	96	1
NMSI_	90	96	1	96	48	4
NMTAP	90	288	0
NMTAP	90	288	7
NMTAP	91	0	2
NMTAP	91	48	2
NMTAP	91	96	0
NMTAP	91	144	0
NMTAP	91	192	7
NMTAP	91	240	7
NMTAP	91	288	5
NMTAP	91	336	5
NMTAP	92	48	3
NMTAP	92	48	4
NMSTR	92	96	3
NMSI_	92	96	3	96	96	0
NMSTR	92	96	4
NMSI_	92	96	4	96	96	7
NMTAP	93	0	6
NMTAP	93	0	7
NMTAP	93	96	0
NMTAP	93	96	1
NMSTR	93	144	0
NMSI_	93	144	0	96	48	4
NMTAP	93	144	1
NMSTR	93	240	3
NMSCL	93	240	3	96	144	5
NMTAP	94	144	4
NMTAP	94	192	4
NMTAP	94	288	2
NMTAP	94	288	3
NMTAP	95	0	0
NMTAP	95	0	1
NMTAP	95	96	6
NMTAP	95	96	7
NMTAP	95	144	6
NMSTR	95	144	7
NMSI_	95	144	7	96	48	3
NMSTR	95	240	4
NMSCR	95	240	4	96	144	2
NMTAP	96	144	3
NMTAP	96	192	3
NMTAP	96	288	4
NMTAP	96	288	5
NMTAP	97	0	0
NMTAP	97	0	7
NMTAP	97	96	2
NMTAP	97	96	3
NMTAP	97	192	0
NMTAP	97	192	7
NMTAP	97	288	4
NMTAP	97	288	5
NMTAP	98	0	0
NMTAP	98	0	7
NMTAP	98	96	1
NMTAP	98	96	2
NMTAP	98	192	3
NMTAP	98	192	4
NMTAP	98	288	5
NMTAP	98	288	6
NMTAP	99	0	0
NMTAP	99	0	7
NMTAP	99	96	2
NMTAP	99	96	3
NMTAP	99	144	2
NMTAP	99	144	3
NMSTR	99	240	1
NMSI_	99	240	1	96	120	4
NMSTR	99	240	7
NMSI_	99	240	7	96	120	4
NMTAP	100	144	2
NMTAP	100	144	6
NMTAP	100	192	2
NMTAP	100	192	6
BRTAP	100	288	0
BRTAP	100	288	7
NMSTR	101	0	0
NMSI_	101	0	0	96	48	4
NMTAP	101	96	6
NMSTR	101	144	6
NMSI_	101	144	6	96	48	2
NMSTR	101	336	0
NMSI_	101	336	0	96	144	5
NMSTR	101	336	1
NMSI_	101	336	1	96	144	4
BRTAP	102	288	4
BRTAP	102	288	5
NMSTR	103	0	3
NMSI_	103	0	3	96	48	7
NMTAP	103	96	5
NMSTR	103	144	5
NMSI_	103	144	5	96	48	1
NMTAP	103	336	2
NMTAP	104	48	2
NMTAP	104	48	3
NMTAP	104	96	2
NMTAP	104	96	3
BRTAP	104	192	1
BRTAP	104	192	4
NMTAP	105	0	4
NMTAP	105	0	5
NMTAP	105	96	0
NMTAP	105	96	7
NMTAP	105	144	0
NMTAP	105	144	7
NMTAP	105	240	2
NMTAP	105	240	3
NMSTR	105	336	3
NMSI_	105	336	3	96	144	0
NMSTR	105	336	4
NMSI_	105	336	4	96	144	7
BRTAP	106	288	1
BRTAP	106	288	6
NMSTR	107	0	2
BRSXR	107	0	2	96	336	4
NMSTR	107	0	5
BRSXL	107	0	5	96	336	3
NMTTP	108	192	0	C	1	M1
NMTAP	109	0	1
NMTAP	109	0	6
NMTAP	109	96	1
NMTAP	109	96	6
NMTAP	109	192	0
NMTAP	109	192	2
NMTAP	109	288	0
NMTAP	109	288	7
NMTAP	110	0	1
NMTAP	110	0	6
NMTAP	110	96	1
NMTAP	110	96	6
NMTAP	110	192	5
NMTAP	110	192	7
NMTAP	110	288	0
NMTAP	110	288	7
NMTAP	111	0	2
NMTAP	111	96	1
NMTAP	111	96	3
NMTAP	111	192	5
NMTAP	111	288	4
NMTAP	111	288	6
NMTAP	112	0	7
NMTAP	112	96	0
NMTAP	112	96	6
NMTAP	112	192	1
NMTAP	112	192	5
NMTAP	113	0	4
NMTAP	113	0	5
NMTAP	113	96	6
NMTAP	113	96	7
NMTAP	113	192	4
NMTAP	113	192	5
NMTAP	113	288	3
NMTAP	113	288	4
NMTAP	114	0	2
NMTAP	114	0	3
NMTAP	114	96	0
NMTAP	114	96	1
NMTAP	114	192	2
NMTAP	114	192	3
NMTAP	114	288	3
NMTAP	114	288	4
NMTAP	115	0	2
NMTAP	115	0	5
NMTAP	115	96	2
NMTAP	115	96	5
NMTAP	115	192	1
NMTAP	115	192	6
NMTAP	115	288	0
NMSTR	115	288	7
NMSCL	115	288	7	96	240	0
NMTTP	117	0	7	B	0	M1
NMTTP	117	96	6	B	0	M1
NMTTP	117	192	5	B	0	M1
NMTTP	117	288	4	B	0	M1
NMTTP	118	0	3	B	0	M1
NMTTP	118	96	2	B	0	M1
NMTTP	118	192	1	B	0	M1
NMTTP	118	288	0	B	0	M1
NMTTP	119	0	0	C	0	M1

T_REC_TAP	403
T_REC_BRK	14
T_REC_XTP	10
T_REC_BXX	2
T_REC_HLD	23
T_REC_XHO	2
T_REC_BHO	0
T_REC_BXH	0
T_REC_STR	62
T_REC_BST	0
T_REC_XST	2
T_REC_XBS	2
T_REC_TTP	24
T_REC_THO	1
T_REC_SLD	61
T_REC_BSL	5
T_REC_ALL	611
T_NUM_TAP	501
T_NUM_BRK	23
T_NUM_HLD	26
T_NUM_SLD	61
T_NUM_ALL	611
T_JUDGE_TAP	519
T_JUDGE_HLD	131
T_JUDGE_SLD	66
T_JUDGE_ALL	716
TTM_EACHPAIRS	185
TTM_SCR_TAP	250500
TTM_SCR_BRK	59800
TTM_SCR_HLD	26000
TTM_SCR_SLD	91500
TTM_SCR_ALL	427800
TTM_SCR_S	412750
TTM_SCR_SS	425500
TTM_RAT_ACV	10054

