VERSION	0.00.00	1.04.00
FES_MODE	0
BPM_DEF	192.000	192.000	192.000	192.000
MET_DEF	4	4
RESOLUTION	384
CLK_DEF	384
COMPATIBLE_CODE	MA2

BPM	0	0	192.000
MET	0	0	4	4

NMTAP	3	0	1
NMTAP	3	192	1
NMTAP	4	0	2
NMTAP	4	192	2
NMTAP	5	0	3
NMTAP	5	192	3
NMTAP	6	0	4
NMTAP	6	0	5
NMTAP	7	0	6
NMTAP	7	192	6
NMTAP	8	0	5
NMTAP	8	192	5
NMTAP	9	0	4
NMTAP	9	192	4
NMTAP	10	0	2
NMTAP	10	0	3
NMHLD	11	0	2	384
NMHLD	12	0	3	384
NMHLD	13	0	4	384
NMTAP	14	0	5
NMHLD	15	0	5	384
NMHLD	16	0	4	384
NMHLD	17	0	3	384
NMTAP	18	0	2
NMTAP	19	0	1
NMTAP	19	96	1
NMTAP	19	192	0
NMTAP	19	192	1
NMTAP	20	0	2
NMTAP	20	96	2
NMTAP	20	192	2
NMTAP	20	192	3
NMTAP	21	0	4
NMTAP	21	96	4
NMTAP	21	192	4
NMTAP	21	192	5
NMTAP	22	0	6
NMTAP	22	0	7
NMTAP	22	96	6
NMTAP	22	96	7
NMTAP	22	192	6
NMTAP	22	192	7
NMTAP	23	0	6
NMTAP	23	96	6
NMTAP	23	192	6
NMTAP	23	192	7
NMTAP	24	0	5
NMTAP	24	96	5
NMTAP	24	192	4
NMTAP	24	192	5
NMTAP	25	0	3
NMTAP	25	96	3
NMTAP	25	192	2
NMTAP	25	192	3
NMTAP	26	0	0
NMTAP	26	0	1
NMTAP	26	96	0
NMTAP	26	96	1
NMTAP	26	192	0
NMTAP	26	192	1
NMSTR	27	0	1
NMSI_	27	0	1	96	192	4
NMSTR	28	0	5
NMSI_	28	0	5	96	192	2
NMSTR	29	0	1
NMSI_	29	0	1	96	192	5
NMHLD	30	0	6	192
NMTAP	30	192	7
NMSTR	31	0	6
NMSI_	31	0	6	96	192	3
NMSTR	32	0	2
NMSI_	32	0	2	96	192	5
NMSTR	33	0	6
NMSI_	33	0	6	96	192	2
NMHLD	34	0	1	192
NMTAP	34	192	0
NMSTR	35	0	1
NMSI_	35	0	1	96	192	5
NMSTR	36	0	6
NMSI_	36	0	6	96	192	2
NMSTR	37	0	1
NMSI_	37	0	1	96	192	4
NMSTR	38	0	6
NMSI_	38	0	6	96	192	3
NMTAP	39	0	2
NMTAP	39	96	2
NMTAP	39	192	2
NMTAP	40	0	3
NMTAP	40	96	3
NMTAP	40	192	3
NMTAP	41	0	4
NMTAP	41	96	4
NMTAP	41	192	4
NMTAP	42	0	5
NMTAP	42	96	5
NMTAP	42	192	5
BRTAP	43	0	3
BRTAP	43	0	4
NMTAP	44	0	2
NMTAP	44	96	2
NMTAP	44	192	1
NMTAP	44	288	1
NMTAP	45	0	0
NMTAP	45	96	0
NMTAP	45	192	6
NMTAP	45	192	7
NMTAP	46	0	5
NMTAP	46	96	5
NMTAP	46	192	6
NMTAP	46	288	6
NMTAP	47	0	7
NMTAP	47	96	7
NMTAP	47	192	0
NMTAP	47	192	1
NMTAP	48	0	1
NMTAP	48	96	1
NMTAP	48	192	1
NMTAP	48	288	0
NMTAP	48	288	1
NMTAP	49	0	2
NMTAP	49	96	2
NMTAP	49	192	2
NMTAP	49	288	2
NMTAP	49	288	3
NMTAP	50	0	4
NMTAP	50	96	4
NMTAP	50	192	4
NMTAP	50	192	5
NMHLD	50	288	4	288
NMHLD	50	288	5	288
NMTAP	52	0	5
NMTAP	52	96	5
NMTAP	52	192	6
NMTAP	52	288	6
NMTAP	53	0	7
NMTAP	53	96	7
NMTAP	53	192	0
NMTAP	53	192	1
NMTAP	54	0	2
NMTAP	54	96	2
NMTAP	54	192	1
NMTAP	54	288	1
NMTAP	55	0	0
NMTAP	55	96	0
NMTAP	55	192	6
NMTAP	55	192	7
NMTAP	56	0	6
NMTAP	56	96	6
NMTAP	56	192	6
NMTAP	56	288	6
NMTAP	56	288	7
NMTAP	57	0	5
NMTAP	57	96	5
NMTAP	57	192	5
NMTAP	57	288	4
NMTAP	57	288	5
NMTAP	58	0	3
NMTAP	58	96	3
NMTAP	58	192	2
NMTAP	58	192	3
NMHLD	58	288	2	288
NMHLD	58	288	3	288
NMTTP	60	0	1	B	0	L1
NMTTP	60	96	2	B	0	L1
NMTTP	60	192	3	B	0	L1
NMTTP	61	0	6	B	0	L1
NMTTP	61	96	5	B	0	L1
NMTTP	61	192	4	B	0	L1
NMTTP	62	0	0	B	0	L1
NMTTP	62	96	1	B	0	L1
NMTTP	62	192	2	B	0	L1
NMTTP	62	192	3	B	0	L1
NMTTP	63	0	7	B	0	L1
NMTTP	63	96	6	B	0	L1
NMTTP	63	192	4	B	0	L1
NMTTP	63	192	5	B	0	L1
NMTTP	64	0	1	B	0	L1
NMTTP	64	96	0	B	0	L1
NMTTP	64	192	7	B	0	L1
NMTTP	64	288	6	B	0	L1
NMTTP	65	0	0	C	0	L1
EXHLD	66	0	0	144
EXHLD	66	0	1	144
NMTAP	67	0	2
NMTAP	67	96	3
NMTAP	67	192	4
NMTAP	67	288	5
EXHLD	68	0	6	144
EXHLD	68	0	7	144
NMTAP	69	0	5
NMTAP	69	96	4
NMTAP	69	192	3
NMTAP	69	288	2
NMTAP	70	0	0
NMTAP	70	0	1
NMTAP	70	96	0
NMTAP	70	96	1
NMTAP	70	192	0
NMTAP	70	192	1
NMTAP	71	0	2
NMTAP	71	0	3
NMTAP	71	96	2
NMTAP	71	96	3
NMTAP	71	192	2
NMTAP	71	192	3
NMTAP	72	0	4
NMTAP	72	0	5
NMTAP	72	96	4
NMTAP	72	96	5
NMTAP	72	192	4
NMTAP	72	192	5
NMTAP	73	0	6
NMTAP	73	0	7
NMTAP	73	96	6
NMTAP	73	96	7
NMTAP	73	192	6
NMTAP	73	192	7
BRTAP	74	0	0
BRTAP	74	0	7
NMHLD	75	0	6	192
NMHLD	75	192	7	192
NMHLD	76	0	0	192
NMTAP	76	192	1
NMHLD	77	0	1	192
NMHLD	77	192	0	192
NMHLD	78	0	7	192
NMTAP	78	192	6
NMHLD	79	0	5	192
NMHLD	79	192	6	192
NMHLD	80	0	7	192
NMHLD	80	192	0	192
NMHLD	81	0	1	192
NMHLD	81	192	2	192
NMHLD	82	0	3	192
NMTAP	82	192	4
NMTAP	83	0	4
NMTAP	83	96	4
NMTAP	83	192	3
NMTAP	83	288	3
BRTAP	84	0	3
BRTAP	84	0	4
NMTAP	85	0	5
NMTAP	85	96	5
NMTAP	85	192	6
NMTAP	85	192	7
NMTAP	85	288	6
NMTAP	85	288	7
NMTAP	86	0	0
NMTAP	86	96	0
NMTAP	86	192	0
NMTAP	86	192	1
NMTAP	87	0	2
NMTAP	87	96	2
NMTAP	87	192	0
NMTAP	87	192	1
NMTAP	87	288	0
NMTAP	87	288	1
NMTAP	88	0	7
NMTAP	88	96	7
NMTAP	88	192	6
NMTAP	88	192	7
NMTAP	89	0	7
NMTAP	89	96	6
NMTAP	89	192	5
NMTAP	89	288	4
NMTAP	90	0	3
NMTAP	90	96	2
NMTAP	90	192	1
NMTAP	90	288	0
NMTAP	91	0	7
NMTAP	91	96	6
NMTAP	91	192	5
NMHLD	91	288	3	288
NMHLD	91	288	4	288
NMTAP	93	0	2
NMTAP	93	96	2
NMTAP	93	192	0
NMTAP	93	192	1
NMTAP	93	288	0
NMTAP	93	288	1
NMTAP	94	0	7
NMTAP	94	96	7
NMTAP	94	192	6
NMTAP	94	192	7
NMTAP	95	0	5
NMTAP	95	96	5
NMTAP	95	192	6
NMTAP	95	192	7
NMTAP	95	288	6
NMTAP	95	288	7
NMTAP	96	0	0
NMTAP	96	96	0
NMTAP	96	192	0
NMTAP	96	192	1
NMTAP	97	0	0
NMTAP	97	96	1
NMTAP	97	192	2
NMTAP	97	288	3
NMTAP	98	0	4
NMTAP	98	96	5
NMTAP	98	192	6
NMTAP	98	288	7
NMTAP	99	0	0
NMTAP	99	96	1
NMTAP	99	192	2
NMHLD	99	288	3	288
NMHLD	99	288	4	288
NMTAP	101	0	5
NMTAP	101	96	5
NMTAP	101	192	4
NMTAP	101	192	5
NMTAP	101	288	4
NMTAP	101	288	5
NMTAP	102	0	6
NMTAP	102	96	6
NMTAP	102	192	6
NMTAP	102	192	7
NMTAP	102	288	6
NMTAP	102	288	7
NMTAP	103	0	0
NMTAP	103	96	0
NMTAP	103	192	0
NMTAP	103	192	1
NMTAP	103	288	0
NMTAP	103	288	1
NMTAP	104	0	2
NMTAP	104	0	3
NMTAP	104	96	2
NMTAP	104	96	3
NMTAP	104	192	2
NMTAP	104	192	3
NMTAP	105	0	2
NMTAP	105	96	2
NMTAP	105	192	2
NMTAP	105	192	3
NMTAP	105	288	2
NMTAP	105	288	3
NMTAP	106	0	1
NMTAP	106	96	1
NMTAP	106	192	0
NMTAP	106	192	1
NMTAP	106	288	0
NMTAP	106	288	1
NMTAP	107	0	7
NMTAP	107	96	7
NMTAP	107	192	6
NMTAP	107	192	7
NMTAP	107	288	6
NMTAP	107	288	7
NMTAP	108	0	4
NMTAP	108	0	5
NMTAP	108	96	4
NMTAP	108	96	5
NMTAP	108	192	4
NMTAP	108	192	5
NMTAP	109	0	6
NMTAP	109	0	7
NMTAP	109	96	6
NMTAP	109	96	7
NMTAP	109	192	0
NMTAP	109	192	5
NMTAP	110	0	4
NMTAP	110	0	5
NMTAP	110	96	4
NMTAP	110	96	5
NMTAP	110	192	3
NMTAP	110	192	6
NMTAP	111	0	2
NMTAP	111	0	3
NMTAP	111	96	2
NMTAP	111	96	3
NMTAP	111	192	1
NMTAP	111	192	4
NMTAP	112	0	0
NMTAP	112	0	1
NMTAP	112	96	0
NMTAP	112	96	1
NMTAP	112	192	2
NMTAP	112	192	7
NMTAP	113	0	0
NMTAP	113	96	1
NMTAP	113	192	2
NMTAP	113	288	3
NMTAP	114	0	4
NMTAP	114	96	5
NMTAP	114	192	6
NMTAP	114	192	7
NMTAP	115	0	7
NMTAP	115	96	6
NMTAP	115	192	5
NMTAP	115	288	4
NMTAP	116	0	3
NMTAP	116	96	2
NMTAP	116	192	0
NMTAP	116	192	1
NMHLD	117	0	0	720
NMHLD	117	0	7	720

T_REC_TAP	317
T_REC_BRK	6
T_REC_XTP	0
T_REC_BXX	0
T_REC_HLD	31
T_REC_XHO	4
T_REC_BHO	0
T_REC_BXH	0
T_REC_STR	10
T_REC_BST	0
T_REC_XST	0
T_REC_XBS	0
T_REC_TTP	19
T_REC_THO	0
T_REC_SLD	10
T_REC_BSL	0
T_REC_ALL	397
T_NUM_TAP	346
T_NUM_BRK	6
T_NUM_HLD	35
T_NUM_SLD	10
T_NUM_ALL	397
T_JUDGE_TAP	352
T_JUDGE_HLD	198
T_JUDGE_SLD	10
T_JUDGE_ALL	560
TTM_EACHPAIRS	90
TTM_SCR_TAP	173000
TTM_SCR_BRK	15600
TTM_SCR_HLD	35000
TTM_SCR_SLD	15000
TTM_SCR_ALL	238600
TTM_SCR_S	230900
TTM_SCR_SS	238000
TTM_RAT_ACV	10025

