VERSION	0.00.00	1.04.00
FES_MODE	0
BPM_DEF	 90.000	 90.000	 90.000	 90.000
MET_DEF	4	4
RESOLUTION	384
CLK_DEF	384
COMPATIBLE_CODE	MA2

BPM	0	0	 90.000
MET	0	0	4	4

BRTAP	2	0	7
NMTAP	2	6	0
NMTAP	2	6	6
NMTAP	2	12	1
NMTAP	2	12	5
NMTAP	2	18	2
NMTAP	2	18	4
BRTAP	2	24	3
NMSTR	2	72	1
NMSCR	2	72	1	96	48	4
NMTAP	2	72	5
NMTAP	2	96	1
NMTAP	2	96	5
NMTAP	2	144	7
NMHLD	2	168	7	72
NMTAP	2	240	5
NMTAP	2	264	4
NMTAP	2	288	6
NMTAP	2	312	5
NMTAP	2	336	2
NMTAP	2	336	4
NMTAP	3	0	1
NMTAP	3	0	3
NMTAP	3	24	2
NMTAP	3	48	3
NMTAP	3	72	4
NMTAP	3	120	3
NMTAP	3	120	5
NMTAP	3	144	4
NMTAP	3	168	5
NMHLD	3	192	6	168
NMTTP	3	240	5	B	0	M1
NMTTP	3	264	6	B	0	M1
NMTTP	3	288	7	B	0	M1
NMTTP	3	312	0	B	0	M1
NMTTP	3	336	1	B	0	M1
NMTTP	3	360	2	B	0	M1
NMTAP	4	24	4
NMTAP	4	72	2
NMSTR	4	72	6
NMSCL	4	72	6	96	48	3
NMTAP	4	96	2
NMTAP	4	96	6
NMTAP	4	144	0
NMHLD	4	168	0	72
NMTAP	4	240	2
NMTAP	4	264	3
NMSTR	4	288	4
NMSCL	4	288	4	96	48	1
NMTAP	4	312	3
NMTAP	4	312	5
NMTAP	4	360	6
NMTAP	5	0	4
NMTAP	5	24	5
NMTAP	5	48	4
NMTAP	5	72	3
NMTAP	5	120	2
NMTAP	5	120	4
NMTAP	5	144	3
NMTAP	5	168	2
EXSTR	5	192	1
NMSI_	5	192	1	96	12	5
EXSTR	5	192	5
NMSI_	5	192	5	96	12	1
NMTTP	5	240	3	B	0	M1
NMTTP	5	240	3	A	0	M1
NMTTP	5	264	7	B	0	M1
NMTTP	5	264	7	A	0	M1
NMTTP	5	288	0	C	1	M1
NMTAP	6	0	0
NMSTR	6	0	6
NMSI_	6	0	6	96	24	0
NMTTP	6	48	5	B	0	M1
NMSTR	6	96	4
NMSI_	6	96	4	96	24	6
NMTTP	6	144	3	B	0	M1
NMSTR	6	192	2
NMSI_	6	192	2	96	24	4
NMTTP	6	240	1	B	0	M1
NMSTR	6	288	0
NMSI_	6	288	0	96	24	2
NMTTP	6	336	7	B	0	M1
NMTAP	7	0	0
NMSTR	7	0	6
NMSI_	7	0	6	96	24	2
NMTTP	7	48	3	E	0	M1
NMTTP	7	48	6	E	0	M1
NMSTR	7	96	0
NMSI_	7	96	0	96	24	4
NMTAP	7	96	6
NMTTP	7	144	2	E	0	M1
NMTTP	7	144	7	E	0	M1
NMTAP	7	192	0
NMSTR	7	192	4
NMSF_	7	192	4	96	24	0
NMTTP	7	240	2	A	0	M1
NMTTP	7	240	6	A	0	M1
NMTAP	7	288	4
BRTAP	7	336	3
BRTAP	7	336	5
NMTAP	8	0	2
NMTAP	8	0	4
NMTAP	8	24	1
NMTAP	8	48	3
NMTAP	8	48	5
NMTAP	8	72	6
NMTAP	8	96	2
NMTAP	8	96	3
NMTAP	8	120	0
NMTAP	8	144	4
NMTAP	8	144	5
NMTAP	8	168	7
NMTAP	8	192	2
NMTAP	8	192	4
NMTAP	8	216	0
NMTAP	8	240	3
NMTAP	8	240	5
NMTAP	8	264	6
NMSTR	8	288	1
NMSI_	8	288	1	96	24	3
NMSTR	8	312	7
NMSI_	8	312	7	96	24	5
NMSTR	8	336	0
NMSI_	8	336	0	96	24	4
NMTAP	8	360	6
NMTAP	9	0	1
NMTAP	9	24	7
NMTAP	9	48	0
NMTAP	9	72	6
NMTAP	9	96	2
NMTAP	9	108	2
NMTAP	9	120	3
NMTAP	9	132	1
NMTAP	9	144	5
NMTAP	9	156	5
NMTAP	9	168	4
NMTAP	9	180	6
NMTAP	9	192	2
NMTAP	9	200	1
NMTAP	9	208	0
NMTAP	9	216	7
NMTAP	9	224	6
NMTAP	9	232	5
NMTAP	9	240	2
NMTAP	9	248	1
NMTAP	9	256	0
NMTAP	9	264	7
NMTAP	9	272	6
NMTAP	9	280	5
NMSTR	9	288	2
NMSXL	9	288	2	96	96	5
NMTAP	9	296	1
NMTAP	9	304	0
NMTAP	9	312	7
NMTAP	9	320	6
NMTAP	9	328	5
NMTAP	9	336	2
NMTAP	9	344	1
NMTAP	9	352	0
NMTAP	9	360	7
NMTAP	9	368	6
NMTAP	9	376	5
BRTAP	10	0	2
BXHLD	10	0	4	336
CNSCL	10	96	5	0	96	6
CNSXL	10	192	6	0	120	1
BRTAP	10	336	0
NMTAP	11	0	1
NMTAP	11	0	3
NMTAP	11	24	2
NMTAP	11	48	3
NMSTR	11	72	2
NMSUR	11	72	2	96	96	4
NMTAP	11	72	4
NMTAP	11	120	5
NMTAP	11	144	4
NMTAP	11	168	2
NMHLD	11	192	7	72
NMTAP	11	288	5
NMTAP	11	288	7
NMTAP	11	312	6
NMHLD	11	336	4	24
NMTAP	11	360	5
NMSTR	12	0	2
NMSI_	12	0	2	96	24	0
NMSTR	12	0	3
NMSI_	12	0	3	96	24	7
NMSTR	12	48	0
NMSI_	12	48	0	96	24	4
NMTAP	12	48	7
NMTAP	12	96	2
NMTAP	12	96	3
NMSTR	12	144	4
NMSCR	12	144	4	96	96	2
NMSTR	12	192	7
NMSCR	12	192	7	96	48	2
NMTAP	12	240	3
NMTAP	12	264	4
NMTAP	12	288	5
NMTAP	12	312	6
NMSTR	12	336	7
BRSSR	12	336	7	96	24	3
NMHLD	13	0	1	24
NMHLD	13	0	5	24
NMHLD	13	96	2	24
NMHLD	13	120	6	24
NMHLD	13	144	4	144
NMTTP	13	192	2	B	0	M1
NMTTP	13	192	2	A	0	M1
NMTTP	13	240	6	B	0	M1
NMTTP	13	240	6	A	0	M1
NMHLD	13	288	0	24
NMTAP	13	312	2
NMTAP	13	336	3
NMHLD	13	360	5	120
NMTTP	14	0	7	B	0	M1
NMTTP	14	0	7	A	0	M1
NMTTP	14	48	3	B	0	M1
NMTTP	14	48	3	A	0	M1
NMSTR	14	96	2
NMSCR	14	96	2	96	24	5
NMTAP	14	120	1
NMTAP	14	120	6
NMTAP	14	144	0
NMTAP	14	144	7
NMTAP	14	192	2
NMTAP	14	192	5
NMSTR	14	240	3
BRSSR	14	240	3	96	24	7
NMSTR	14	240	4
BRSSL	14	240	4	96	24	0
NMSTR	14	288	1
NMSCR	14	288	1	96	24	3
NMSTR	14	288	6
NMSCL	14	288	6	96	24	4
EXTAP	15	0	1
EXTAP	15	0	6
NMHLD	15	48	0	24
NMHLD	15	48	7	24
BRTAP	15	96	1
BRSTR	15	96	6
NMSUL	15	96	6	96	72	3
NMTAP	15	144	4
NMTAP	15	144	5
NMTAP	15	168	2
NMHLD	15	192	0	72
NMTAP	15	288	0
NMTAP	15	288	2
NMHLD	15	312	3	48
NMHLD	15	336	2	24
NMSTR	16	0	4
NMSI_	16	0	4	96	24	0
NMSTR	16	0	5
NMSI_	16	0	5	96	24	7
NMTAP	16	48	0
NMSTR	16	48	7
NMSI_	16	48	7	96	24	3
NMTAP	16	96	4
NMTAP	16	96	5
NMSTR	16	144	3
NMSCL	16	144	3	96	96	5
NMSTR	16	192	0
NMSCL	16	192	0	96	48	5
NMTAP	16	240	4
NMTAP	16	264	3
NMTAP	16	288	2
NMTAP	16	312	1
NMSTR	16	336	0
NMSUL	16	336	0	96	24	4
NMSUR	16	336	0	96	24	4
NMHLD	17	0	2	24
NMHLD	17	0	6	24
NMHLD	17	96	7	24
NMHLD	17	120	5	24
NMHLD	17	144	3	144
NMTTP	17	192	5	B	0	M1
NMTTP	17	192	5	A	0	M1
NMTTP	17	240	1	B	0	M1
NMTTP	17	240	1	A	0	M1
NMHLD	17	288	7	24
NMHLD	17	312	6	24
NMHLD	17	336	5	24
NMHLD	17	360	4	120
NMTTP	18	0	2	B	0	M1
NMTTP	18	0	2	A	0	M1
NMTTP	18	48	6	B	0	M1
NMTTP	18	48	6	A	0	M1
NMSTR	18	96	0
NMSCL	18	96	0	96	24	5
NMSCR	18	96	0	96	24	2
NMTAP	18	120	7
NMTAP	18	144	1
NMTAP	18	144	6
NMTTP	18	240	4	E	0	M1
NMTTP	18	264	0	C	0	M1
NMTAP	18	288	0
NMTAP	18	288	7
NMTAP	18	312	0
NMTAP	18	312	7
NMTAP	18	336	1
NMTAP	18	336	6
NMTAP	18	360	2
NMTAP	18	360	5
NMTAP	19	0	3
NMTAP	19	12	4
NMTAP	19	24	3
NMTAP	19	36	4
NMTAP	19	48	1
NMTAP	19	60	3
NMTAP	19	72	2
NMTAP	19	84	3
NMTAP	19	96	0
NMTAP	19	108	7
NMTAP	19	120	0
NMTAP	19	132	7
NMTAP	19	144	4
NMTAP	19	156	5
NMTAP	19	168	4
NMTAP	19	180	6
NMTAP	19	192	1
NMTAP	19	200	2
NMTAP	19	208	3
NMTAP	19	216	4
NMTAP	19	224	5
NMTAP	19	232	6
NMSTR	19	240	7
BRSSR	19	240	7	96	24	3
NMTAP	19	246	0
NMTAP	19	252	1
NMTAP	19	258	2
NMTAP	19	264	3
NMTAP	19	270	4
NMTAP	19	276	5
NMTAP	19	282	6
NMTAP	19	288	7
NMTAP	19	292	0
NMTAP	19	296	1
NMTAP	19	300	2
NMTAP	19	304	3
NMTAP	19	308	4
NMTAP	19	312	5
NMTAP	19	316	6
NMTAP	19	320	7
NMTAP	19	324	0
NMTAP	19	328	1
NMTAP	19	332	2
BRTAP	19	336	3
NMTAP	20	0	1
NMTAP	20	0	5
NMTAP	20	24	2
NMTAP	20	36	2
NMTAP	20	48	3
NMTAP	20	72	1
NMTAP	20	72	4
NMTAP	20	96	3
NMTAP	20	96	5
NMTAP	20	120	6
NMTAP	20	132	6
NMTAP	20	144	7
NMTAP	20	168	0
NMTAP	20	168	5
NMTAP	20	192	2
NMTAP	20	192	4
NMTAP	20	216	1
NMTAP	20	228	1
NMSTR	20	240	0
NMSCR	20	240	0	96	36	5
NMTAP	20	264	4
NMTAP	20	264	5
NMTAP	20	288	6
NMTAP	20	300	6
NMTAP	20	312	7
NMTAP	20	324	5
BRTAP	20	336	0
NMSTR	21	0	6
NMSI_	21	0	6	96	24	0
NMTAP	21	24	6
NMSTR	21	72	4
NMSLR	21	72	4	96	36	3
NMTAP	21	72	5
NMTAP	21	96	3
NMTAP	21	96	6
NMTAP	21	144	2
NMTAP	21	144	3
NMHLD	21	168	1	72
NMTAP	21	168	4
NMSTR	21	240	3
NMSCL	21	240	3	96	24	0
NMTAP	21	264	2
NMTAP	21	288	4
NMTAP	21	288	5
NMTAP	21	312	6
NMTAP	21	336	3
BRTAP	21	336	7
NMTAP	22	0	2
NMTAP	22	0	6
NMTAP	22	24	5
NMTAP	22	36	5
NMTAP	22	48	4
NMTAP	22	72	3
NMTAP	22	72	6
NMTAP	22	96	2
NMTAP	22	96	4
NMTAP	22	120	1
NMTAP	22	132	1
NMTAP	22	144	0
NMTAP	22	168	2
NMTAP	22	168	7
NMTAP	22	192	3
NMTAP	22	192	5
NMTAP	22	216	6
NMTAP	22	228	6
NMSTR	22	240	7
NMSLL	22	240	7	96	24	3
NMTAP	22	264	2
NMTAP	22	264	3
NMTAP	22	288	1
NMTAP	22	300	1
NMTAP	22	312	0
NMTAP	22	324	2
NMTAP	22	336	7
BRSTR	23	0	1
NMSI_	23	0	1	96	24	5
BRHLD	23	0	2	72
NMTAP	23	72	0
NMTAP	23	96	1
NMSTR	23	96	4
NMSCR	23	96	4	96	24	7
NMTAP	23	144	2
NMTAP	23	144	3
NMSTR	23	168	1
NMSCR	23	168	1	96	24	4
NMTAP	23	192	0
NMTAP	23	192	4
NMSTR	23	240	6
NMSCR	23	240	6	96	24	1
NMTAP	23	264	1
NMTAP	23	264	5
NMTAP	23	312	3
NMTAP	23	312	4
NMTTP	23	336	4	E	0	M1
NMSTR	24	0	3
NMSI_	24	0	3	96	240	7
NMTAP	24	48	1
NMTAP	24	48	5
NMTAP	24	96	3
NMTAP	24	96	7
NMTAP	24	144	4
NMTAP	24	156	5
NMTAP	24	168	6
NMSTR	24	192	3
BRSI_	24	192	3	96	24	7
NMTAP	24	204	2
NMTAP	24	216	1
NMHLD	24	240	3	48
NMTTP	24	288	0	C	1	M1
NMTAP	25	0	1
NMTAP	25	0	5
NMTAP	25	24	2
NMTAP	25	36	2
NMHLD	25	48	3	24
NMTAP	25	72	0
NMTAP	25	96	2
NMTAP	25	96	6
NMTAP	25	120	5
NMTAP	25	132	5
NMHLD	25	144	4	24
NMTAP	25	168	7
NMTAP	25	192	0
NMTAP	25	192	6
NMTAP	25	204	1
NMTAP	25	216	2
NMTAP	25	228	3
NMTAP	25	240	1
NMTAP	25	240	4
NMTAP	25	252	2
NMTAP	25	264	3
NMTAP	25	276	4
NMTAP	25	288	2
NMSTR	25	288	5
NMSCR	25	288	5	96	384	3
NMTAP	25	300	3
NMTAP	25	312	4
NMTAP	25	324	5
BRTAP	25	336	2
BRTAP	25	336	6
NMTHO	26	0	0	288	C	0	M1
NMTHO	27	0	0	288	C	1	M1
CNSLL	27	0	3	0	144	7
CNSLL	27	144	7	0	144	3
NMTAP	28	0	1
NMHLD	28	24	1	48
NMTAP	28	72	3
NMHLD	28	96	3	120
NMHLD	28	216	2	48
NMTAP	28	264	4
NMTAP	28	288	3
NMTAP	28	312	3
NMTAP	28	336	2
NMTAP	28	336	4
NMTAP	29	0	6
NMHLD	29	24	6	48
NMTAP	29	72	4
NMHLD	29	96	4	120
NMTTP	29	144	5	E	0	M1
NMTTP	29	152	6	E	0	M1
NMTTP	29	160	7	E	0	M1
NMTTP	29	168	0	E	0	M1
NMTTP	29	176	1	E	0	M1
NMTTP	29	184	2	E	0	M1
NMTTP	29	192	3	E	0	M1
NMHLD	29	216	5	48
NMTAP	29	264	3
NMTAP	29	288	4
NMTAP	29	312	4
NMTAP	29	336	3
NMTAP	29	336	5
NMTAP	30	0	0
NMTAP	30	48	0
NMTAP	30	96	0
NMTAP	30	144	0
NMTAP	30	192	1
NMTAP	30	192	7
NMTAP	30	216	2
NMTAP	30	240	3
NMTAP	30	240	4
NMTAP	30	264	5
NMTAP	30	288	0
NMTAP	30	288	6
NMTAP	30	312	1
NMTAP	30	336	2
NMTAP	30	336	4
NMTAP	30	360	3
NMTAP	30	360	5
NMTAP	31	0	4
NMTAP	31	12	6
NMTAP	31	24	3
NMTAP	31	36	5
NMTAP	31	48	2
NMTAP	31	60	4
NMTAP	31	72	1
NMTAP	31	84	3
NMSTR	31	96	0
NMSI_	31	96	0	96	24	4
NMTAP	31	104	1
NMTAP	31	112	2
NMTAP	31	120	7
NMTAP	31	128	6
NMTAP	31	136	5
NMTAP	31	144	2
NMTAP	31	152	3
NMTAP	31	160	1
NMTAP	31	168	5
NMTAP	31	176	4
NMTAP	31	184	6
BXTAP	31	192	0
BRTAP	31	192	7
BRHLD	32	0	2	48
NMTTP	32	0	4	E	1	M1
NMTAP	32	24	5
NMTAP	32	48	6
BRHLD	32	72	3	48
NMTTP	32	72	5	E	1	M1
NMTAP	32	96	5
NMTAP	32	120	6
BRHLD	32	144	4	96
NMTTP	32	144	6	E	1	M1
NMSTR	32	168	7
NMSV_	32	168	7	96	12	4
NMTAP	32	240	7
NMTTP	32	264	1	E	0	M1
CNSCR	32	276	4	0	12	5
NMTTP	32	288	2	E	0	M1
CNSI_	32	288	5	0	12	0
NMTTP	32	312	3	E	0	M1
NMTTP	32	336	4	E	0	M1
NMTTP	32	360	5	E	0	M1
NMTTP	32	360	6	D	0	M1
BRTAP	33	0	2
NMTAP	33	24	1
NMHLD	33	24	3	48
BRTAP	33	72	2
NMHLD	33	96	4	48
NMTAP	33	96	5
NMTAP	33	144	6
NMSTR	33	168	0
NMSV_	33	168	0	96	24	3
NMSV_	33	168	0	96	24	5
NMTAP	33	168	7
BRTAP	33	192	1
NMTAP	33	192	2
NMTAP	33	216	3
BRTAP	33	216	5
BRTAP	33	264	0
NMTAP	33	312	2
NMTAP	33	312	6
NMTAP	33	336	2
NMTAP	33	336	6
NMTAP	33	360	4
NMTTP	34	0	4	E	1	M1
BRHLD	34	0	5	48
NMTAP	34	24	2
NMTAP	34	48	1
NMTTP	34	72	3	E	1	M1
BRHLD	34	72	4	48
NMTAP	34	96	2
NMTAP	34	120	1
NMTTP	34	144	2	E	1	M1
BRHLD	34	144	3	96
NMSTR	34	168	0
NMSV_	34	168	0	96	12	3
NMTAP	34	240	0
NMTTP	34	264	7	E	0	M1
CNSCL	34	276	3	0	12	1
CNSI_	34	288	1	0	12	7
NMTTP	34	288	6	E	0	M1
NMTTP	34	312	5	E	0	M1
NMTTP	34	336	4	E	0	M1
NMTTP	34	360	2	D	0	M1
NMTTP	34	360	3	E	0	M1
BRTAP	35	0	5
NMHLD	35	24	4	48
NMTAP	35	24	6
BRTAP	35	72	5
NMTAP	35	96	2
NMHLD	35	96	3	48
NMTAP	35	144	1
NMTAP	35	168	0
NMSTR	35	168	7
NMSI_	35	168	7	96	24	3
NMTAP	35	192	4
BRTAP	35	192	6
BRTAP	35	216	2
NMTAP	35	216	3
BRTAP	35	264	0
BRTAP	35	264	7
NMTAP	35	312	4
NMTAP	35	312	5
BRTAP	35	336	2
BRTAP	35	336	6
NMTAP	36	0	1
NMTAP	36	0	7
NMTAP	36	48	1
NMTTP	36	48	5	B	0	M1
NMTTP	36	72	4	B	0	M1
NMTAP	36	96	1
NMTTP	36	120	7	E	0	M1
NMTAP	36	144	1
NMTTP	36	144	6	E	0	M1
NMTTP	36	168	5	E	0	M1
NMTAP	36	192	2
NMTTP	36	192	4	E	0	M1
NMTTP	36	240	0	D	0	M1
NMTAP	36	240	2
NMTTP	36	264	7	D	0	M1
NMTAP	36	288	2
NMTTP	36	288	6	D	0	M1
NMTTP	36	312	5	D	0	M1
NMTAP	36	336	2
NMTTP	36	336	4	D	0	M1
NMTTP	37	0	0	B	0	M1
NMTAP	37	0	6
NMTTP	37	24	1	B	0	M1
NMTTP	37	48	2	B	0	M1
NMTAP	37	48	6
NMTTP	37	72	3	B	0	M1
NMTAP	37	96	6
NMTTP	37	120	1	E	0	M1
NMTTP	37	144	2	E	0	M1
NMTAP	37	144	6
NMTTP	37	168	3	E	0	M1
NMTTP	37	192	4	E	0	M1
NMTAP	37	192	5
NMTTP	37	240	0	D	0	M1
NMTAP	37	240	5
NMTTP	37	264	1	D	0	M1
NMTTP	37	288	2	D	0	M1
NMTAP	37	288	5
NMTTP	37	312	3	D	0	M1
NMTTP	37	336	4	D	1	M1
NMTAP	37	336	5
NMSTR	38	0	6
NMSI_	38	0	6	96	24	3
NMSTR	38	24	3
NMSI_	38	24	3	96	24	7
NMSTR	38	48	7
NMSI_	38	48	7	96	24	2
NMSTR	38	72	2
NMSCL	38	72	2	96	72	4
NMTAP	38	96	6
EXTAP	38	144	0
EXHLD	38	168	0	48
NMTAP	38	240	0
NMTAP	38	264	7
NMTAP	38	288	0
NMTAP	38	288	6
NMTAP	38	312	5
NMTAP	38	336	3
NMTAP	38	336	4
NMTAP	38	360	2
NMTAP	39	0	1
NMTAP	39	0	7
NMTAP	39	24	4
NMTAP	39	24	5
NMTAP	39	48	0
NMTAP	39	48	6
NMTAP	39	72	2
NMTAP	39	72	3
NMTAP	39	96	5
NMTAP	39	108	5
NMTAP	39	120	4
NMTAP	39	132	6
NMTAP	39	144	2
NMTAP	39	156	2
NMTAP	39	168	3
NMTAP	39	180	1
BRHLD	39	192	4	48
NMTTP	39	216	2	A	0	M1
NMTTP	39	220	2	D	0	M1
NMTTP	39	224	1	A	0	M1
NMTTP	39	228	1	D	0	M1
NMTTP	39	232	0	A	0	M1
NMTTP	39	236	0	D	0	M1
NMTTP	39	240	7	A	0	M1
NMTTP	39	244	7	D	0	M1
NMTTP	39	248	6	A	0	M1
NMTTP	39	252	6	D	0	M1
NMTTP	39	256	5	A	0	M1
NMTTP	39	260	5	D	0	M1
NMTTP	39	264	4	A	0	M1
NMTTP	39	268	4	D	0	M1
NMTTP	39	272	3	A	0	M1
NMTTP	39	276	3	D	0	M1
EXTAP	39	288	2
EXTAP	39	288	6
EXTAP	39	312	2
EXTAP	39	312	6
BRTAP	39	336	1
BRTAP	39	336	7
NMTAP	40	0	0
NMTAP	40	0	4
NMTAP	40	24	2
NMTAP	40	36	3
NMSTR	40	48	1
NMSCR	40	48	1	96	24	4
NMSTR	40	72	7
NMSI_	40	72	7	96	24	3
NMTAP	40	84	0
NMTAP	40	96	7
NMTAP	40	120	3
NMTAP	40	120	5
NMTAP	40	144	1
NMTAP	40	168	7
NMTAP	40	192	0
NMTAP	40	216	2
NMTAP	40	228	3
NMSTR	40	240	1
NMSI_	40	240	1	96	24	7
NMSTR	40	264	6
NMSI_	40	264	6	96	24	2
NMTAP	40	276	7
NMTAP	40	288	5
NMTAP	40	312	2
NMTAP	40	312	4
NMTAP	40	336	1
NMTAP	40	360	6
NMTAP	41	0	0
NMTAP	41	12	1
NMTAP	41	24	2
NMTAP	41	36	3
NMHLD	41	48	4	48
NMSTR	41	48	5
NMSV_	41	48	5	96	24	0
NMTAP	41	60	6
NMTAP	41	72	7
NMTAP	41	84	0
NMTAP	41	96	1
NMTAP	41	108	2
NMTAP	41	120	3
NMTAP	41	132	4
BRTAP	41	144	1
EXTAP	41	144	5
NMTAP	41	192	2
NMTAP	41	204	2
NMTAP	41	216	3
NMTAP	41	228	1
NMTAP	41	240	5
NMTAP	41	252	5
NMTAP	41	264	4
NMTAP	41	276	6
NMSTR	41	288	0
NMSI_	41	288	0	96	24	4
NMTAP	41	300	7
NMTAP	41	312	1
NMTAP	41	324	6
NMTAP	41	336	2
NMTAP	41	348	5
NMTAP	41	360	3
NMTAP	42	0	0
NMTAP	42	0	4
NMTAP	42	24	6
NMTAP	42	36	7
NMTAP	42	48	6
NMTAP	42	72	0
NMTAP	42	72	4
NMTAP	42	96	1
NMTAP	42	108	3
NMTAP	42	120	2
NMTAP	42	132	4
NMTAP	42	144	3
NMTAP	42	168	4
NMTAP	42	168	5
NMTAP	42	192	3
NMTAP	42	192	7
NMTAP	42	204	6
NMTAP	42	216	5
NMTAP	42	228	4
NMTAP	42	240	3
NMTAP	42	240	6
NMTAP	42	252	5
NMTAP	42	264	4
NMTAP	42	276	3
BRHLD	42	288	2	96
BRHLD	42	288	6	96
NMTAP	43	24	2
NMTAP	43	24	6
NMTAP	43	48	7
NMTAP	43	72	0
NMTAP	43	72	5
NMTAP	43	96	1
NMTAP	43	96	4
NMTAP	43	120	2
NMTAP	43	144	3
NMTAP	43	144	5
NMTAP	43	168	2
NMSTR	43	168	6
NMSI_	43	168	6	96	24	2
NMSTR	43	192	7
NMSI_	43	192	7	96	24	3
NMSTR	43	216	0
NMSI_	43	216	0	96	24	4
NMSTR	43	240	1
NMSI_	43	240	1	96	24	5
BXTAP	43	264	6
BXTAP	43	288	7
BXTAP	43	312	0
BXTAP	43	336	1
NMTAP	44	0	3
NMTAP	44	0	7
NMTAP	44	24	5
NMTAP	44	36	4
NMSTR	44	48	6
NMSCL	44	48	6	96	24	3
NMSTR	44	72	0
NMSI_	44	72	0	96	24	4
NMTAP	44	84	7
NMTAP	44	96	0
NMTAP	44	120	2
NMTAP	44	120	4
NMTAP	44	144	6
NMTAP	44	168	0
NMTAP	44	192	7
NMTAP	44	216	5
NMTAP	44	228	4
NMSTR	44	240	6
NMSI_	44	240	6	96	24	0
NMSTR	44	264	1
NMSI_	44	264	1	96	24	5
NMTAP	44	276	0
NMTAP	44	288	2
NMTAP	44	312	3
NMTAP	44	312	5
NMTAP	44	336	6
NMTAP	44	360	1
NMTAP	45	0	7
NMTAP	45	12	7
NMTAP	45	24	3
NMTAP	45	36	6
NMTAP	45	48	4
NMTAP	45	48	5
NMTAP	45	72	0
NMTAP	45	84	0
NMTAP	45	96	4
NMTAP	45	108	1
NMTAP	45	120	2
NMTAP	45	120	3
NMTAP	45	144	4
NMTAP	45	144	5
NMTAP	45	156	3
NMTAP	45	168	2
NMTAP	45	180	1
NMTAP	45	192	0
NMTAP	45	192	7
NMTAP	45	204	6
NMTAP	45	216	5
NMTAP	45	228	4
NMSTR	45	240	2
NMSV_	45	240	2	96	24	7
NMHLD	45	240	3	48
NMTAP	45	252	1
NMTAP	45	264	0
NMTAP	45	276	7
NMTAP	45	288	6
NMTAP	45	300	5
NMTAP	45	312	4
NMTAP	45	324	3
EXTAP	45	336	2
BRTAP	45	336	6
NMTAP	46	0	4
NMHLD	46	12	4	36
NMTAP	46	24	6
NMTAP	46	30	7
NMTAP	46	36	0
NMTAP	46	42	1
NMTAP	46	48	2
NMTAP	46	72	7
NMHLD	46	84	7	36
NMTAP	46	96	5
NMTAP	46	102	4
NMTAP	46	108	3
NMTAP	46	114	2
NMTAP	46	120	1
NMTAP	46	144	0
NMTAP	46	144	4
NMTAP	46	156	5
NMTAP	46	168	6
NMTAP	46	180	7
NMTAP	46	192	0
NMTAP	46	192	5
NMTAP	46	204	6
NMTAP	46	216	7
NMTAP	46	228	0
NMTAP	46	240	1
NMTAP	46	240	6
NMTAP	46	252	7
NMTAP	46	264	0
NMSTR	46	276	1
BRSSR	46	276	1	96	300	5
BRHLD	46	288	2	44
BRHLD	46	288	6	44
EXTAP	46	336	3
EXTAP	46	336	7
NMTAP	46	340	0
NMTAP	46	340	4
NMTAP	46	344	1
NMTAP	46	344	5
NMTAP	46	348	2
NMTAP	46	348	6
NMTTP	47	0	0	C	1	M1
CNSCL	47	288	5	0	96	1
CNSCL	48	0	1	0	144	3
CNSI_	48	144	3	0	24	7
NMTAP	48	192	4
NMTAP	48	240	4
NMTAP	48	288	3
NMSTR	48	336	1
NMSI_	48	336	1	96	12	3
NMSTR	48	336	5
NMSI_	48	336	5	96	12	3
NMTAP	49	0	7
NMTAP	49	96	6
NMTAP	49	120	2
NMHLD	49	144	4	144
NMTTP	49	192	3	D	0	M1
NMTTP	49	240	6	D	0	M1
NMTAP	49	288	1
NMTAP	49	312	1
NMTAP	49	336	3
NMHLD	49	360	3	120
NMTTP	50	0	5	D	0	M1
NMTTP	50	48	2	D	0	M1
NMTAP	50	96	4
NMTAP	50	120	4
NMTAP	50	144	5
NMTAP	50	192	2
NMSTR	50	240	3
BRSCL	50	240	3	96	12	1
NMSTR	50	240	4
BRSCR	50	240	4	96	12	6
NMSTR	50	288	3
NMSSR	50	288	3	96	24	7
NMSTR	50	288	4
NMSSL	50	288	4	96	24	0
EXTAP	51	0	3
EXTAP	51	0	4
NMHLD	51	48	1	24
NMHLD	51	48	6	24
BRSTR	51	96	2
NMSI_	51	96	2	96	12	4
BRTAP	51	96	5
NMTAP	51	144	0
NMTAP	51	144	4
NMTAP	51	168	5
NMHLD	51	192	6	48
CNSI_	51	204	4	0	24	0
EXSTR	51	240	7
NMSLL	51	240	7	96	24	3
NMTAP	51	312	0
NMTAP	51	312	1
EXHLD	51	336	2	144
EXTAP	51	336	7
EXSTR	52	0	3
NMSI_	52	0	3	96	24	7
EXSTR	52	48	1
NMSI_	52	48	1	96	24	5
NMSTR	52	96	3
NMSLR	52	96	3	96	24	7
NMTAP	52	120	2
EXSTR	52	144	1
NMSCL	52	144	1	96	96	3
NMTAP	52	192	3
CNSI_	52	216	7	0	24	1
EXTAP	52	240	3
NMTAP	52	264	2
NMTAP	52	288	1
NMTAP	52	312	0
EXSTR	52	336	7
NMSSL	52	336	7	96	24	3
NMSSR	52	336	7	96	24	3
NMHLD	53	0	1	24
NMHLD	53	0	5	24
NMSTR	53	96	0
NMSV_	53	96	0	96	24	5
NMHLD	53	120	2	72
NMSTR	53	144	4
NMSV_	53	144	4	96	24	1
NMHLD	53	240	6	48
NMHLD	53	288	0	24
NMHLD	53	312	2	24
NMHLD	53	336	3	24
NMHLD	53	360	5	120
NMTTP	54	0	7	B	0	M1
NMTTP	54	0	7	A	0	M1
NMTTP	54	48	3	B	0	M1
NMTTP	54	48	3	A	0	M1
NMSTR	54	96	1
NMSI_	54	96	1	96	12	3
NMTAP	54	120	0
NMTAP	54	120	7
NMTAP	54	144	0
NMTAP	54	144	7
NMTAP	54	168	0
NMTAP	54	168	7
NMTAP	54	192	1
NMSTR	54	192	6
NMSCL	54	192	6	96	48	1
CNSCR	54	204	3	0	24	4
CNSI_	54	228	4	0	12	6
NMTHO	54	240	0	24	C	0	M1
NMTTP	54	288	2	E	0	M1
NMTTP	54	312	3	E	0	M1
NMTTP	54	336	5	E	0	M1
NMTTP	54	360	6	E	0	M1
NMTAP	55	0	7
NMTAP	55	12	6
NMTAP	55	24	7
NMTAP	55	36	6
NMTAP	55	48	1
NMTAP	55	60	3
NMTAP	55	72	2
NMTAP	55	84	3
NMTAP	55	96	1
NMTAP	55	108	0
NMTAP	55	120	1
NMTAP	55	132	0
NMTAP	55	144	4
NMTAP	55	156	5
NMTAP	55	168	4
NMTAP	55	180	6
NMTAP	55	192	2
NMTAP	55	200	1
NMTAP	55	208	0
NMTAP	55	216	7
NMTAP	55	224	6
NMTAP	55	232	5
NMTAP	55	240	2
NMTAP	55	240	4
NMTAP	55	248	1
NMTAP	55	256	0
NMTAP	55	264	7
NMTAP	55	272	6
NMTAP	55	280	5
NMTAP	55	288	3
NMTAP	55	288	4
NMTAP	55	296	2
NMTAP	55	304	1
NMTAP	55	312	0
NMTAP	55	320	7
NMTAP	55	328	6
NMTAP	55	336	3
NMTAP	55	336	5
NMTAP	55	344	2
NMTAP	55	352	1
NMTAP	55	360	0
NMTAP	55	368	7
NMTAP	55	376	6
NMTAP	56	0	3
NMTAP	56	8	4
NMTAP	56	16	3
NMTAP	56	24	4
NMTAP	56	32	3
NMTAP	56	40	4
NMTAP	56	48	2
NMTAP	56	56	5
NMTAP	56	64	2
NMTAP	56	72	5
NMTAP	56	80	2
NMTAP	56	88	5
NMSTR	56	96	1
BRSI_	56	96	1	96	12	5
NMTAP	56	104	6
NMTAP	56	112	1
NMSTR	56	120	6
BRSI_	56	120	6	96	12	2
NMTAP	56	128	1
NMTAP	56	136	6
NMTAP	56	144	0
NMTAP	56	152	7
NMTAP	56	160	0
NMTAP	56	168	7
NMTAP	56	176	0
NMTAP	56	184	7
BRTAP	56	192	1
NMTTP	56	193	0	C	1	M1
BRTAP	56	216	6
NMTTP	56	217	0	C	1	M1

T_REC_TAP	672
T_REC_BRK	33
T_REC_XTP	15
T_REC_BXX	5
T_REC_HLD	57
T_REC_XHO	2
T_REC_BHO	12
T_REC_BXH	1
T_REC_STR	83
T_REC_BST	3
T_REC_XST	7
T_REC_XBS	0
T_REC_TTP	121
T_REC_THO	3
T_REC_SLD	87
T_REC_BSL	10
T_REC_ALL	1111
T_NUM_TAP	898
T_NUM_BRK	64
T_NUM_HLD	62
T_NUM_SLD	87
T_NUM_ALL	1111
T_JUDGE_TAP	939
T_JUDGE_HLD	210
T_JUDGE_SLD	97
T_JUDGE_ALL	1246
TTM_EACHPAIRS	166
TTM_SCR_TAP	449000
TTM_SCR_BRK	166400
TTM_SCR_HLD	62000
TTM_SCR_SLD	130500
TTM_SCR_ALL	807900
TTM_SCR_S	777500
TTM_SCR_SS	801500
TTM_RAT_ACV	10079

