VERSION	0.00.00	1.04.00
FES_MODE	0
BPM_DEF	 90.000	 90.000	 90.000	 90.000
MET_DEF	4	4
RESOLUTION	384
CLK_DEF	384
COMPATIBLE_CODE	MA2

BPM	0	0	 90.000
MET	0	0	4	4

NMHLD	2	0	3	192
NMSTR	2	0	4
NMSCR	2	0	4	96	288	3
NMHLD	3	0	4	288
NMTAP	3	192	3
NMTAP	3	288	3
NMSTR	4	0	3
NMSCL	4	0	3	96	288	4
NMHLD	4	0	4	192
NMHLD	5	0	3	240
NMHLD	5	192	4	48
BRTAP	5	288	3
BRTAP	5	288	4
NMTAP	6	0	4
NMTAP	6	0	6
NMTAP	6	48	4
NMTAP	6	48	6
NMTAP	6	96	3
NMTAP	6	96	5
NMTAP	6	144	3
NMTAP	6	144	5
NMTAP	6	192	2
NMTAP	6	192	4
NMTAP	6	240	2
NMTAP	6	240	4
NMTAP	6	288	1
NMTAP	6	288	3
NMTAP	6	336	1
NMTAP	6	336	3
NMTAP	7	0	2
NMTAP	7	0	3
NMTAP	7	48	2
NMTAP	7	48	3
NMTAP	7	96	3
NMTAP	7	96	4
NMTAP	7	144	3
NMTAP	7	144	4
NMTAP	7	192	4
NMTAP	7	192	5
NMTAP	7	240	4
NMTAP	7	240	5
NMTAP	7	288	5
NMTAP	7	288	6
BRTAP	7	336	7
NMTAP	8	0	6
NMTAP	8	24	6
NMTAP	8	48	5
NMTAP	8	72	5
NMTAP	8	96	4
NMTAP	8	120	4
NMTAP	8	144	3
NMTAP	8	168	3
NMTAP	8	192	2
NMTAP	8	216	2
NMTAP	8	240	1
NMTAP	8	264	1
NMTAP	8	288	0
NMTAP	8	312	0
NMTAP	8	336	0
NMTAP	8	360	0
NMTAP	9	0	0
NMTAP	9	24	1
NMTAP	9	48	2
NMTAP	9	72	3
NMTAP	9	96	4
NMTAP	9	120	5
NMTAP	9	144	6
NMTAP	9	168	7
BRHLD	9	192	0	192
NMSTR	9	336	7
NMSCL	9	336	7	96	240	0
EXTAP	10	336	0
EXTAP	10	336	7
NMTAP	11	0	0
NMHLD	11	0	7	192
NMTTP	11	96	4	B	0	M1
NMTTP	11	96	5	E	1	M1
NMHLD	11	192	6	192
NMTAP	11	240	7
NMTTP	11	288	6	B	0	M1
NMTTP	11	288	6	E	1	M1
NMHLD	12	0	4	192
NMTTP	12	96	5	B	0	M1
NMTTP	12	96	6	E	1	M1
NMHLD	12	192	3	240
NMTAP	12	240	5
NMTTP	12	288	3	B	0	M1
NMTTP	12	288	4	B	0	M1
NMTTP	12	288	4	E	1	M1
NMHLD	13	0	1	192
NMTTP	13	96	2	B	0	M1
NMTTP	13	96	2	E	0	M1
NMTTP	13	96	3	B	0	M1
NMTTP	13	96	3	E	1	M1
NMHLD	13	192	0	96
NMTAP	13	240	1
BRHLD	13	288	7	384
NMTHO	14	0	0	288	C	0	M1
BRTAP	14	336	0
BRTAP	14	336	7
NMHLD	15	0	0	48
NMSTR	15	0	7
NMSI_	15	0	7	96	48	3
BRSTR	15	96	1
NMSV_	15	96	1	96	48	4
NMSTR	15	192	6
NMSI_	15	192	6	96	48	2
BRSTR	15	288	1
NMSI_	15	288	1	96	48	4
NMSTR	16	0	7
NMSI_	16	0	7	96	48	2
BRSTR	16	96	0
NMSV_	16	96	0	96	48	5
NMTAP	16	192	6
NMTAP	16	240	6
BRSTR	16	288	7
NMSF_	16	288	7	96	48	3
BRSTR	17	96	1
NMSI_	17	96	1	96	48	5
BRTAP	17	96	5
NMTAP	17	192	6
CNSI_	17	240	5	0	48	3
NMTAP	17	240	6
CNSI_	17	288	3	0	48	0
BRSTR	17	288	7
NMSCL	17	288	7	96	192	0
NMTAP	18	192	7
NMTAP	18	240	0
NMHLD	18	288	0	48
NMHLD	18	288	7	384
NMTAP	19	0	0
NMTAP	19	24	0
NMTAP	19	48	1
NMTAP	19	72	1
NMTAP	19	96	2
NMTAP	19	120	2
NMTAP	19	144	3
NMTAP	19	168	3
NMTAP	19	192	4
NMTAP	19	216	4
NMTAP	19	240	5
NMTAP	19	264	5
NMTAP	19	288	5
NMTAP	19	336	4
NMTAP	19	336	6
NMHLD	20	0	4	48
NMTAP	20	0	5
NMHLD	20	48	3	48
BRHLD	20	96	2	96
NMTAP	20	144	1
NMHLD	20	192	3	48
NMHLD	20	240	4	48
BRHLD	20	288	5	168
NMTAP	20	336	6
BXHLD	21	0	4	48
NMHLD	21	72	4	72
NMHLD	21	96	5	48
NMHLD	21	168	3	72
NMHLD	21	168	6	96
NMTAP	21	288	4
NMTAP	21	312	4
NMTAP	21	336	3
NMTAP	21	336	5
NMTAP	22	0	2
NMHLD	22	0	3	48
NMHLD	22	48	4	48
BRHLD	22	96	5	96
NMTAP	22	144	6
NMHLD	22	192	4	48
NMHLD	22	240	3	48
BRHLD	22	288	2	168
NMTAP	22	336	1
BXHLD	23	0	3	48
NMHLD	23	72	3	72
NMHLD	23	96	2	72
NMHLD	23	168	3	72
NMHLD	23	192	2	48
NMHLD	23	264	1	48
NMHLD	23	264	4	48
BRTAP	23	336	0
BRHLD	23	336	5	432
NMTHO	24	0	0	288	C	1	M1
NMSTR	25	0	0
NMSI_	25	0	0	96	48	4
BRSTR	25	96	7
NMSI_	25	96	7	96	48	3
NMSTR	25	192	6
NMSI_	25	192	6	96	48	2
BRSTR	25	288	5
BRSCR	25	288	5	96	288	2
NMSTR	26	288	5
NMSCR	26	288	5	96	288	2
EXHLD	27	288	4	864
NMSTR	28	0	3
NMSI_	28	0	3	96	48	1
CNSI_	28	144	1	0	48	7
CNSI_	28	192	7	0	96	5
NMSTR	29	0	5
NMSCR	29	0	5	96	192	3
NMTAP	30	0	3
NMTAP	30	48	3
NMTAP	30	96	2
NMTAP	30	96	3
NMTAP	30	144	2
NMTAP	30	144	3
NMTAP	30	192	1
NMTAP	30	216	1
NMTAP	30	240	0
NMTAP	30	264	0
NMTAP	30	288	7
NMTAP	30	312	7
NMTAP	30	336	6
NMTAP	30	360	6
NMTAP	31	0	0
NMTAP	31	12	7
NMTAP	31	24	0
NMTAP	31	36	7
NMTAP	31	48	0
NMTAP	31	60	7
NMTAP	31	72	0
NMTAP	31	84	7
NMTAP	31	96	0
NMTAP	31	108	7
NMTAP	31	120	0
NMTAP	31	132	7
NMTAP	31	144	0
BRHLD	31	192	2	96
BRHLD	31	192	5	96
NMHLD	32	0	1	48
NMHLD	32	0	3	48
NMHLD	32	72	1	48
NMHLD	32	72	3	48
NMSTR	32	144	0
NMSI_	32	144	0	96	24	6
NMTAP	32	144	4
NMTAP	32	168	0
NMTAP	32	168	4
CNSI_	32	264	6	0	24	2
CNSI_	32	288	2	0	48	4
NMHLD	33	0	4	48
NMHLD	33	0	6	48
NMHLD	33	72	4	48
NMHLD	33	72	6	48
NMTAP	33	144	3
NMSTR	33	144	7
NMSI_	33	144	7	96	24	1
NMTAP	33	168	3
NMTAP	33	168	7
CNSI_	33	264	1	0	24	5
CNSI_	33	288	5	0	48	3
NMHLD	34	0	1	48
NMHLD	34	0	3	48
NMHLD	34	72	1	48
NMHLD	34	72	3	48
NMSTR	34	144	0
NMSI_	34	144	0	96	24	6
NMTAP	34	144	4
NMTAP	34	168	0
NMTAP	34	168	4
CNSI_	34	264	6	0	24	2
CNSI_	34	288	2	0	48	4
NMHLD	35	0	7	48
NMHLD	35	72	0	48
NMHLD	35	72	6	48
NMTAP	35	144	1
NMTAP	35	144	5
NMSTR	35	192	3
NMSCL	35	192	3	96	96	5
NMTAP	35	240	5
NMTAP	35	264	5
BRTAP	35	288	5
NMTTP	36	0	4	E	0	M1
NMTTP	36	48	3	E	0	M1
NMTTP	36	96	2	E	0	M1
NMTTP	36	144	1	E	0	M1
NMTTP	36	192	0	E	0	M1
NMTTP	36	240	7	E	0	M1
NMTTP	36	288	6	E	0	M1
NMTTP	36	336	5	E	0	M1
NMTTP	37	0	4	E	0	M1
NMTTP	37	0	4	D	0	M1
NMTTP	37	48	3	E	0	M1
NMTTP	37	48	3	D	0	M1
NMTTP	37	96	2	E	0	M1
NMTTP	37	96	2	D	0	M1
NMTTP	37	144	1	E	0	M1
NMTTP	37	144	1	D	0	M1
NMTTP	37	192	0	E	0	M1
NMTTP	37	192	0	D	0	M1
NMTTP	37	240	7	E	0	M1
NMTTP	37	240	7	D	0	M1
NMTHO	37	288	0	48	C	0	M1
NMTTP	37	288	6	E	0	M1
NMTTP	37	288	6	D	0	M1
NMHLD	38	0	6	24
NMHLD	38	0	7	24
NMHLD	38	48	6	24
NMHLD	38	48	7	24
NMHLD	38	96	4	24
NMHLD	38	96	5	24
NMHLD	38	144	4	24
NMHLD	38	144	5	24
NMHLD	38	192	2	24
NMHLD	38	192	3	24
NMHLD	38	240	2	24
NMHLD	38	240	3	24
NMHLD	38	288	0	24
NMHLD	38	288	1	24
NMHLD	38	336	0	24
NMHLD	38	336	1	24
NMHLD	39	0	2	24
NMHLD	39	0	7	24
NMHLD	39	48	1	24
NMHLD	39	48	6	24
NMTAP	39	96	0
BRSTR	39	96	5
NMSCR	39	96	5	96	96	3
NMTAP	39	144	0
NMTAP	39	144	5
NMTTP	39	192	0	C	1	M1
BRTAP	39	336	2
BRTAP	39	336	6
NMTAP	40	0	0
NMTAP	40	0	1
NMTAP	40	48	4
NMTAP	40	48	5
NMTAP	40	96	6
NMTAP	40	96	7
NMTAP	40	144	2
NMTAP	40	144	3
NMTAP	40	192	0
NMTAP	40	192	1
NMTAP	40	240	4
NMTAP	40	240	5
NMSTR	40	288	6
NMSI_	40	288	6	96	48	3
NMSTR	40	288	7
NMSI_	40	288	7	96	48	2
NMTAP	40	336	6
NMTAP	40	336	7
CNSI_	41	48	2	0	48	4
CNSI_	41	48	3	0	48	5
CNSI_	41	96	4	0	48	1
CNSI_	41	96	5	0	48	0
NMTAP	41	192	0
NMTAP	41	192	1
NMTAP	41	240	2
NMTAP	41	240	3
NMTAP	41	288	4
NMTAP	41	288	5
NMTAP	41	336	6
NMTAP	41	336	7
NMTAP	42	0	0
NMTAP	42	0	1
NMTAP	42	48	4
NMTAP	42	48	5
NMTAP	42	96	2
NMTAP	42	96	3
NMTAP	42	144	6
NMTAP	42	144	7
NMSTR	42	192	0
BRSI_	42	192	0	96	48	4
NMSTR	42	192	1
BRSI_	42	192	1	96	48	5
NMTAP	42	240	0
NMTAP	42	240	1
NMHLD	43	0	6	48
NMHLD	43	24	3	48
NMHLD	43	72	5	48
NMHLD	43	96	4	48
BRHLD	43	144	6	72
BRHLD	43	168	4	48
NMTAP	43	240	5
NMTAP	43	264	5
NMTAP	43	288	5
NMTAP	43	312	5
EXTAP	43	336	4
EXTAP	43	336	6
NMTAP	44	0	6
NMTAP	44	0	7
NMTAP	44	48	2
NMTAP	44	48	4
NMTAP	44	96	0
NMTAP	44	96	1
NMTAP	44	144	3
NMTAP	44	144	5
NMTAP	44	192	6
NMTAP	44	192	7
NMTAP	44	240	2
NMTAP	44	240	4
NMSTR	44	288	0
NMSI_	44	288	0	96	48	5
NMSTR	44	288	1
NMSI_	44	288	1	96	48	4
NMTAP	44	336	0
NMTAP	44	336	1
CNSI_	45	48	4	0	48	2
CNSI_	45	48	5	0	48	3
CNSI_	45	96	2	0	48	7
CNSI_	45	96	3	0	48	6
NMTAP	45	192	6
NMTAP	45	192	7
NMTAP	45	240	4
NMTAP	45	240	5
NMTAP	45	288	2
NMTAP	45	288	3
NMTAP	45	336	1
NMTAP	45	336	4
NMTAP	46	0	6
NMTAP	46	0	7
NMTAP	46	48	1
NMTAP	46	48	2
NMTAP	46	96	4
NMTAP	46	96	6
NMTAP	46	144	2
NMTAP	46	144	3
NMTAP	46	192	0
NMTAP	46	192	7
NMTAP	46	240	3
NMTAP	46	240	4
NMTTP	46	288	1	B	1	M1
NMTTP	46	288	1	A	0	M1
NMTTP	46	288	5	B	0	M1
NMTTP	46	288	5	A	0	M1
NMSTR	47	0	3
NMSI_	47	0	3	96	48	7
NMTAP	47	0	6
BRSTR	47	96	5
NMSV_	47	96	5	96	48	0
NMSTR	47	192	2
NMSI_	47	192	2	96	48	6
BRSTR	47	288	5
NMSI_	47	288	5	96	48	0
NMSTR	48	0	3
NMSI_	48	0	3	96	48	6
BRSTR	48	96	4
NMSV_	48	96	4	96	48	1
NMTAP	48	192	2
NMTAP	48	240	2
BRSTR	48	288	3
NMSF_	48	288	3	96	48	7
BRTAP	49	96	1
BRSTR	49	96	5
NMSI_	49	96	5	96	48	1
NMTAP	49	192	2
CNSI_	49	240	1	0	48	7
NMTAP	49	240	2
BRSTR	49	288	3
NMSCL	49	288	3	96	192	4
CNSI_	49	288	7	0	48	4
NMTAP	50	192	3
NMTAP	50	240	4
NMTAP	50	288	3
NMTAP	50	288	5
BRTAP	50	336	7
NMHLD	51	0	0	48
NMHLD	51	0	6	48
BRTAP	51	96	2
BRTAP	51	96	3
NMHLD	51	144	1	192
NMTAP	51	144	4
NMTAP	51	192	0
NMTAP	51	240	7
NMTAP	51	288	3
NMTAP	51	312	3
NMTAP	51	336	4
NMHLD	52	0	6	96
NMTAP	52	0	7
NMTAP	52	48	0
NMTAP	52	96	4
NMTAP	52	120	4
NMTAP	52	144	3
NMTAP	52	192	0
NMTAP	52	192	1
NMTAP	52	240	7
NMTAP	52	264	7
NMTAP	52	288	0
NMSTR	52	288	6
NMSI_	52	288	6	96	48	2
NMTAP	52	336	0
NMSTR	53	0	7
NMSI_	53	0	7	96	48	3
BRSTR	53	96	0
NMSV_	53	96	0	96	48	5
NMSTR	53	192	1
NMSLR	53	192	1	96	96	7
BRTAP	53	288	3
NMHLD	54	0	6	240
NMHLD	54	192	7	48
NMTAP	54	288	2
NMTAP	54	288	5
NMTAP	54	336	2
NMTAP	54	336	5
NMTAP	55	0	3
NMTAP	55	12	4
NMTAP	55	24	3
NMTAP	55	36	4
NMTAP	55	48	3
NMTAP	55	60	4
NMTAP	55	72	3
NMTAP	55	84	4
NMTAP	55	96	3
NMTAP	55	108	4
NMTAP	55	120	3
NMTAP	55	132	4
NMTAP	55	144	3
NMTAP	55	156	4
NMTAP	55	168	3
NMTAP	55	180	4
NMTAP	55	192	2
NMTAP	55	204	5
NMTAP	55	216	2
NMTAP	55	228	5
NMTAP	55	240	2
NMTAP	55	252	5
NMTAP	55	264	2
NMTAP	55	276	5
NMTAP	55	288	1
NMTAP	55	300	6
NMTAP	55	312	1
NMTAP	55	324	6
NMTAP	55	336	1
NMTAP	55	348	6
NMTAP	55	360	1
NMTAP	55	372	6
NMTAP	56	0	0
NMTAP	56	12	7
NMTAP	56	24	0
NMTAP	56	36	7
NMTAP	56	48	0
NMTAP	56	60	7
NMTAP	56	72	0
NMTAP	56	84	7
NMTAP	56	96	0
NMTAP	56	108	7
NMTAP	56	120	0
NMTAP	56	132	7
NMTAP	56	144	0
BRTAP	56	192	3
BRTAP	56	192	5
BRTAP	56	216	2
BRTAP	56	216	6

T_REC_TAP	279
T_REC_BRK	19
T_REC_XTP	4
T_REC_BXX	0
T_REC_HLD	77
T_REC_XHO	1
T_REC_BHO	11
T_REC_BXH	2
T_REC_STR	27
T_REC_BST	16
T_REC_XST	0
T_REC_XBS	0
T_REC_TTP	40
T_REC_THO	3
T_REC_SLD	40
T_REC_BSL	3
T_REC_ALL	522
T_NUM_TAP	350
T_NUM_BRK	51
T_NUM_HLD	81
T_NUM_SLD	40
T_NUM_ALL	522
T_JUDGE_TAP	385
T_JUDGE_HLD	378
T_JUDGE_SLD	43
T_JUDGE_ALL	806
TTM_EACHPAIRS	111
TTM_SCR_TAP	175000
TTM_SCR_BRK	132600
TTM_SCR_HLD	81000
TTM_SCR_SLD	60000
TTM_SCR_ALL	448600
TTM_SCR_S	430200
TTM_SCR_SS	443500
TTM_RAT_ACV	10114

