VERSION	0.00.00	1.04.00
FES_MODE	0
BPM_DEF	150.000	150.000	150.000	150.000
MET_DEF	4	4
RESOLUTION	384
CLK_DEF	384
COMPATIBLE_CODE	MA2

BPM	0	0	150.000
MET	0	0	4	4

NMHLD	1	0	2	720
EXTAP	1	0	4
NMTAP	1	96	4
NMTAP	1	192	4
NMTAP	1	288	4
NMHLD	2	0	3	48
NMHLD	2	96	3	48
NMHLD	2	192	4	48
NMHLD	2	288	4	48
EXTAP	3	0	3
NMHLD	3	0	5	672
NMTAP	3	96	3
NMTAP	3	192	3
NMTAP	3	288	3
NMHLD	4	0	4	48
NMHLD	4	96	4	48
NMHLD	4	192	3	48
NMTAP	4	288	3
EXTAP	4	336	6
NMHLD	5	0	2	672
BRTAP	5	0	5
NMTAP	5	96	5
NMTAP	5	192	4
NMTAP	5	288	4
NMHLD	6	0	3	48
NMHLD	6	96	4	48
NMHLD	6	192	3	48
NMSTR	6	288	4
NMSCR	6	288	4	96	160	2
EXTAP	7	0	3
NMTAP	7	96	3
CNSCL	7	160	2	0	176	4
NMTAP	7	192	3
NMTAP	7	288	2
NMHLD	7	336	2	96
NMTAP	8	48	3
NMTAP	8	120	0
NMTAP	8	120	7
NMTAP	8	192	4
NMTAP	8	192	6
NMTAP	8	264	3
NMTAP	8	264	4
NMTAP	8	336	1
NMTAP	8	336	3
NMHLD	9	0	1	288
NMSTR	9	0	3
NMSLR	9	0	3	96	128	0
NMTAP	9	288	0
NMSTR	10	0	0
NMSI_	10	0	0	96	48	5
NMHLD	10	0	2	288
CNSI_	10	144	5	0	80	3
NMTAP	10	288	3
NMTAP	10	336	4
NMSTR	11	0	3
NMSCL	11	0	3	96	48	1
NMHLD	11	0	5	288
CNSI_	11	144	1	0	80	7
NMTAP	11	288	7
NMHLD	12	0	5	288
NMSTR	12	0	7
NMSI_	12	0	7	96	48	1
CNSCR	12	144	1	0	80	3
NMTAP	12	288	3
EXTAP	12	336	7
NMHLD	13	0	4	48
NMHLD	13	0	6	48
NMHLD	13	72	3	48
NMHLD	13	72	5	48
NMHLD	13	144	2	48
NMHLD	13	144	4	48
NMHLD	13	216	1	48
NMHLD	13	216	3	48
NMHLD	13	288	0	48
NMHLD	13	288	4	48
NMHLD	13	360	1	48
NMHLD	13	360	5	48
NMHLD	14	48	2	48
NMHLD	14	48	6	48
NMHLD	14	120	3	48
NMHLD	14	120	7	48
NMHLD	14	192	2	48
NMHLD	14	192	6	48
NMHLD	14	264	1	48
NMHLD	14	264	5	48
NMTAP	14	336	1
NMTAP	14	336	5
NMTAP	15	0	2
NMTAP	15	24	2
NMTAP	15	48	4
NMTAP	15	72	4
NMTAP	15	96	3
NMTAP	15	120	3
NMTAP	15	144	5
NMTAP	15	168	5
NMTAP	15	192	0
NMTAP	15	216	0
NMTAP	15	240	6
NMTAP	15	264	6
NMTAP	15	288	1
NMTAP	15	312	1
NMTAP	15	336	7
NMTAP	15	360	7
NMTAP	16	0	0
NMTAP	16	12	1
NMTAP	16	24	2
NMTAP	16	36	3
NMTAP	16	48	4
NMTAP	16	60	5
NMTAP	16	72	6
NMTAP	16	84	7
NMTAP	16	96	0
NMTAP	16	108	1
NMTAP	16	120	2
NMTAP	16	132	3
NMTAP	16	144	4
NMTAP	16	156	5
NMTAP	16	168	6
NMTAP	16	180	7
NMSTR	16	192	0
NMSCR	16	192	0	96	48	3
NMSTR	16	192	4
NMSV_	16	192	4	96	48	7
NMTAP	17	0	6
NMTAP	17	24	4
NMTAP	17	48	6
NMTAP	17	72	4
NMTAP	17	96	5
NMTAP	17	120	3
NMTAP	17	144	5
NMTAP	17	168	3
NMTAP	17	192	4
NMTAP	17	216	3
NMTAP	17	240	5
NMTAP	17	264	4
EXHLD	17	288	6	96
NMTAP	18	0	3
NMTAP	18	24	5
NMTAP	18	48	3
NMTAP	18	72	5
NMTAP	18	96	2
NMTAP	18	120	4
NMTAP	18	144	2
NMTAP	18	168	4
NMTAP	18	192	3
NMTAP	18	216	4
NMTAP	18	240	2
NMTAP	18	264	3
EXTAP	18	288	1
EXTAP	18	336	1
NMTAP	19	0	2
NMTAP	19	24	3
NMTAP	19	48	2
NMTAP	19	72	3
NMTAP	19	96	1
NMTAP	19	120	4
NMTAP	19	144	1
NMTAP	19	168	4
NMTAP	19	192	2
NMTAP	19	216	3
NMTAP	19	240	1
NMTAP	19	264	4
EXHLD	19	288	2	96
NMTAP	20	0	3
NMTAP	20	24	2
NMTAP	20	48	3
NMTAP	20	72	2
NMTAP	20	96	4
NMTAP	20	120	3
NMTAP	20	144	4
NMTAP	20	168	3
NMTAP	20	192	5
NMTAP	20	216	4
NMTAP	20	240	6
NMTAP	20	264	3
NMTAP	20	288	7
EXTAP	20	336	0
EXTAP	20	336	6
NMTAP	21	0	1
NMTAP	21	24	3
NMTAP	21	48	1
NMTAP	21	72	3
NMTAP	21	96	2
NMTAP	21	120	4
NMTAP	21	144	2
NMTAP	21	168	4
NMTAP	21	192	1
NMTAP	21	216	3
NMTAP	21	240	2
NMTAP	21	264	4
EXHLD	21	288	1	96
NMTAP	22	0	4
NMTAP	22	24	2
NMTAP	22	48	4
NMTAP	22	72	2
NMTAP	22	96	5
NMTAP	22	120	3
NMTAP	22	144	5
NMTAP	22	168	3
NMTAP	22	192	4
NMTAP	22	216	2
NMTAP	22	240	5
NMTAP	22	264	3
EXTAP	22	288	6
EXTAP	22	336	6
NMTAP	23	0	5
NMTAP	23	24	4
NMTAP	23	48	5
NMTAP	23	72	4
NMTAP	23	96	6
NMTAP	23	120	3
NMTAP	23	144	6
NMTAP	23	168	3
NMTAP	23	192	5
NMTAP	23	216	4
NMTAP	23	240	6
NMTAP	23	264	3
EXHLD	23	288	5	96
NMTAP	24	0	7
NMTAP	24	24	6
NMTAP	24	48	7
NMTAP	24	72	6
NMTAP	24	96	1
NMTAP	24	120	0
NMTAP	24	144	1
NMTAP	24	168	0
NMSTR	24	192	2
BRSI_	24	192	2	96	48	0
NMTAP	24	216	3
NMTAP	24	240	1
EXTAP	24	288	2
EXTAP	24	288	4
NMTAP	25	0	1
NMTAP	25	24	3
NMTAP	25	48	1
NMTAP	25	72	3
NMTAP	25	96	2
NMTAP	25	120	3
NMTAP	25	144	2
NMTAP	25	168	3
NMTAP	25	192	4
NMTAP	25	216	3
NMTAP	25	240	4
NMTAP	25	264	3
EXHLD	25	288	2	96
NMTAP	26	0	5
NMTAP	26	24	3
NMTAP	26	48	5
NMTAP	26	72	3
NMTAP	26	96	4
NMTAP	26	120	3
NMTAP	26	144	4
NMTAP	26	168	3
NMTAP	26	192	2
NMTAP	26	216	3
NMTAP	26	240	2
NMTAP	26	264	3
EXTAP	26	288	4
EXTAP	26	336	3
EXTAP	26	336	5
NMTAP	27	0	2
NMTAP	27	24	4
NMTAP	27	48	2
NMTAP	27	72	4
NMTAP	27	96	2
NMTAP	27	120	3
NMTAP	27	144	2
NMTAP	27	168	3
NMTAP	27	192	2
NMTAP	27	216	1
NMTAP	27	240	2
NMTAP	27	264	1
NMTAP	27	288	2
NMTAP	27	336	1
NMTAP	27	336	3
NMTAP	28	0	0
NMTAP	28	24	4
NMTAP	28	48	1
NMTAP	28	72	3
NMTAP	28	96	2
NMTAP	28	120	4
NMTAP	28	144	3
NMTAP	28	168	5
NMTAP	28	192	4
NMTAP	28	216	6
NMTAP	28	240	3
NMTAP	28	264	7
NMTAP	28	288	2
EXTAP	28	336	0
EXTAP	28	336	6
BRTAP	29	0	4
NMTAP	29	24	2
NMTAP	29	48	3
NMTAP	29	72	2
NMTAP	29	96	1
NMTAP	29	120	2
NMTAP	29	144	1
NMTAP	29	168	2
NMTAP	29	192	3
NMTAP	29	216	2
NMTAP	29	240	4
NMTAP	29	264	2
NMTAP	29	288	3
NMTAP	29	336	1
NMTAP	29	336	4
BRTAP	30	0	2
NMTAP	30	24	5
NMTAP	30	48	3
NMTAP	30	72	5
NMTAP	30	96	4
NMTAP	30	120	5
NMTAP	30	144	6
NMTAP	30	168	5
NMTAP	30	192	6
NMTAP	30	216	5
NMTAP	30	240	4
NMTAP	30	264	5
NMTAP	30	288	3
NMTAP	30	336	2
NMTAP	30	336	4
EXTAP	31	0	1
NMTAP	31	24	3
NMTAP	31	48	2
NMTAP	31	72	3
NMTAP	31	96	4
NMTAP	31	120	3
NMTAP	31	144	4
NMTAP	31	168	3
EXTAP	31	192	1
NMTAP	31	216	3
NMTAP	31	240	2
NMTAP	31	264	3
NMTAP	31	288	1
NMSTR	31	336	0
NMSI_	31	336	0	96	48	4
NMTAP	31	336	4
BRSTR	32	48	0
NMSCL	32	48	0	96	48	5
BRSTR	32	144	0
NMSCR	32	144	0	96	48	3
BRTAP	32	240	0
BRTAP	32	336	4
BRTAP	32	336	7
NMHLD	33	0	3	24
NMHLD	33	0	6	24
NMHLD	33	48	3	24
NMHLD	33	48	6	24
NMTAP	33	96	4
NMTAP	33	96	5
NMTAP	33	144	3
NMTAP	33	168	3
NMSTR	33	192	5
NMSI_	33	192	5	96	48	3
NMTAP	33	216	1
NMTAP	33	264	1
NMTAP	33	288	5
NMTAP	33	336	2
NMTAP	34	0	1
NMTAP	34	0	4
NMTAP	34	48	1
NMTAP	34	48	4
NMTAP	34	96	2
NMTAP	34	96	3
NMTAP	34	144	5
NMTAP	34	168	4
NMSTR	34	192	6
NMSI_	34	192	6	96	48	3
NMTAP	34	216	3
NMTAP	34	264	3
NMTAP	34	288	2
NMTAP	34	288	6
NMHLD	35	0	1	24
NMHLD	35	0	4	24
NMHLD	35	48	1	24
NMHLD	35	48	4	24
NMTAP	35	96	2
NMTAP	35	96	3
NMTAP	35	144	4
NMTAP	35	168	4
NMSTR	35	192	2
NMSI_	35	192	2	96	48	4
NMTAP	35	216	6
NMTAP	35	264	6
NMTAP	35	288	2
NMTAP	35	336	5
NMTAP	36	0	3
NMTAP	36	0	6
NMTAP	36	48	3
NMTAP	36	48	6
NMTAP	36	96	4
NMTAP	36	96	5
NMTAP	36	144	2
NMTAP	36	168	3
NMSTR	36	192	1
NMSI_	36	192	1	96	48	5
NMTAP	36	216	4
NMTAP	36	264	4
NMTAP	36	288	1
EXTAP	36	336	7
NMHLD	37	0	4	24
NMHLD	37	0	6	24
NMHLD	37	48	4	24
NMHLD	37	48	6	24
NMTAP	37	96	3
NMTAP	37	96	5
NMTAP	37	144	6
NMTAP	37	168	4
NMSTR	37	192	7
NMSCL	37	192	7	96	48	4
NMTAP	37	216	2
NMTAP	37	264	2
NMTAP	37	288	7
NMTAP	37	336	0
NMTAP	38	0	1
NMTAP	38	0	3
NMTAP	38	48	1
NMTAP	38	48	3
NMTAP	38	96	2
NMTAP	38	96	4
NMTAP	38	144	5
NMTAP	38	168	4
NMSTR	38	192	6
NMSI_	38	192	6	96	48	2
NMTAP	38	216	3
NMTAP	38	264	3
NMTAP	38	288	2
NMTAP	38	288	6
NMHLD	39	0	1	24
NMHLD	39	0	3	24
NMHLD	39	48	1	24
NMHLD	39	48	3	24
NMTAP	39	96	2
NMTAP	39	96	4
NMTAP	39	144	1
NMTAP	39	168	3
NMSTR	39	192	0
NMSCR	39	192	0	96	48	3
NMTAP	39	216	5
NMTAP	39	264	5
NMTAP	39	288	0
NMSTR	39	336	7
NMSI_	39	336	7	96	48	5
BRSTR	40	48	4
NMSI_	40	48	4	96	48	0
NMTAP	40	48	7
BRSTR	40	144	1
NMSI_	40	144	1	96	48	3
NMTAP	40	144	4
NMTAP	40	240	1
BRTAP	40	240	7
EXTAP	40	336	5
BRTAP	41	0	4
BRTAP	41	0	6
NMTAP	41	96	2
NMTAP	41	120	3
NMTAP	41	144	1
NMTAP	41	168	3
NMSTR	41	192	2
NMSI_	41	192	2	96	48	7
NMTAP	41	216	4
NMTAP	41	264	4
NMTAP	41	288	2
NMTAP	41	336	3
CNSI_	41	336	7	0	48	1
NMHLD	42	0	3	48
NMHLD	42	48	2	48
NMTAP	42	96	4
NMTAP	42	144	5
NMTAP	42	168	4
NMSTR	42	192	6
NMSI_	42	192	6	96	48	3
NMTAP	42	216	3
NMTAP	42	264	3
NMTAP	42	288	6
NMTAP	42	336	0
CNSI_	42	336	3	0	48	5
BRTAP	43	0	0
NMTAP	43	96	5
NMTAP	43	120	4
NMTAP	43	144	6
NMTAP	43	168	4
NMSTR	43	192	5
NMSI_	43	192	5	96	48	0
NMTAP	43	216	3
NMTAP	43	264	3
NMTAP	43	288	5
CNSI_	43	336	0	0	48	6
NMTAP	43	336	4
NMHLD	44	0	4	48
NMHLD	44	48	5	48
NMTAP	44	96	3
NMTAP	44	144	2
NMTAP	44	168	3
NMSTR	44	192	1
NMSI_	44	192	1	96	48	4
NMTAP	44	216	4
NMTAP	44	264	4
NMTAP	44	288	1
CNSI_	44	336	4	0	48	2
EXTAP	44	336	7
BRTAP	45	0	7
NMTAP	45	96	2
NMTAP	45	120	3
NMTAP	45	144	1
NMTAP	45	168	3
NMSTR	45	192	2
NMSI_	45	192	2	96	48	7
NMTAP	45	216	4
NMTAP	45	264	4
NMTAP	45	288	2
NMTAP	45	336	3
CNSI_	45	336	7	0	48	1
BRTAP	46	0	5
NMTAP	46	48	5
NMTAP	46	96	0
NMTAP	46	96	5
NMTAP	46	144	6
NMTAP	46	168	7
NMSTR	46	192	5
NMSI_	46	192	5	96	48	0
NMTAP	46	216	4
NMTAP	46	264	4
NMTAP	46	288	5
CNSI_	46	336	0	0	48	6
EXTAP	46	336	1
BRHLD	47	0	3	96
NMTAP	47	96	6
NMTAP	47	120	4
NMTAP	47	144	5
NMTAP	47	168	4
BRHLD	47	192	7	96
NMTAP	47	288	0
NMTAP	47	312	0
NMSTR	47	336	1
NMSI_	47	336	1	96	48	5
NMTAP	47	336	7
NMTAP	48	48	1
BRSTR	48	48	4
NMSI_	48	48	4	96	48	0
BRSTR	48	144	3
NMSI_	48	144	3	96	48	7
NMTAP	48	144	4
NMTAP	48	240	3
BRTAP	48	240	6
BRTAP	48	336	0
BRTAP	48	336	4
EXTAP	49	0	0
EXTAP	49	0	4
NMTAP	49	48	2
NMTAP	49	72	1
NMTAP	49	72	3
NMTAP	49	120	5
NMTAP	49	144	4
NMTAP	49	144	6
NMTAP	49	192	3
NMTAP	49	208	4
NMTAP	49	224	2
NMHLD	49	240	3	48
NMTAP	49	288	1
NMTAP	49	320	1
NMTAP	49	352	1
NMTHO	50	0	0	1536	C	0	M1
NMSTR	50	0	1
NMSCL	50	0	1	96	288	5
CNSUR	51	0	5	0	288	3
NMSTR	52	0	2
NMSCR	52	0	2	96	288	6
CNSUL	53	0	6	0	288	0
NMTTP	54	0	7	B	0	M1
NMTTP	54	0	7	A	0	M1
NMTTP	54	96	1	B	0	M1
NMTTP	54	96	1	A	0	M1
EXHLD	54	192	0	96
NMTTP	54	192	6	B	0	M1
NMTTP	54	192	6	A	0	M1
NMTTP	54	288	4	B	0	M1
NMTTP	54	288	4	A	0	M1
EXHLD	55	0	1	96
NMTTP	55	0	5	B	0	M1
NMTTP	55	0	5	A	0	M1
NMTTP	55	96	3	B	0	M1
NMTTP	55	96	3	A	0	M1
EXHLD	55	192	0	96
NMTTP	55	192	4	B	0	M1
NMTTP	55	192	4	A	0	M1
NMTTP	55	288	2	B	0	M1
NMTTP	55	288	2	A	0	M1
EXTAP	56	0	0
NMTTP	56	0	5	B	0	M1
NMTTP	56	0	5	E	0	M1
NMTAP	56	48	0
EXTAP	56	96	0
NMTTP	56	96	2	B	0	M1
NMTTP	56	96	3	E	0	M1
NMTAP	56	144	0
EXTAP	56	192	0
NMTTP	56	192	6	B	0	M1
NMTTP	56	192	6	E	0	M1
NMTAP	56	240	0
EXTAP	56	288	0
NMTTP	56	288	0	C	0	M1
NMTAP	56	336	0
NMTAP	56	360	7
NMTAP	57	0	0
NMTAP	57	24	7
NMTAP	57	48	1
NMTAP	57	72	6
NMTAP	57	96	2
NMTAP	57	120	5
NMTAP	57	144	3
NMTAP	57	168	4
NMTAP	57	192	2
NMTAP	57	216	3
NMTAP	57	240	1
NMTAP	57	264	4
NMTAP	57	288	0
NMTAP	57	312	5
NMTAP	57	336	7
NMTAP	57	360	6
NMTAP	58	0	0
NMTAP	58	24	0
NMTAP	58	48	6
NMTAP	58	60	5
NMHLD	58	72	4	24
NMTAP	58	120	0
NMTAP	58	132	1
NMHLD	58	144	2	24
NMTAP	58	192	7
NMTAP	58	204	6
NMHLD	58	212	5	28
NMTAP	58	264	1
NMTAP	58	276	2
NMHLD	58	288	3	24
NMTAP	58	336	2
NMTAP	58	336	4
NMTAP	58	348	5
NMTAP	58	360	6
NMTAP	58	372	7
NMHLD	59	0	0	144
NMHLD	59	0	4	144
NMSTR	59	192	0
NMSI_	59	192	0	96	48	5
NMSTR	59	192	4
NMSI_	59	192	4	96	48	1
NMSTR	60	0	2
NMSI_	60	0	2	96	48	7
BRTAP	60	0	6
NMTAP	60	48	3
NMTAP	60	48	5
NMSTR	60	96	2
NMSI_	60	96	2	96	48	4
NMTAP	60	120	4
NMTAP	60	168	4
NMSTR	60	192	2
NMSCL	60	192	2	96	48	7
NMTAP	60	240	6
NMTAP	60	288	2
NMTAP	60	312	4
NMTAP	60	360	4
NMTAP	61	0	1
NMTAP	61	48	2
NMTAP	61	48	6
NMSTR	61	96	7
NMSI_	61	96	7	96	48	5
NMTAP	61	120	4
NMTAP	61	168	4
NMSTR	61	192	7
NMSI_	61	192	7	96	48	3
NMTAP	61	240	2
NMSTR	61	288	7
NMSCL	61	288	7	96	48	4
NMTAP	61	312	4
NMTAP	61	360	4
BRTAP	62	0	7
NMTAP	62	48	2
NMSTR	62	96	1
NMSI_	62	96	1	96	48	4
NMTAP	62	120	3
NMTAP	62	168	3
NMSTR	62	192	1
NMSI_	62	192	1	96	48	7
NMTAP	62	240	6
NMSTR	62	288	1
NMSI_	62	288	1	96	48	4
NMTAP	62	312	3
NMTAP	62	360	3
NMTAP	63	0	1
NMTAP	63	48	6
NMTAP	63	96	6
NMTAP	63	120	4
NMTAP	63	144	5
NMTAP	63	168	4
NMTAP	63	192	7
NMTAP	63	216	3
NMTAP	63	240	4
NMTAP	63	264	3
NMTAP	63	288	6
NMTAP	63	312	2
NMTAP	63	336	3
NMTAP	63	360	2
BRSTR	64	0	5
NMSI_	64	0	5	96	48	0
NMTAP	64	48	1
NMTAP	64	48	4
NMSTR	64	96	5
NMSI_	64	96	5	96	48	3
NMTAP	64	120	3
NMTAP	64	168	3
NMSTR	64	192	5
NMSCR	64	192	5	96	48	0
NMTAP	64	240	1
NMTAP	64	288	5
NMTAP	64	312	3
NMTAP	64	360	3
NMTAP	65	0	6
NMTAP	65	48	1
NMTAP	65	48	5
NMSTR	65	96	0
NMSI_	65	96	0	96	48	2
NMTAP	65	120	3
NMTAP	65	168	3
NMSTR	65	192	0
NMSI_	65	192	0	96	48	4
NMTAP	65	240	5
NMSTR	65	288	0
NMSCR	65	288	0	96	48	3
NMTAP	65	312	3
NMTAP	65	360	3
BRTAP	66	0	0
NMTAP	66	48	5
NMSTR	66	96	6
BRSCL	66	96	6	96	48	3
NMTAP	66	120	7
NMTAP	66	168	7
BRTAP	66	192	6
NMTAP	66	240	0
NMTAP	66	288	2
NMTAP	66	312	3
NMTAP	66	336	2
NMTAP	66	360	3
BRTAP	67	0	0
NMTAP	67	24	3
NMTAP	67	48	2
NMTAP	67	72	4
BRTAP	67	96	0
NMTAP	67	120	5
NMTAP	67	144	4
NMTAP	67	168	6
BRTAP	67	192	0
NMTAP	67	216	7
NMTAP	67	240	1
NMTAP	67	264	6
BRSTR	67	288	2
NMSLL	67	288	2	96	96	5
BRSTR	67	288	5
BRSI_	67	288	5	96	48	3
NMSTR	68	0	5
NMSLR	68	0	5	96	96	2
NMSTR	68	96	3
BRSI_	68	96	3	96	48	0
NMSTR	68	192	3
NMSXR	68	192	3	96	288	0
EXTAP	68	288	0
NMTAP	69	0	7
NMSTR	69	96	6
BRSCL	69	96	6	96	48	3
EXTAP	69	192	6
NMSTR	69	288	2
NMSLR	69	288	2	96	96	6
NMSTR	69	288	6
BRSI_	69	288	6	96	48	3
BRSTR	70	0	6
NMSLR	70	0	6	96	96	2
NMSTR	70	96	3
BRSI_	70	96	3	96	48	7
NMTAP	70	192	3
NMSTR	70	288	2
NMSCL	70	288	2	96	48	7
NMSTR	70	288	7
BRSCL	70	288	7	96	48	4
NMTAP	71	0	2
NMTAP	71	0	7
NMHLD	71	96	4	32
NMTAP	71	128	7
NMTAP	71	144	0
NMTAP	71	160	1
NMTAP	71	176	2
BRTAP	71	192	3
BRTAP	71	192	7
BRTAP	71	252	1
BRTAP	71	252	5
BRTAP	71	312	3
BRTAP	71	312	4
BRSTR	72	0	2
BRSI_	72	0	2	96	48	4
BRSTR	72	0	5
NMSLR	72	0	5	96	96	2
NMSTR	72	96	2
NMSLL	72	96	2	96	96	5
NMSTR	72	192	4
BRSI_	72	192	4	96	48	7
NMSTR	72	288	4
NMSXL	72	288	4	96	240	0
EXTAP	73	0	0
NMSTR	73	96	1
BRSI_	73	96	1	96	48	4
EXTAP	73	144	2
NMTAP	73	192	1
NMTAP	73	288	3
NMTAP	73	288	7
NMTAP	73	336	6
NMTAP	73	360	4
BRTAP	74	0	6
NMTAP	74	24	4
NMTAP	74	48	5
NMTAP	74	72	3
NMTAP	74	96	4
NMTAP	74	120	2
NMTAP	74	144	3
NMTAP	74	168	1
BRTAP	74	192	4
NMTAP	74	216	0
NMTAP	74	240	5
NMTAP	74	264	1
NMTAP	74	288	6
NMTAP	74	312	2
NMTAP	74	336	6
NMTAP	74	360	2
BRTAP	75	0	6
NMTAP	75	12	5
NMTAP	75	24	4
NMTAP	75	36	3
NMTAP	75	48	2
NMTAP	75	60	1
NMTAP	75	72	0
NMTAP	75	84	7
BXTAP	75	96	6
NMTAP	75	108	5
NMTAP	75	120	4
NMTAP	75	132	3
NMTAP	75	144	2
NMTAP	75	156	1
NMTAP	75	168	0
NMTAP	75	180	7
BRTAP	75	192	2
EXTAP	75	192	6
NMTAP	75	204	3
NMTAP	75	216	4
NMTAP	75	228	5
NMTAP	75	240	6
NMTAP	75	252	7
NMTAP	75	264	0
NMTAP	75	276	1
BXSTR	75	288	2
NMSI_	75	288	2	96	48	6
NMTAP	75	300	3
NMTAP	75	312	4
NMTAP	75	324	5
NMTAP	75	336	6
NMTAP	75	348	7
NMTAP	75	360	0
NMTAP	75	372	1
EXTAP	76	0	2
BXSTR	76	0	7
NMSI_	76	0	7	96	84	1
BRSCR	76	0	7	96	288	7
NMTTP	76	1	0	C	1	M1
CNSI_	76	180	1	0	72	3
CNSI_	76	252	3	0	72	5
CNSCR	77	0	7	0	48	0
CNSCR	77	48	0	0	48	1
CNSCR	77	96	1	0	48	2
CNSCR	77	144	2	0	48	3
CNSCR	77	192	3	0	48	4
CNSCR	77	240	4	0	48	5

T_REC_TAP	544
T_REC_BRK	32
T_REC_XTP	36
T_REC_BXX	1
T_REC_HLD	66
T_REC_XHO	8
T_REC_BHO	2
T_REC_BXH	0
T_REC_STR	56
T_REC_BST	12
T_REC_XST	0
T_REC_XBS	2
T_REC_TTP	24
T_REC_THO	1
T_REC_SLD	59
T_REC_BSL	12
T_REC_ALL	855
T_NUM_TAP	660
T_NUM_BRK	61
T_NUM_HLD	75
T_NUM_SLD	59
T_NUM_ALL	855
T_JUDGE_TAP	707
T_JUDGE_HLD	183
T_JUDGE_SLD	71
T_JUDGE_ALL	961
TTM_EACHPAIRS	87
TTM_SCR_TAP	330000
TTM_SCR_BRK	158600
TTM_SCR_HLD	75000
TTM_SCR_SLD	88500
TTM_SCR_ALL	652100
TTM_SCR_S	626650
TTM_SCR_SS	646000
TTM_RAT_ACV	10094

