VERSION	0.00.00	1.04.00
FES_MODE	0
BPM_DEF	150.000	150.000	150.000	150.000
MET_DEF	4	4
RESOLUTION	384
CLK_DEF	384
COMPATIBLE_CODE	MA2

BPM	0	0	150.000
MET	0	0	4	4

NMHLD	1	0	2	96
NMTAP	1	0	4
NMTAP	1	96	3
NMTAP	1	144	4
NMTAP	1	192	3
NMHLD	1	192	5	96
NMTAP	1	288	4
NMTAP	1	336	3
NMHLD	2	0	2	96
NMTAP	2	0	4
NMTAP	2	96	3
NMTAP	2	144	4
NMTAP	2	192	3
NMTAP	2	192	5
NMTAP	2	288	4
NMTAP	2	288	5
NMTAP	3	0	3
NMHLD	3	0	6	96
NMTAP	3	96	4
NMTAP	3	144	3
NMHLD	3	192	2	96
NMTAP	3	192	4
NMTAP	3	288	4
NMTAP	3	336	5
NMTAP	4	0	3
NMHLD	4	0	6	96
NMTAP	4	96	4
NMTAP	4	144	3
NMTAP	4	192	2
NMTAP	4	192	4
NMTAP	4	288	2
NMTAP	4	288	3
EXTAP	4	336	2
EXTAP	4	336	3
NMHLD	5	0	1	96
NMTAP	5	0	4
NMTAP	5	96	3
NMTAP	5	144	4
NMTAP	5	192	3
NMHLD	5	192	5	96
NMTAP	5	288	3
NMTAP	5	336	2
NMHLD	6	0	1	96
NMTAP	6	0	3
NMTAP	6	96	2
NMTAP	6	144	3
NMTAP	6	192	2
NMTAP	6	192	4
NMTAP	6	288	4
NMTAP	6	288	5
NMTAP	7	0	3
NMHLD	7	0	6	96
NMTAP	7	96	4
NMHLD	7	192	1	96
NMTAP	7	192	4
NMTAP	7	288	3
NMTAP	7	336	3
NMTAP	8	48	4
NMTAP	8	48	6
NMTAP	8	120	4
NMTAP	8	120	6
NMTAP	8	192	1
NMTAP	8	192	3
NMTAP	8	264	1
NMTAP	8	264	3
NMTAP	8	336	0
NMTAP	8	336	7
NMHLD	9	0	0	96
NMSTR	9	0	7
NMSI_	9	0	7	96	48	3
NMHLD	9	192	2	96
NMSTR	9	192	7
NMSI_	9	192	7	96	48	3
NMSTR	10	0	0
NMSI_	10	0	0	96	48	4
NMHLD	10	0	7	96
NMSTR	10	192	0
NMSI_	10	192	0	96	48	4
NMHLD	10	192	5	96
NMHLD	11	0	0	96
NMSTR	11	0	7
NMSI_	11	0	7	96	48	3
NMHLD	11	192	1	96
NMSTR	11	192	5
NMSI_	11	192	5	96	48	2
NMSTR	12	0	0
NMSI_	12	0	0	96	48	4
NMHLD	12	0	7	96
NMTAP	12	192	2
NMTAP	12	192	6
NMTAP	12	288	3
NMTAP	12	288	5
NMTAP	12	336	3
NMTAP	12	336	5
NMHLD	13	0	6	72
NMHLD	13	72	5	72
NMHLD	13	144	4	72
NMHLD	13	216	3	72
NMHLD	13	288	2	72
NMHLD	13	360	1	72
NMHLD	14	48	0	72
NMHLD	14	120	7	72
NMHLD	14	192	6	72
NMHLD	14	264	5	72
NMTAP	14	336	4
NMTAP	15	0	3
NMTAP	15	48	3
NMTAP	15	96	4
NMTAP	15	144	4
NMTAP	15	192	2
NMTAP	15	240	2
NMTAP	15	288	5
NMTAP	15	336	5
NMTAP	16	0	3
NMTAP	16	24	4
NMTAP	16	48	3
NMTAP	16	72	4
NMTAP	16	96	3
NMTAP	16	120	4
NMTAP	16	144	3
NMTAP	16	168	4
NMHLD	16	192	3	96
NMTTP	16	288	3	B	0	M1
NMTTP	16	288	4	B	0	M1
NMTTP	16	288	4	E	0	M1
NMSTR	17	0	5
NMSI_	17	0	5	96	48	2
NMSTR	17	96	0
NMSI_	17	96	0	96	48	4
NMHLD	17	192	6	96
NMTAP	17	288	3
NMSTR	18	0	2
NMSI_	18	0	2	96	48	6
NMSTR	18	96	5
NMSI_	18	96	5	96	48	2
NMHLD	18	192	0	96
NMTAP	18	288	7
NMSTR	19	0	6
NMSI_	19	0	6	96	48	1
NMSTR	19	96	2
NMSI_	19	96	2	96	48	5
NMHLD	19	192	7	96
NMTAP	19	288	3
NMSTR	20	0	2
NMSI_	20	0	2	96	48	7
NMSTR	20	96	6
NMSI_	20	96	6	96	48	3
NMTAP	20	192	0
NMTAP	20	240	0
NMTAP	20	288	4
EXTAP	20	336	4
NMSTR	21	0	2
NMSI_	21	0	2	96	48	5
NMSTR	21	96	7
NMSI_	21	96	7	96	48	3
NMHLD	21	192	1	96
NMTAP	21	288	4
NMSTR	22	0	5
NMSI_	22	0	5	96	48	1
NMSTR	22	96	2
NMSI_	22	96	2	96	48	5
NMHLD	22	192	7	96
NMTAP	22	288	0
NMSTR	23	0	1
NMSI_	23	0	1	96	48	6
NMSTR	23	96	5
NMSI_	23	96	5	96	48	2
NMHLD	23	192	0	96
NMTAP	23	288	4
NMSTR	24	0	5
NMSLR	24	0	5	96	192	3
NMHLD	24	96	2	192
NMSTR	25	0	5
NMSCL	25	0	5	96	48	2
NMSTR	25	96	0
NMSI_	25	96	0	96	48	4
NMHLD	25	192	6	96
NMTAP	25	288	3
NMSTR	26	0	2
NMSI_	26	0	2	96	48	6
NMSTR	26	96	5
NMSCL	26	96	5	96	48	2
NMHLD	26	192	0	96
NMTAP	26	288	7
NMSTR	27	0	6
NMSCR	27	0	6	96	48	1
NMSTR	27	96	2
NMSI_	27	96	2	96	48	5
NMHLD	27	192	7	96
NMTAP	27	288	3
NMSTR	28	0	2
NMSCL	28	0	2	96	48	7
NMSTR	28	96	6
NMSCL	28	96	6	96	48	3
NMTAP	28	192	0
NMTAP	28	240	0
NMTAP	28	288	4
EXTAP	28	336	4
NMSTR	29	0	2
NMSCR	29	0	2	96	48	5
NMSTR	29	96	7
NMSI_	29	96	7	96	48	3
NMHLD	29	192	1	96
NMTAP	29	288	4
NMSTR	30	0	5
NMSI_	30	0	5	96	48	1
NMSTR	30	96	2
NMSCR	30	96	2	96	48	5
NMHLD	30	192	7	96
NMTAP	30	288	0
NMSTR	31	0	1
NMSCL	31	0	1	96	48	6
NMSTR	31	96	5
NMSI_	31	96	5	96	48	2
NMHLD	31	192	0	96
NMSTR	31	288	7
NMSI_	31	288	7	96	48	1
CNSI_	32	48	1	0	48	6
CNSI_	32	96	6	0	48	2
CNSI_	32	144	2	0	48	5
CNSI_	32	192	5	0	144	3
EXTAP	33	0	1
EXTAP	33	0	5
NMSTR	33	96	7
NMSSR	33	96	7	96	144	3
NMTAP	33	288	2
NMTAP	34	0	1
NMTAP	34	48	1
NMTAP	34	96	3
NMTAP	34	144	2
NMTAP	34	192	6
NMTAP	34	240	6
NMTAP	34	288	4
NMTAP	34	336	5
NMHLD	35	0	3	48
NMHLD	35	0	6	48
NMSTR	35	96	4
NMSLL	35	96	4	96	96	0
NMTAP	35	96	5
NMTAP	35	288	7
NMHLD	36	0	6	48
NMHLD	36	0	7	48
NMHLD	36	96	4	48
NMHLD	36	96	5	48
NMHLD	36	192	2	48
NMHLD	36	192	3	48
NMHLD	36	288	0	48
NMHLD	36	288	1	48
NMTAP	37	0	2
NMTAP	37	0	6
NMSTR	37	96	0
NMSSL	37	96	0	96	144	4
NMTAP	37	288	5
NMTAP	38	0	6
NMTAP	38	48	6
NMTAP	38	96	4
NMTAP	38	144	5
NMTAP	38	192	1
NMTAP	38	240	1
NMTAP	38	288	3
NMTAP	38	336	2
NMHLD	39	0	1	48
NMHLD	39	0	4	48
NMTAP	39	96	2
NMSTR	39	96	3
NMSLR	39	96	3	96	96	7
NMSTR	39	288	0
NMSI_	39	288	0	96	48	6
CNSI_	40	48	6	0	48	1
CNSI_	40	96	1	0	48	5
CNSI_	40	144	5	0	48	2
CNSI_	40	192	2	0	144	4
NMHLD	41	0	6	192
NMTTP	41	96	5	E	0	M1
NMHLD	41	192	2	192
NMTTP	41	288	3	B	0	M1
NMHLD	42	0	5	192
NMTTP	42	96	4	B	0	M1
NMHLD	42	192	1	192
NMTTP	42	288	3	E	0	M1
NMHLD	43	0	6	192
NMTTP	43	96	5	B	0	M1
NMTTP	43	96	5	E	0	M1
NMHLD	43	192	2	192
NMTTP	43	288	3	B	0	M1
NMTTP	43	288	3	E	0	M1
NMHLD	44	0	5	192
NMTTP	44	96	4	B	0	M1
NMTTP	44	96	5	E	0	M1
NMHLD	44	192	1	192
NMTTP	44	288	2	B	0	M1
NMTTP	44	288	3	E	0	M1
NMHLD	45	0	7	192
NMTTP	45	96	4	B	0	M1
NMTTP	45	96	5	B	0	M1
NMTTP	45	96	5	E	0	M1
NMHLD	45	192	0	192
NMTTP	45	288	2	B	0	M1
NMTTP	45	288	3	B	0	M1
NMTTP	45	288	3	E	0	M1
NMHLD	46	0	5	192
NMTTP	46	96	6	B	0	M1
NMTTP	46	96	7	B	0	M1
NMTTP	46	96	7	E	0	M1
NMHLD	46	192	2	192
NMTTP	46	288	0	B	0	M1
NMTTP	46	288	1	B	0	M1
NMTTP	46	288	1	E	0	M1
NMHLD	47	0	4	192
NMTTP	47	96	0	B	0	M1
NMTTP	47	96	0	E	0	M1
NMTTP	47	96	7	B	0	M1
NMSTR	47	192	3
NMSUR	47	192	3	96	192	4
CNSCR	48	96	4	0	192	2
EXTAP	49	0	4
EXTAP	49	0	6
EXTAP	49	72	0
EXTAP	49	72	7
EXTAP	49	144	1
EXTAP	49	144	3
EXTAP	49	192	1
EXTAP	49	192	3
NMTAP	49	288	3
NMSTR	49	288	4
NMSI_	49	288	4	96	48	0
NMHLD	50	0	1	336
NMTAP	50	336	3
NMHLD	51	0	3	336
NMTAP	51	336	4
NMHLD	52	0	4	336
NMTAP	52	336	6
NMHLD	53	0	6	336
NMTAP	53	336	0
NMTAP	54	0	0
NMTAP	54	96	1
NMTAP	54	96	3
NMTAP	54	192	7
NMTAP	54	288	4
NMTAP	54	288	6
NMTAP	55	0	0
NMTAP	55	96	2
NMTAP	55	96	4
NMTAP	55	192	7
NMTAP	55	288	3
NMTAP	55	288	5
NMTAP	56	0	1
NMTAP	56	48	1
NMTAP	56	96	3
NMTAP	56	144	3
NMTAP	56	192	2
NMTAP	56	240	2
NMTAP	56	288	4
NMTAP	56	336	4
EXTAP	57	0	3
EXTAP	57	48	3
EXTAP	57	96	5
EXTAP	57	144	5
EXTAP	57	192	4
EXTAP	57	240	4
EXTAP	57	288	6
EXTAP	57	336	6
NMHLD	58	0	6	48
NMHLD	58	0	7	48
NMHLD	58	96	4	48
NMHLD	58	96	5	48
NMHLD	58	192	2	48
NMHLD	58	192	3	48
NMHLD	58	288	0	48
NMHLD	58	288	1	48
BRTAP	59	0	2
BRTAP	59	0	7
NMTAP	59	192	1
NMTAP	59	192	6
NMTTP	59	288	2	E	0	M1
NMTTP	59	288	2	A	0	M1
NMTTP	59	288	2	D	0	M1
NMTTP	59	288	5	A	0	M1
NMTTP	59	288	6	E	0	M1
NMTTP	59	288	6	D	0	M1
NMTAP	60	0	2
NMTAP	60	0	7
NMTAP	60	48	2
NMTAP	60	48	7
NMTAP	60	96	1
NMTAP	60	120	0
NMTAP	60	168	0
NMTAP	60	192	1
NMTAP	60	288	2
NMTAP	60	288	3
NMTAP	60	336	1
NMTAP	60	336	4
NMTAP	61	0	0
NMTAP	61	0	5
NMTAP	61	48	0
NMTAP	61	48	5
NMTAP	61	96	6
NMTAP	61	120	7
NMTAP	61	168	7
NMTAP	61	192	6
NMTAP	61	288	4
NMTAP	61	288	5
NMTAP	61	336	6
NMTAP	62	0	3
NMTAP	62	0	7
NMTAP	62	48	3
NMTAP	62	48	7
NMTAP	62	96	2
NMTAP	62	120	0
NMTAP	62	168	0
NMTAP	62	192	1
NMTAP	62	288	2
NMTAP	62	288	3
NMTAP	62	336	1
NMTAP	63	0	0
NMTAP	63	0	4
NMTAP	63	48	0
NMTAP	63	48	4
NMTAP	63	96	5
NMTAP	63	120	7
NMTAP	63	168	7
NMTAP	63	192	6
NMTAP	63	288	4
NMTAP	63	288	5
NMTAP	63	336	3
NMTAP	63	336	6
NMTAP	64	0	2
NMTAP	64	0	7
NMTAP	64	48	2
NMTAP	64	48	7
NMTAP	64	96	1
NMTAP	64	120	0
NMTAP	64	168	0
NMSTR	64	192	2
NMSI_	64	192	2	96	48	7
NMTAP	64	240	2
NMTAP	64	288	6
NMTAP	64	336	6
NMTAP	65	0	0
NMTAP	65	0	5
NMTAP	65	48	0
NMTAP	65	48	5
NMTAP	65	96	6
NMTAP	65	120	7
NMTAP	65	168	7
NMSTR	65	192	5
NMSI_	65	192	5	96	48	0
NMTAP	65	240	5
NMTAP	65	288	2
NMTAP	65	336	2
NMTAP	66	0	3
NMTAP	66	0	7
NMTAP	66	48	3
NMTAP	66	48	7
NMTAP	66	96	2
NMTAP	66	120	0
NMTAP	66	168	0
NMSTR	66	192	3
NMSI_	66	192	3	96	48	7
NMTAP	66	240	3
NMTAP	66	288	5
NMTAP	66	336	5
NMTAP	67	0	0
NMTAP	67	0	4
NMTAP	67	48	0
NMTAP	67	48	4
NMTAP	67	96	5
NMTAP	67	120	7
NMTAP	67	168	7
NMTAP	67	192	6
NMTAP	67	240	6
NMTAP	67	288	3
NMTAP	67	288	5
NMHLD	68	0	2	288
NMSTR	68	0	6
NMSLR	68	0	6	96	144	2
CNSV_	68	240	2	0	48	4
NMSTR	69	0	1
NMSLR	69	0	1	96	144	6
NMHLD	69	0	5	288
CNSV_	69	240	6	0	48	0
NMHLD	70	0	1	288
NMSTR	70	0	4
NMSI_	70	0	4	96	96	0
CNSLL	70	192	0	0	96	3
NMTAP	71	0	2
NMTAP	71	0	5
NMTTP	71	128	2	B	0	M1
NMTTP	71	128	3	B	0	M1
NMTTP	71	160	4	B	0	M1
NMTTP	71	160	5	B	0	M1
NMTTP	71	192	0	C	1	M1
NMSTR	72	0	0
NMSI_	72	0	0	96	48	5
NMSTR	72	0	1
NMSI_	72	0	1	96	48	4
EXTAP	72	192	3
EXTAP	72	192	6
NMTAP	72	288	6
NMTAP	72	288	7
NMSTR	73	0	4
NMSI_	73	0	4	96	48	1
NMSTR	73	0	5
NMSI_	73	0	5	96	48	0
EXTAP	73	192	2
EXTAP	73	192	7
NMTAP	73	288	2
NMTAP	73	288	3
NMTAP	74	0	1
NMTAP	74	48	1
NMTAP	74	96	3
NMTAP	74	144	3
NMTAP	74	192	4
NMTAP	74	240	4
NMTAP	74	288	6
NMTAP	74	336	6
NMTAP	75	0	0
NMTAP	75	24	7
NMTAP	75	48	0
NMTAP	75	72	7
NMTAP	75	96	0
NMTAP	75	120	7
NMTAP	75	144	0
NMTAP	75	168	7
NMTAP	75	192	1
NMTAP	75	216	6
NMTAP	75	240	1
NMTAP	75	264	6
BRSTR	75	288	0
NMSCR	75	288	0	96	672	7
NMTTP	76	0	0	C	1	M1

T_REC_TAP	257
T_REC_BRK	2
T_REC_XTP	26
T_REC_BXX	0
T_REC_HLD	82
T_REC_XHO	0
T_REC_BHO	0
T_REC_BXH	0
T_REC_STR	54
T_REC_BST	1
T_REC_XST	0
T_REC_XBS	0
T_REC_TTP	42
T_REC_THO	0
T_REC_SLD	55
T_REC_BSL	0
T_REC_ALL	519
T_NUM_TAP	379
T_NUM_BRK	3
T_NUM_HLD	82
T_NUM_SLD	55
T_NUM_ALL	519
T_JUDGE_TAP	382
T_JUDGE_HLD	204
T_JUDGE_SLD	55
T_JUDGE_ALL	641
TTM_EACHPAIRS	91
TTM_SCR_TAP	189500
TTM_SCR_BRK	7800
TTM_SCR_HLD	82000
TTM_SCR_SLD	82500
TTM_SCR_ALL	361800
TTM_SCR_S	350700
TTM_SCR_SS	361500
TTM_RAT_ACV	10008

