VERSION	0.00.00	1.04.00
FES_MODE	0
BPM_DEF	175.000	175.000	175.000	175.000
MET_DEF	4	4
RESOLUTION	384
CLK_DEF	384
COMPATIBLE_CODE	MA2

BPM	0	0	175.000
MET	0	0	4	4

NMTAP	1	192	3
NMTAP	1	192	5
NMTAP	1	264	2
NMTAP	1	264	4
NMTAP	1	336	1
NMTAP	1	336	3
NMSTR	2	0	1
NMSXL	2	0	1	96	288	5
NMTAP	2	0	3
NMSTR	3	0	6
NMSXR	3	0	6	96	288	2
NMSTR	4	0	1
NMSXR	4	0	1	96	288	4
NMSTR	5	0	6
NMSXL	5	0	6	96	288	3
NMSTR	6	0	2
NMSXL	6	0	2	96	288	0
NMSTR	7	0	5
NMSXR	7	0	5	96	288	7
NMSTR	8	0	0
NMSCR	8	0	0	96	288	7
CNSCL	9	0	7	0	288	0
EXTAP	10	0	0
NMTAP	10	24	1
NMTAP	10	48	2
NMTAP	10	72	3
NMTAP	10	96	4
NMTAP	10	120	5
NMTAP	10	144	6
NMTAP	10	168	7
EXTAP	10	192	1
NMTAP	10	216	2
NMTAP	10	240	3
NMTAP	10	264	4
NMTAP	10	288	5
NMTAP	10	312	6
NMTAP	10	336	7
NMTAP	10	360	0
EXTAP	11	0	7
NMTAP	11	24	6
NMTAP	11	48	5
NMTAP	11	72	4
NMTAP	11	96	3
NMTAP	11	120	2
NMTAP	11	144	1
NMTAP	11	168	0
NMSTR	11	192	7
NMSUL	11	192	7	96	48	3
NMTAP	11	288	1
NMTAP	11	288	7
NMTAP	12	0	2
NMTAP	12	24	2
NMTAP	12	48	2
NMTAP	12	96	5
NMTAP	12	120	5
NMTAP	12	144	5
NMTAP	12	192	3
NMTAP	12	216	3
NMTAP	12	240	3
NMTAP	12	288	4
NMTAP	12	312	4
NMTAP	12	336	4
NMTAP	13	0	2
NMTAP	13	24	2
NMTAP	13	48	2
NMTAP	13	96	3
NMTAP	13	144	4
NMTAP	13	192	4
NMTAP	13	192	5
NMTAP	13	240	6
NMTAP	13	288	7
NMTAP	13	336	0
NMTAP	14	0	6
NMTAP	14	24	6
NMTAP	14	48	6
NMTAP	14	96	1
NMTAP	14	120	1
NMTAP	14	144	1
NMTAP	14	192	7
NMTAP	14	216	7
NMTAP	14	240	7
NMTAP	14	288	0
NMTAP	14	312	0
NMTAP	14	336	0
NMTAP	15	0	6
NMTAP	15	24	6
NMTAP	15	48	6
NMTAP	15	96	7
NMTAP	15	144	0
NMTAP	15	192	0
NMTAP	15	192	1
NMTAP	15	240	2
NMTAP	15	288	3
NMTAP	15	336	3
NMTAP	16	0	2
NMTAP	16	24	4
NMTAP	16	48	2
NMTAP	16	72	4
NMTAP	16	96	2
NMTAP	16	120	4
NMTAP	16	144	2
NMTAP	16	168	4
NMTAP	16	192	1
NMTAP	16	216	4
NMTAP	16	240	1
NMTAP	16	264	4
NMTAP	16	288	1
NMTAP	16	312	4
NMTAP	16	336	1
NMTAP	16	360	4
NMTAP	17	0	1
NMTAP	17	24	3
NMTAP	17	48	1
NMTAP	17	72	3
NMTAP	17	96	1
NMTAP	17	120	3
NMTAP	17	144	1
NMTAP	17	168	3
NMTAP	17	192	0
NMTAP	17	216	3
NMTAP	17	240	0
NMTAP	17	264	3
NMTAP	17	288	0
NMTAP	17	312	3
NMTAP	17	336	0
NMTAP	17	360	3
NMTAP	18	0	0
NMTAP	18	96	0
NMTAP	18	96	3
NMTAP	18	120	0
NMTAP	18	120	3
NMTAP	18	192	4
NMTAP	18	192	7
NMTAP	18	216	4
NMTAP	18	216	7
NMTAP	18	288	6
NMTAP	18	312	5
NMTAP	18	336	6
NMTAP	18	360	5
NMTAP	19	0	7
NMTAP	19	24	4
NMTAP	19	48	7
NMTAP	19	72	4
NMTAP	19	96	0
NMTAP	19	120	3
NMTAP	19	144	0
NMTAP	19	168	3
NMTAP	19	192	1
NMTAP	19	216	2
NMTAP	19	240	1
NMTAP	19	264	2
NMTAP	19	288	0
NMTAP	19	312	3
NMTAP	19	336	0
NMTAP	19	360	3
BRTAP	20	0	0
NMTAP	20	96	0
NMSTR	20	96	7
NMSI_	20	96	7	96	96	3
CNSI_	20	288	3	0	96	0
NMSTR	21	0	1
NMSI_	21	0	1	96	96	5
CNSI_	21	192	5	0	96	2
CNSI_	21	288	2	0	96	6
NMSTR	22	0	4
NMSI_	22	0	4	96	96	0
CNSI_	22	192	0	0	96	3
CNSI_	22	288	3	0	96	7
NMSTR	23	0	2
NMSI_	23	0	2	96	96	6
CNSI_	23	192	6	0	96	1
CNSI_	23	288	1	0	96	5
NMSTR	24	0	7
NMSLL	24	0	7	96	144	2
CNSLR	24	240	2	0	144	0
NMSTR	25	0	1
NMSLL	25	0	1	96	144	4
CNSLR	25	240	4	0	144	2
NMSTR	26	0	3
NMSLL	26	0	3	96	144	6
CNSLR	26	240	6	0	144	4
NMTTP	27	0	3	A	0	M1
NMTTP	27	24	2	A	0	M1
NMTTP	27	48	1	A	0	M1
NMTTP	27	72	0	A	0	M1
NMTTP	27	96	7	A	0	M1
NMTTP	27	120	6	A	0	M1
NMTTP	27	144	5	A	0	M1
NMTTP	27	168	4	A	0	M1
NMTTP	27	192	3	A	0	M1
NMSTR	27	288	1
NMSI_	27	288	1	96	96	5
CNSI_	28	96	5	0	96	1
NMSTR	28	96	7
NMSI_	28	96	7	96	96	3
NMSTR	28	288	0
NMSI_	28	288	0	96	96	4
CNSI_	28	288	3	0	96	7
CNSI_	29	96	4	0	96	0
NMSTR	29	96	7
NMSI_	29	96	7	96	96	3
NMSTR	29	288	2
NMSI_	29	288	2	96	96	5
CNSI_	29	288	3	0	96	7
CNSI_	30	96	5	0	96	2
NMSTR	30	96	6
NMSI_	30	96	6	96	96	1
CNSI_	30	288	1	0	96	6
NMTTP	31	0	1	B	0	M1
NMTTP	31	0	1	A	0	M1
NMTTP	31	0	2	B	0	M1
NMTTP	31	0	3	E	0	M1
NMTTP	31	96	0	B	0	M1
NMTTP	31	96	1	E	0	M1
NMTTP	31	96	7	B	0	M1
NMTTP	31	96	7	A	0	M1
NMTTP	31	192	5	B	0	M1
NMTTP	31	192	5	A	0	M1
NMTTP	31	192	6	B	0	M1
NMTTP	31	192	7	E	0	M1
NMTTP	31	288	3	B	0	M1
NMTTP	31	288	3	A	0	M1
NMTTP	31	288	4	B	0	M1
NMTTP	31	288	5	E	0	M1
NMTTP	32	0	0	B	0	M1
NMTTP	32	0	0	C	1	M1
NMTTP	32	0	0	E	0	M1
NMTTP	32	0	0	D	0	M1
NMTTP	32	0	7	B	0	M1
NMHLD	32	288	0	48
NMTAP	33	0	1
NMTAP	33	0	3
NMTAP	33	48	5
NMSTR	33	96	7
NMSF_	33	96	7	96	96	3
NMTAP	33	144	3
BRTAP	34	0	0
NMTAP	34	24	3
NMTAP	34	48	0
NMTAP	34	72	3
NMTAP	34	96	0
NMTAP	34	120	3
NMTAP	34	144	0
NMTAP	34	168	3
NMTTP	34	192	2	E	0	M1
NMTAP	34	216	3
NMTAP	34	240	0
NMTAP	34	264	3
NMTAP	34	288	0
NMTAP	34	312	3
NMTAP	34	336	0
NMTAP	34	360	3
NMTAP	35	0	7
NMTAP	35	24	4
NMTAP	35	48	7
NMTAP	35	72	4
NMTAP	35	96	7
NMTAP	35	120	4
NMTAP	35	144	7
NMTAP	35	168	4
NMTTP	35	192	6	E	0	M1
NMTAP	35	216	4
NMTAP	35	240	7
NMTAP	35	264	4
NMTAP	35	288	7
NMTAP	35	312	4
NMTAP	35	336	7
NMTAP	35	360	4
NMTAP	36	0	0
NMTAP	36	24	3
NMTAP	36	48	0
NMTAP	36	72	3
NMTAP	36	96	0
NMTAP	36	120	3
NMTAP	36	144	0
NMTAP	36	168	3
NMTTP	36	192	2	E	0	M1
NMTAP	36	216	3
NMTAP	36	240	0
NMTAP	36	264	3
NMTAP	36	288	0
NMTAP	36	312	3
NMTAP	36	336	0
NMTAP	36	360	3
EXTAP	37	0	0
NMTAP	37	24	7
NMTAP	37	48	6
NMTAP	37	72	5
EXTAP	37	96	4
NMTAP	37	120	3
NMTAP	37	144	2
NMTAP	37	168	1
EXSTR	37	192	0
NMSI_	37	192	0	96	48	4
EXTAP	37	288	6
BRTAP	38	0	7
NMTAP	38	24	4
NMTAP	38	48	7
NMTAP	38	72	4
NMTAP	38	96	7
NMTAP	38	120	4
NMTAP	38	144	7
NMTAP	38	168	4
NMTTP	38	192	6	E	0	M1
NMTAP	38	216	4
NMTAP	38	240	7
NMTAP	38	264	4
NMTAP	38	288	7
NMTAP	38	312	4
NMTAP	38	336	7
NMTAP	38	360	4
NMTAP	39	0	0
NMTAP	39	24	3
NMTAP	39	48	0
NMTAP	39	72	3
NMTAP	39	96	0
NMTAP	39	120	3
NMTAP	39	144	0
NMTAP	39	168	3
NMTTP	39	192	2	E	0	M1
NMTAP	39	216	3
NMTAP	39	240	0
NMTAP	39	264	3
NMTAP	39	288	0
NMTAP	39	312	3
NMTAP	39	336	0
NMTAP	39	360	3
NMTAP	40	0	7
NMTAP	40	24	4
NMTAP	40	48	7
NMTAP	40	72	4
NMTAP	40	96	7
NMTAP	40	120	4
NMTAP	40	144	7
NMTAP	40	168	4
NMTTP	40	192	6	E	0	M1
NMTAP	40	216	4
NMTAP	40	240	7
NMTAP	40	264	4
NMTAP	40	288	7
NMTAP	40	312	4
NMTAP	40	336	7
NMTAP	40	360	4
EXTAP	41	0	7
NMTAP	41	24	0
NMTAP	41	48	1
NMTAP	41	72	2
EXTAP	41	96	3
NMTAP	41	120	4
NMTAP	41	144	5
NMTAP	41	168	6
EXSTR	41	192	7
NMSI_	41	192	7	96	48	3
BRSTR	41	288	0
NMSCR	41	288	0	96	48	3
BRTAP	42	0	4
EXTAP	42	96	4
EXTAP	42	96	5
NMTAP	42	192	6
NMTAP	42	216	7
NMTAP	42	240	6
NMTAP	42	264	7
NMTAP	42	288	6
NMTAP	42	312	7
NMTAP	42	336	6
NMTAP	42	360	7
NMTAP	43	0	6
NMTAP	43	24	4
NMTAP	43	48	6
NMTAP	43	72	4
NMTAP	43	96	6
NMTAP	43	120	4
NMTAP	43	144	6
NMTAP	43	168	4
NMTAP	43	192	6
NMTAP	43	216	7
NMTAP	43	240	6
NMTAP	43	264	7
NMTAP	43	288	6
NMTAP	43	312	7
NMTAP	43	336	6
NMTAP	43	360	7
NMSTR	44	0	6
NMSLL	44	0	6	96	96	2
NMSTR	44	96	2
NMSLL	44	96	2	96	96	6
NMTAP	44	192	6
NMTAP	44	288	2
NMTAP	45	0	5
NMTAP	45	24	4
NMTAP	45	48	5
NMTAP	45	72	4
NMTAP	45	96	5
NMTAP	45	120	4
NMTAP	45	144	5
NMTAP	45	168	4
NMTAP	45	192	5
NMTAP	45	216	7
NMTAP	45	240	5
NMTAP	45	264	7
NMTAP	45	288	5
NMTAP	45	312	7
NMTAP	45	336	5
NMTAP	45	360	7
NMTAP	46	0	5
NMTAP	46	96	1
NMTAP	46	120	4
NMTAP	46	144	1
NMTAP	46	168	4
NMTAP	46	192	1
NMTAP	46	216	3
NMTAP	46	240	1
NMTAP	46	264	3
NMTAP	46	288	1
NMTAP	46	312	4
NMTAP	46	336	1
NMTAP	46	360	4
NMTAP	47	0	1
NMTAP	47	24	3
NMTAP	47	48	1
NMTAP	47	72	3
NMTAP	47	96	1
NMTAP	47	120	4
NMTAP	47	144	1
NMTAP	47	168	3
NMTAP	47	192	1
NMTAP	47	216	2
NMTAP	47	240	1
NMTAP	47	264	3
NMTAP	47	288	1
NMTAP	47	312	4
NMTAP	47	336	1
NMTAP	47	360	3
NMTAP	48	0	1
NMTAP	48	96	0
NMTAP	48	128	0
NMTAP	48	160	0
NMTAP	48	192	6
NMTAP	48	224	6
NMTAP	48	256	6
NMTAP	48	288	4
NMTAP	48	320	4
NMTAP	48	352	4
NMTAP	49	0	2
NMTAP	49	24	1
NMTAP	49	48	0
NMTAP	49	72	7
NMTAP	49	96	6
NMTAP	49	120	5
NMTAP	49	144	4
NMTAP	49	168	3
NMTAP	49	192	0
NMTAP	49	216	1
NMTAP	49	240	2
NMTAP	49	264	3
NMTAP	49	288	4
NMTAP	49	312	5
NMTAP	49	336	6
NMTAP	49	360	7
BRSTR	50	0	0
NMSI_	50	0	0	96	1440	4
NMTAP	50	192	7
NMTAP	51	0	6
NMTAP	51	192	5
NMTAP	52	0	3
NMTAP	52	192	2
NMTAP	53	0	1
NMTAP	53	192	1
NMHLD	54	0	2	192
CNSI_	54	0	4	0	1440	0
NMTAP	54	336	3
NMTAP	54	360	3
NMTAP	55	0	3
NMTAP	55	288	5
NMTAP	56	0	5
NMTAP	56	336	6
NMTAP	56	360	6
NMTAP	57	0	6
NMTAP	57	288	6
NMSTR	58	0	7
NMSI_	58	0	7	96	1440	3
NMTAP	58	336	0
NMTAP	58	360	0
NMTAP	59	0	0
NMTAP	59	288	5
NMTAP	60	0	5
NMTAP	60	336	4
NMTAP	60	360	4
NMTAP	61	0	4
NMTAP	61	192	2
NMSTR	61	288	0
NMSI_	61	288	0	96	48	4
NMTAP	62	0	0
NMTAP	62	96	5
NMTAP	62	144	5
NMTAP	62	192	6
NMTAP	62	240	6
NMTAP	62	288	7
NMTAP	62	336	7
NMTAP	63	0	0
NMTAP	63	24	6
NMTAP	63	48	0
NMTAP	63	72	6
NMTAP	63	96	1
NMTAP	63	120	5
NMTAP	63	144	2
NMTAP	63	168	4
BRTAP	63	192	3
NMHLD	63	288	2	96
NMTAP	63	288	4
NMTAP	64	0	3
NMTAP	64	24	2
NMTAP	64	48	3
NMTAP	64	72	2
NMTAP	64	96	0
NMTAP	64	120	1
NMTAP	64	144	0
NMTAP	64	168	1
NMTAP	64	192	3
NMTAP	64	216	2
NMTAP	64	240	3
NMTAP	64	264	2
NMTAP	64	288	5
NMTAP	64	312	4
NMTAP	64	336	5
NMTAP	64	360	4
NMTAP	65	0	6
NMTAP	65	24	7
NMTAP	65	48	6
NMTAP	65	72	7
NMTAP	65	96	5
NMTAP	65	120	4
NMTAP	65	144	5
NMTAP	65	168	4
BRTAP	65	192	5
BRTAP	65	240	6
BRTAP	65	240	7
BRTAP	65	288	0
BRTAP	65	288	1
BRTAP	65	336	2
BRTAP	65	336	3
NMTAP	66	0	1
NMTAP	66	24	0
NMTAP	66	48	1
NMTAP	66	72	0
NMTAP	66	96	1
NMTAP	66	120	3
NMTAP	66	144	1
NMTAP	66	168	3
NMTAP	66	192	1
NMTAP	66	216	0
NMTAP	66	240	1
NMTAP	66	264	0
NMTAP	66	288	1
NMTAP	66	312	3
NMTAP	66	336	1
NMTAP	66	360	3
NMTAP	67	0	1
NMTAP	67	24	0
NMTAP	67	48	1
NMTAP	67	72	0
NMTAP	67	96	1
NMTAP	67	120	2
NMTAP	67	144	1
NMTAP	67	168	3
NMTAP	67	192	1
NMTAP	67	216	4
NMTAP	67	240	1
NMTAP	67	264	5
NMTAP	67	288	1
NMTAP	68	0	6
NMTAP	68	24	7
NMTAP	68	48	6
NMTAP	68	72	7
NMTAP	68	96	6
NMTAP	68	120	4
NMTAP	68	144	6
NMTAP	68	168	4
NMTAP	68	192	6
NMTAP	68	216	7
NMTAP	68	240	6
NMTAP	68	264	7
NMTAP	68	288	6
NMTAP	68	312	4
NMTAP	68	336	6
NMTAP	68	360	4
NMTAP	69	0	6
NMTAP	69	24	7
NMTAP	69	48	6
NMTAP	69	72	7
NMTAP	69	96	6
NMTAP	69	120	5
NMTAP	69	144	6
NMTAP	69	168	4
NMTAP	69	192	6
NMTAP	69	216	3
NMTAP	69	240	6
NMTAP	69	264	2
NMHLD	69	288	6	96
NMTAP	70	0	7
NMTAP	70	24	6
NMTAP	70	48	7
NMTAP	70	72	6
NMTAP	70	96	4
NMTAP	70	120	5
NMTAP	70	144	4
NMTAP	70	168	5
NMTAP	70	192	7
NMTAP	70	216	6
NMTAP	70	240	7
NMTAP	70	264	6
NMTAP	70	288	1
NMTAP	70	312	0
NMTAP	70	336	1
NMTAP	70	360	0
NMTAP	71	0	2
NMTAP	71	24	3
NMTAP	71	48	2
NMTAP	71	72	3
NMTAP	71	96	1
NMTAP	71	120	0
NMTAP	71	144	1
NMTAP	71	168	0
BRTAP	71	192	1
BRTAP	71	240	1
BRTAP	71	240	3
BRTAP	71	288	3
BRTAP	71	288	4
BRTAP	71	336	4
BRTAP	71	336	6
BRTAP	72	0	0
BRTAP	72	0	7
NMTAP	72	96	2
NMTAP	72	120	7
NMTAP	72	144	2
NMTAP	72	168	7
NMTAP	72	192	3
NMTAP	72	216	7
NMTAP	72	240	2
NMTAP	72	264	7
NMTAP	72	288	3
NMTAP	72	312	7
NMTAP	72	336	4
NMTAP	72	360	7
NMTAP	73	0	3
NMTAP	73	24	7
NMTAP	73	48	4
NMTAP	73	72	7
NMTAP	73	96	5
NMTAP	73	120	7
NMTAP	73	144	5
NMTAP	73	168	7
NMTAP	73	192	4
NMTAP	73	216	7
NMTAP	73	240	3
NMTAP	73	264	7
BRTAP	73	288	2
BXTAP	73	336	1
BXTAP	73	336	5
BXTAP	74	0	0
BXTAP	74	0	4
NMTAP	74	96	5
NMTAP	74	120	0
NMTAP	74	144	5
NMTAP	74	168	0
NMTAP	74	192	4
NMTAP	74	216	0
NMTAP	74	240	3
NMTAP	74	264	0
BRTAP	74	288	2
BXTAP	74	336	1
BXTAP	74	336	3
BXTAP	75	0	2
BXSTR	75	0	4
NMSI_	75	0	4	96	48	7
NMSTR	75	96	0
NMSI_	75	96	0	96	48	3
NMTAP	75	192	6
NMTAP	75	224	6
NMTAP	75	256	6
NMTAP	75	288	4
NMTAP	75	320	4
NMTAP	75	352	4
NMTAP	76	0	3
NMTAP	76	0	5
NMTAP	76	96	1
NMTAP	76	112	2
NMTAP	76	128	3
NMTAP	76	144	6
NMTAP	76	160	5
NMTAP	76	176	4
NMSTR	76	192	0
NMSXL	76	192	0	96	192	3
NMTAP	76	288	4
NMTAP	77	0	4
NMTAP	77	32	5
NMTAP	77	64	6
NMSTR	77	96	7
NMSCL	77	96	7	96	96	4
NMTAP	77	192	3
NMTAP	77	224	2
NMTAP	77	256	1
NMTAP	77	288	0
NMTAP	78	0	0
NMTAP	78	24	7
NMTAP	78	48	0
NMTAP	78	72	5
NMSTR	78	96	0
NMSI_	78	96	0	96	48	4
NMTAP	78	120	3
NMTAP	78	144	0
NMSTR	78	192	6
NMSI_	78	192	6	96	48	2
CNSI_	78	240	4	0	48	1
CNSI_	78	336	2	0	48	5
NMTAP	79	0	0
NMTAP	79	24	1
NMTAP	79	48	2
NMTAP	79	72	3
NMSTR	79	96	4
NMSI_	79	96	4	96	48	0
NMTAP	79	120	5
NMTAP	79	144	6
NMTAP	79	168	7
NMSTR	79	192	0
NMSF_	79	192	0	96	48	4
BRTAP	80	0	2
BRSTR	80	0	6
NMSCL	80	0	6	96	480	7
NMTAP	82	0	7
NMTAP	82	48	7
NMTAP	82	96	0
NMTAP	82	96	6
NMTAP	82	144	0
NMTAP	82	144	6
NMTAP	82	192	1
NMTAP	82	192	5
NMTAP	82	240	1
NMTAP	82	240	5
NMTAP	82	288	2
NMTAP	82	288	4
NMTAP	82	336	2
NMTAP	82	336	4
NMTAP	83	0	5
NMTAP	83	24	3
NMTAP	83	48	5
NMTAP	83	72	3
NMTAP	83	96	4
NMTAP	83	120	2
NMTAP	83	144	4
NMTAP	83	168	2
NMTAP	83	192	5
NMTAP	83	216	3
NMTAP	83	240	5
NMTAP	83	264	3
NMTAP	83	288	6
NMTAP	83	312	4
NMTAP	83	336	7
NMTAP	83	360	5
NMSTR	84	0	0
NMSXR	84	0	0	96	192	4
NMSTR	85	0	7
NMSXL	85	0	7	96	192	3
NMTAP	86	0	4
NMSTR	86	96	5
NMSI_	86	96	5	96	48	0
NMTAP	86	192	3
NMSTR	86	288	2
NMSI_	86	288	2	96	48	7
NMSTR	87	0	6
NMSI_	87	0	6	96	48	1
NMTAP	87	48	6
NMSTR	87	96	3
NMSI_	87	96	3	96	48	0
NMTAP	87	144	3
NMSTR	87	192	7
NMSI_	87	192	7	96	48	4
NMTAP	87	240	7
NMTAP	87	288	1
NMTAP	87	336	1
NMTAP	88	0	2
NMTAP	88	24	3
NMTAP	88	48	2
NMTAP	88	72	3
NMTAP	88	96	2
NMTAP	88	120	4
NMTAP	88	144	2
NMTAP	88	168	5
NMTAP	88	192	3
NMTAP	88	216	4
NMTAP	88	240	3
NMTAP	88	264	4
NMTAP	88	288	3
NMTAP	88	312	5
NMTAP	88	336	3
NMTAP	88	360	6
NMTAP	89	0	4
NMTAP	89	24	5
NMTAP	89	48	4
NMTAP	89	72	5
NMTAP	89	96	4
NMTAP	89	120	6
NMTAP	89	144	4
NMTAP	89	168	7
NMTAP	89	192	5
NMTAP	89	208	6
NMTAP	89	224	7
NMTAP	89	240	0
NMTAP	89	256	1
NMTAP	89	272	2
NMTAP	89	288	3
EXTAP	90	0	0
NMHLD	90	0	6	72
EXTAP	90	32	1
EXTAP	90	64	2
EXTAP	90	96	3
EXTAP	90	128	4
NMHLD	90	144	0	72
EXTAP	90	160	5
EXTAP	90	192	6
EXTAP	90	224	5
EXTAP	90	256	4
EXTAP	90	288	3
NMTAP	90	288	7
EXTAP	90	320	2
NMTAP	90	336	7
EXTAP	90	352	1
EXSTR	91	0	0
NMSI_	91	0	0	96	96	4
NMSTR	91	192	7
NMSI_	91	192	7	96	96	3
BRSTR	92	0	0
NMSCR	92	0	0	96	672	7

T_REC_TAP	620
T_REC_BRK	24
T_REC_XTP	22
T_REC_BXX	7
T_REC_HLD	6
T_REC_XHO	0
T_REC_BHO	0
T_REC_BXH	0
T_REC_STR	41
T_REC_BST	4
T_REC_XST	3
T_REC_XBS	1
T_REC_TTP	36
T_REC_THO	0
T_REC_SLD	49
T_REC_BSL	0
T_REC_ALL	813
T_NUM_TAP	722
T_NUM_BRK	36
T_NUM_HLD	6
T_NUM_SLD	49
T_NUM_ALL	813
T_JUDGE_TAP	758
T_JUDGE_HLD	13
T_JUDGE_SLD	49
T_JUDGE_ALL	820
TTM_EACHPAIRS	36
TTM_SCR_TAP	361000
TTM_SCR_BRK	93600
TTM_SCR_HLD	6000
TTM_SCR_SLD	73500
TTM_SCR_ALL	534100
TTM_SCR_S	514600
TTM_SCR_SS	530500
TTM_RAT_ACV	10067

