VERSION	0.00.00	1.04.00
FES_MODE	0
BPM_DEF	175.000	175.000	175.000	175.000
MET_DEF	4	4
RESOLUTION	384
CLK_DEF	384
COMPATIBLE_CODE	MA2

BPM	0	0	175.000
MET	0	0	4	4

NMSTR	2	0	2
NMSCR	2	0	2	96	192	5
NMTAP	2	288	6
NMSTR	3	0	6
NMSUL	3	0	6	96	192	2
NMTAP	3	288	1
NMSTR	4	0	1
NMSCR	4	0	1	96	288	6
NMTAP	5	0	7
NMTAP	5	192	0
NMTAP	5	192	7
NMSTR	6	0	0
NMSUR	6	0	0	96	192	4
NMTAP	6	288	5
NMSTR	7	0	6
NMSUL	7	0	6	96	192	2
NMTAP	7	288	1
NMSTR	8	0	1
NMSCL	8	0	1	96	480	3
NMTTP	10	0	1	B	0	M1
NMTTP	10	0	2	B	0	M1
NMTTP	10	96	0	B	0	M1
NMTTP	10	96	7	B	0	M1
NMTTP	10	192	5	B	0	M1
NMTTP	10	192	6	B	0	M1
NMTTP	10	288	3	B	0	M1
NMTTP	10	288	4	B	0	M1
NMTTP	11	0	2	E	0	M1
NMTTP	11	48	1	E	0	M1
NMTTP	11	96	0	E	0	M1
NMTTP	11	144	7	E	0	M1
NMTTP	11	192	6	E	0	M1
BRTAP	11	288	3
BRTAP	11	288	4
NMTAP	12	0	2
NMTAP	12	48	3
NMTAP	12	96	4
NMTAP	12	96	5
NMTAP	12	192	6
NMTAP	12	240	5
NMTAP	12	288	2
NMTAP	12	288	4
NMTAP	13	0	0
NMTAP	13	48	1
NMTAP	13	96	2
NMTAP	13	96	3
NMTAP	13	192	0
NMTAP	13	192	7
NMTAP	13	288	3
NMTAP	13	288	6
NMTAP	14	0	5
NMTAP	14	48	4
NMTAP	14	96	2
NMTAP	14	96	3
NMTAP	14	192	1
NMTAP	14	240	2
NMTAP	14	288	3
NMTAP	14	288	5
NMTAP	15	0	7
NMTAP	15	48	6
NMTAP	15	96	4
NMTAP	15	96	5
NMTAP	15	192	0
NMTAP	15	192	7
NMTAP	15	288	1
NMTAP	15	288	4
NMTAP	16	0	1
NMTAP	16	48	1
NMTAP	16	96	3
NMTAP	16	144	4
NMTAP	16	192	2
NMTAP	16	240	2
NMTAP	16	288	4
NMTAP	16	336	5
NMTAP	17	0	3
NMTAP	17	48	3
NMTAP	17	96	5
NMTAP	17	144	6
NMTAP	17	192	4
NMTAP	17	240	4
NMTAP	17	288	6
NMTAP	17	336	7
NMHLD	18	0	7	384
NMTAP	18	96	0
NMTAP	18	192	6
NMTAP	18	288	1
NMTAP	19	0	0
NMTAP	19	48	0
NMTAP	19	96	1
NMTAP	19	144	1
NMTAP	19	192	2
NMTAP	19	240	2
NMTAP	19	288	3
NMSTR	20	0	3
NMSUR	20	0	3	96	192	5
NMTAP	20	0	4
NMTAP	20	288	6
NMSTR	21	0	6
NMSUL	21	0	6	96	192	4
NMTAP	21	288	1
NMSTR	22	0	1
NMSUR	22	0	1	96	192	3
NMTAP	22	288	4
NMHLD	23	0	4	96
NMTAP	23	96	3
NMTAP	23	192	2
NMTAP	23	192	5
NMSTR	24	0	4
NMSXL	24	0	4	96	192	3
NMTAP	24	288	2
NMSTR	25	0	2
NMSXR	25	0	2	96	192	5
NMTAP	25	288	6
NMSTR	26	0	6
NMSXL	26	0	6	96	192	3
NMTAP	26	288	2
NMTAP	27	0	1
NMTAP	27	96	0
NMTAP	27	192	0
NMTAP	27	192	7
NMHLD	28	0	1	192
NMHLD	28	192	3	192
NMHLD	29	0	4	192
NMHLD	29	192	6	192
NMHLD	30	0	0	96
NMHLD	30	96	1	96
NMHLD	30	192	2	96
NMHLD	30	288	3	96
NMHLD	31	0	4	96
NMHLD	31	96	5	96
NMHLD	31	192	6	96
NMHLD	31	288	7	96
BRSTR	32	0	0
NMSUR	32	0	0	96	480	3
NMSXL	32	0	0	96	480	5
NMHLD	34	0	4	288
NMTAP	34	0	5
NMTAP	34	96	5
NMTAP	34	192	5
NMTAP	34	288	5
NMTAP	35	0	5
NMHLD	35	0	6	96
NMTAP	35	96	5
NMHLD	35	192	3	96
NMTAP	35	192	5
NMTAP	35	288	5
NMTAP	36	0	5
NMHLD	36	0	7	96
NMTAP	36	96	5
NMHLD	36	192	1	96
NMTAP	36	192	5
NMTAP	36	288	5
NMHLD	37	0	0	96
NMTAP	37	0	5
NMTAP	37	96	5
NMTAP	37	192	0
NMTAP	37	192	5
NMTAP	37	288	1
NMTAP	37	288	4
NMTAP	38	0	2
NMHLD	38	0	3	288
NMTAP	38	96	2
NMTAP	38	192	2
NMTAP	38	288	2
NMHLD	39	0	1	96
NMTAP	39	0	2
NMTAP	39	96	2
NMTAP	39	192	2
NMHLD	39	192	4	96
NMTAP	39	288	2
NMHLD	40	0	0	96
NMTAP	40	0	2
NMTAP	40	96	2
NMTAP	40	192	2
NMHLD	40	192	6	96
NMTAP	40	288	2
NMTAP	41	0	2
NMHLD	41	0	7	96
NMTAP	41	96	2
BRTAP	41	192	2
BRTAP	41	192	6
NMHLD	42	0	3	288
NMTAP	42	0	4
NMTAP	42	96	4
NMTAP	42	192	4
NMTAP	42	288	4
NMHLD	43	0	1	96
NMTAP	43	0	4
NMTAP	43	96	4
NMTAP	43	192	4
NMHLD	43	192	7	96
NMTAP	43	288	4
NMTAP	44	0	4
NMHLD	44	0	5	96
NMTAP	44	96	4
NMHLD	44	192	2	96
NMTAP	44	192	4
NMTAP	44	288	4
NMHLD	45	0	0	96
NMTAP	45	0	4
NMTAP	45	96	4
NMTAP	45	192	5
NMTAP	45	192	7
NMTAP	45	288	6
NMTAP	45	288	7
NMTAP	46	0	0
NMHLD	46	0	7	288
NMTAP	46	96	0
NMTAP	46	192	0
NMTAP	46	288	0
NMTAP	47	0	0
NMHLD	47	0	5	96
NMTAP	47	96	0
NMTAP	47	192	0
NMHLD	47	192	3	96
NMTAP	47	288	0
NMTAP	48	0	0
NMHLD	48	0	1	96
NMTAP	48	96	0
NMTAP	48	192	0
NMHLD	48	192	6	96
NMTAP	48	288	0
NMTAP	49	0	0
NMHLD	49	0	4	96
NMTAP	49	96	0
BRTAP	49	192	0
BRTAP	49	192	4
NMTHO	50	0	0	1536	C	0	M1
NMTTP	51	0	0	E	0	M1
NMTTP	52	0	7	E	0	M1
NMTTP	53	0	6	E	0	M1
NMSTR	54	0	6
NMSUR	54	0	6	96	288	3
NMTAP	54	192	1
NMSTR	55	0	1
NMSUL	55	0	1	96	288	4
NMTAP	55	192	6
NMSTR	56	0	6
NMSUR	56	0	6	96	288	5
NMTAP	56	192	1
NMSTR	57	0	1
NMSUL	57	0	1	96	288	2
NMTAP	57	192	7
NMSTR	58	0	7
NMSCL	58	0	7	96	192	4
NMTAP	58	192	3
NMSTR	59	0	3
NMSCL	59	0	3	96	192	0
NMTAP	59	192	7
NMSTR	60	0	0
NMSXL	60	0	0	96	480	3
NMSTR	60	0	7
NMSXR	60	0	7	96	480	4
NMTAP	62	0	3
NMTAP	62	48	3
NMTAP	62	96	4
NMTAP	62	144	4
NMTAP	62	192	2
NMTAP	62	240	2
NMTAP	62	288	5
NMTAP	62	336	5
NMTAP	63	0	1
NMTAP	63	48	1
NMTAP	63	96	6
NMTAP	63	144	6
NMSTR	63	192	0
NMSI_	63	192	0	96	48	4
BRTAP	64	0	3
BRTAP	64	0	5
NMTAP	64	48	4
NMTAP	64	96	2
NMTAP	64	96	3
NMTAP	64	192	0
NMTAP	64	192	7
NMTAP	64	288	4
NMTAP	64	288	6
NMTAP	65	0	1
NMTAP	65	0	3
NMTAP	65	48	2
NMTAP	65	96	3
NMTAP	65	96	5
EXTAP	65	192	4
EXTAP	65	240	5
EXTAP	65	288	6
EXTAP	65	336	7
NMTAP	66	0	1
NMTAP	66	48	0
NMTAP	66	96	1
NMTAP	66	192	2
NMTAP	66	192	7
NMTAP	66	288	4
NMTAP	66	288	5
NMTAP	67	0	3
NMTAP	67	48	2
NMTAP	67	96	1
NMTAP	67	144	0
NMTAP	67	192	3
NMTAP	67	240	2
NMTAP	67	288	1
NMTAP	67	336	0
NMSTR	68	0	7
NMSI_	68	0	7	96	96	4
NMTAP	68	96	1
NMSTR	68	192	0
NMSI_	68	192	0	96	96	4
NMTAP	68	288	5
NMSTR	69	0	7
NMSCL	69	0	7	96	96	4
NMTAP	69	96	3
NMTAP	69	192	2
EXTAP	69	288	1
EXTAP	69	288	6
NMTAP	70	0	7
NMTAP	70	48	7
NMTAP	70	96	0
NMTAP	70	144	0
NMTAP	70	192	1
NMTAP	70	240	1
NMTAP	70	288	2
NMTAP	70	336	2
NMTAP	71	0	3
NMTAP	71	48	4
NMTAP	71	96	5
NMTAP	71	144	6
NMSTR	71	192	7
NMSI_	71	192	7	96	48	2
NMSI_	71	192	7	96	48	4
BRTAP	72	0	1
BRTAP	72	0	5
NMTAP	72	96	6
NMTAP	72	144	6
NMTAP	72	192	6
NMTAP	72	192	7
NMTAP	72	288	1
NMTAP	72	336	1
NMSTR	73	0	1
NMSI_	73	0	1	96	48	3
NMSTR	73	96	0
NMSI_	73	96	0	96	48	4
NMSTR	73	192	1
NMSI_	73	192	1	96	48	5
NMSTR	73	288	0
NMSI_	73	288	0	96	48	6
BRTAP	74	0	3
NMTAP	74	96	5
NMTAP	74	144	4
NMTAP	74	192	3
NMTAP	74	240	2
NMTAP	74	288	1
NMTAP	74	336	0
NMSTR	75	0	6
NMSI_	75	0	6	96	48	4
NMSTR	75	0	7
NMSI_	75	0	7	96	48	3
NMSTR	75	192	6
NMSI_	75	192	6	96	48	2
NMSTR	75	192	7
NMSI_	75	192	7	96	48	1
NMTAP	76	0	0
NMTAP	76	48	1
NMTAP	76	96	2
NMTAP	76	96	4
NMTAP	76	192	7
NMTAP	76	240	6
NMTAP	76	288	3
NMTAP	76	288	5
EXTAP	77	0	2
EXTAP	77	32	2
EXTAP	77	64	3
EXTAP	77	96	3
EXTAP	77	192	5
EXTAP	77	224	5
EXTAP	77	256	4
EXTAP	77	288	4
NMTAP	78	0	2
NMTAP	78	48	3
NMHLD	78	96	2	96
NMTTP	78	192	4	B	0	M1
NMTTP	78	192	5	E	0	M1
NMTTP	78	240	0	B	0	M1
NMTTP	78	240	1	E	0	M1
NMTTP	78	288	6	B	0	M1
NMTTP	78	288	7	E	0	M1
NMTTP	78	336	2	B	0	M1
NMTTP	78	336	3	E	0	M1
NMTAP	79	0	5
NMTAP	79	48	5
NMTAP	79	96	5
NMSTR	79	192	3
NMSI_	79	192	3	96	48	1
NMSTR	79	192	4
NMSI_	79	192	4	96	48	6
NMTHO	80	0	0	768	C	0	M1
NMTTP	81	0	7	E	0	M1
NMTTP	81	192	6	E	0	M1
NMTAP	82	0	4
NMTAP	82	48	4
NMTAP	82	96	4
NMTAP	82	144	4
NMTAP	82	192	3
NMTAP	82	192	5
NMTAP	82	240	3
NMTAP	82	240	5
NMTAP	82	288	3
NMTAP	82	288	5
NMTAP	82	336	3
NMTAP	82	336	5
NMTAP	83	0	2
NMTAP	83	24	6
NMTAP	83	48	2
NMTAP	83	72	6
NMTAP	83	96	2
NMTAP	83	120	6
NMTAP	83	144	2
NMTAP	83	168	6
NMTAP	83	192	1
NMTAP	83	216	7
NMTAP	83	240	1
NMTAP	83	264	7
NMTAP	83	288	1
NMTAP	83	312	7
NMTAP	83	336	1
NMTAP	83	360	7
BRSTR	84	0	0
NMSI_	84	0	0	96	96	4
NMSTR	84	192	7
NMSI_	84	192	7	96	96	3
NMSTR	85	0	1
NMSI_	85	0	1	96	96	4
NMSTR	85	192	6
NMSI_	85	192	6	96	96	3
NMSTR	86	0	2
NMSI_	86	0	2	96	96	0
NMSTR	86	192	7
NMSI_	86	192	7	96	96	5
NMTAP	87	0	4
NMTAP	87	192	3
NMTAP	87	192	4
NMHLD	88	0	4	192
NMHLD	88	192	5	192
NMHLD	89	0	6	192
EXHLD	89	192	7	96
EXHLD	89	288	0	96
EXHLD	90	0	1	72
EXHLD	90	72	2	72
EXHLD	90	144	3	72
EXHLD	90	216	4	72
EXTAP	90	288	5
EXTAP	90	336	6
EXSTR	91	0	6
NMSI_	91	0	6	96	48	2
EXSTR	91	0	7
NMSI_	91	0	7	96	48	2
NMSTR	91	192	0
NMSI_	91	192	0	96	48	5
NMSTR	91	192	1
NMSI_	91	192	1	96	48	5
BRTAP	92	0	3
BRTAP	92	0	7

T_REC_TAP	260
T_REC_BRK	13
T_REC_XTP	16
T_REC_BXX	0
T_REC_HLD	42
T_REC_XHO	6
T_REC_BHO	0
T_REC_BXH	0
T_REC_STR	42
T_REC_BST	2
T_REC_XST	2
T_REC_XBS	0
T_REC_TTP	26
T_REC_THO	2
T_REC_SLD	48
T_REC_BSL	0
T_REC_ALL	459
T_NUM_TAP	346
T_NUM_BRK	15
T_NUM_HLD	50
T_NUM_SLD	48
T_NUM_ALL	459
T_JUDGE_TAP	361
T_JUDGE_HLD	180
T_JUDGE_SLD	48
T_JUDGE_ALL	589
TTM_EACHPAIRS	70
TTM_SCR_TAP	173000
TTM_SCR_BRK	39000
TTM_SCR_HLD	50000
TTM_SCR_SLD	72000
TTM_SCR_ALL	334000
TTM_SCR_S	322550
TTM_SCR_SS	332500
TTM_RAT_ACV	10045

