VERSION	0.00.00	1.04.00
FES_MODE	0
BPM_DEF	170.000	170.000	170.000	170.000
MET_DEF	4	4
RESOLUTION	384
CLK_DEF	576
COMPATIBLE_CODE	MA2

BPM	0	0	170.000
MET	0	0	4	3
MET	48	288	4	4
MET	50	288	4	7
MET	52	192	4	4
MET	54	192	4	7
MET	56	96	4	4
MET	58	96	4	7
MET	60	0	4	4
MET	62	0	4	7
MET	63	288	4	4
MET	69	288	4	5
MET	72	96	8	6
MET	73	288	8	5
MET	74	144	4	4
MET	79	144	4	2
MET	79	336	4	7
MET	81	240	4	4
MET	83	240	4	7
MET	85	144	4	4
MET	87	144	4	7
MET	89	48	4	4
MET	91	48	4	7
MET	92	336	4	4
MET	94	336	4	7
MET	96	240	4	3

NMSTR	2	96	2
NMSXR	2	96	2	96	384	4
NMTAP	2	96	4
NMTAP	2	192	4
NMTAP	3	288	3
NMSTR	3	288	5
NMSXL	3	288	5	96	384	3
NMTAP	4	0	3
NMSTR	5	96	1
NMSXR	5	96	1	96	384	4
NMTAP	5	96	3
NMTAP	5	192	3
NMTAP	6	288	4
NMSTR	6	288	6
NMSXL	6	288	6	96	384	3
NMTAP	7	0	4
NMSTR	8	96	2
NMSXR	8	96	2	96	384	7
NMTAP	8	96	4
NMTAP	8	192	4
NMTAP	9	0	3
NMTAP	9	96	3
NMTAP	9	288	3
NMSTR	9	288	5
NMSXL	9	288	5	96	384	0
NMTAP	10	0	3
NMTAP	10	192	4
NMTAP	10	288	4
NMTAP	11	96	0
NMSTR	11	96	7
NMSCL	11	96	7	96	96	5
NMTAP	11	192	1
NMTAP	11	288	2
NMHLD	12	0	2	768
NMTAP	12	0	4
NMTAP	12	96	5
NMTAP	12	192	6
NMSTR	12	240	6
NMSCR	12	240	6	96	432	4
NMTAP	14	96	2
NMTAP	14	96	4
NMSTR	14	192	1
NMSI_	14	192	1	96	48	4
NMTAP	14	288	5
NMTAP	15	0	3
NMSTR	15	0	6
NMSI_	15	0	6	96	48	3
NMTAP	15	96	0
NMTAP	15	192	2
NMSTR	15	288	2
NMSI_	15	288	2	96	48	7
NMTAP	15	288	4
NMTAP	16	0	3
NMTAP	16	96	5
NMHLD	16	192	0	288
NMTAP	16	192	6
NMTTP	16	288	7	E	0	M1
NMTTP	16	312	0	E	0	M1
NMTTP	16	336	1	E	0	M1
NMTTP	16	360	2	E	0	M1
NMTTP	17	0	3	E	0	M1
NMTTP	17	24	4	E	0	M1
NMTTP	17	48	5	E	0	M1
NMTTP	17	72	6	E	0	M1
NMTTP	17	96	7	E	0	M1
NMTAP	17	192	0
NMSTR	17	192	6
NMSI_	17	192	6	96	48	4
NMTAP	17	288	6
NMTAP	17	288	7
NMSTR	18	0	2
NMSI_	18	0	2	96	48	7
NMTAP	18	0	3
NMTAP	18	96	2
NMTAP	18	144	4
NMTAP	18	192	5
NMSTR	18	288	4
NMSI_	18	288	4	96	48	1
NMTAP	18	288	6
NMTAP	19	0	4
NMTAP	19	48	6
NMTAP	19	96	5
NMTAP	19	192	1
NMTAP	19	192	5
NMTAP	19	216	2
NMTAP	19	240	3
NMTAP	19	264	4
NMTAP	19	288	5
NMTAP	19	312	6
NMTAP	19	336	7
NMTAP	19	360	0
NMTAP	20	0	1
NMSTR	20	0	5
NMSI_	20	0	5	96	48	2
NMTAP	20	96	0
NMTAP	20	96	5
NMTAP	20	192	0
NMTAP	20	240	1
NMSTR	20	288	2
NMSI_	20	288	2	96	48	0
NMTAP	20	288	4
NMTAP	21	0	2
NMTAP	21	0	6
NMTAP	21	96	5
NMTAP	21	144	6
NMTAP	21	192	3
NMSTR	21	192	7
NMSI_	21	192	7	96	48	3
NMTAP	21	288	1
NMTAP	21	288	7
NMTAP	22	0	2
NMTAP	22	48	1
NMSTR	22	96	0
NMSI_	22	96	0	96	48	4
NMTAP	22	96	5
NMTAP	22	192	0
NMTAP	22	192	3
NMSTR	22	240	3
NMSI_	22	240	3	96	48	7
NMTAP	22	336	1
NMTAP	22	336	3
NMSTR	23	0	1
NMSI_	23	0	1	96	48	4
NMTAP	23	96	1
NMTAP	23	96	7
NMTAP	23	192	6
NMTAP	23	240	5
NMSTR	23	288	4
NMSI_	23	288	4	96	48	7
NMTAP	23	336	3
NMTAP	24	0	2
NMTAP	24	0	4
NMTAP	24	96	2
NMTAP	24	144	3
NMSTR	24	192	4
NMSI_	24	192	4	96	48	0
NMTAP	24	240	5
NMTAP	24	288	4
NMTAP	24	288	6
NMTAP	25	0	7
NMTAP	25	48	1
NMTAP	25	96	6
NMTAP	25	144	2
NMSTR	25	192	3
NMSI_	25	192	3	96	48	7
NMSTR	25	192	4
NMSI_	25	192	4	96	48	0
NMTAP	25	288	3
NMTAP	25	288	4
NMTAP	26	0	1
NMTAP	26	0	6
NMSTR	26	96	2
NMSCR	26	96	2	96	96	5
NMTAP	26	96	4
NMHLD	26	192	2	96
NMTAP	27	0	4
NMSTR	27	0	6
NMSCL	27	0	6	96	96	2
NMHLD	27	96	6	96
NMSTR	27	288	0
NMSI_	27	288	0	96	48	3
NMSTR	28	0	0
NMSCL	28	0	0	96	96	5
NMSTR	28	96	5
NMSCL	28	96	5	96	96	2
NMSTR	28	192	2
NMSLL	28	192	2	96	96	6
NMHLD	28	288	0	96
NMSTR	29	96	3
NMSCR	29	96	3	96	96	7
NMTAP	29	96	4
NMHLD	29	192	3	96
NMSTR	30	0	4
NMSCL	30	0	4	96	96	0
EXTAP	30	0	5
NMHLD	30	96	4	96
NMTAP	30	288	1
NMTAP	30	288	7
NMHLD	31	0	3	96
NMHLD	31	0	5	96
NMTAP	31	144	3
NMTAP	31	144	5
NMTAP	31	192	2
NMTAP	31	192	4
NMTAP	31	264	3
NMTAP	31	264	6
NMTAP	31	336	1
NMTAP	31	336	4
NMTAP	32	24	3
NMTAP	32	24	7
NMSTR	32	96	0
NMSCR	32	96	0	96	96	4
NMTAP	32	96	4
NMHLD	32	192	0	96
NMTAP	33	0	2
NMSTR	33	0	6
NMSCL	33	0	6	96	96	2
NMHLD	33	96	6	96
NMTAP	33	288	3
NMSTR	33	288	7
NMSI_	33	288	7	96	48	4
NMSTR	34	0	7
NMSCR	34	0	7	96	96	2
NMSTR	34	96	2
NMSCR	34	96	2	96	96	5
NMSTR	34	192	5
NMSLR	34	192	5	96	96	2
NMHLD	34	288	7	96
NMSTR	35	96	0
NMSCR	35	96	0	96	48	3
NMTAP	35	96	6
NMSTR	35	192	0
NMSCL	35	192	0	96	48	5
NMTAP	35	288	0
NMTAP	36	0	1
NMSTR	36	0	7
NMSCL	36	0	7	96	48	4
NMSTR	36	96	7
NMSCR	36	96	7	96	48	2
NMTAP	36	192	7
BXHLD	36	288	2	192
BRTAP	36	288	3
NMTAP	37	48	0
NMHLD	37	96	0	192
NMTAP	37	240	6
NMTAP	37	288	6
EXTAP	37	360	5
EXTAP	37	360	7
EXTAP	38	48	4
EXTAP	38	48	6
NMTAP	38	96	4
NMTAP	38	96	6
NMTAP	38	144	3
NMTAP	38	192	2
NMTAP	38	240	1
NMTAP	38	240	7
NMTAP	38	288	6
NMTAP	38	336	5
NMTAP	39	0	2
NMTAP	39	0	4
NMTAP	39	48	1
NMTAP	39	96	0
NMTAP	39	96	7
NMTAP	39	144	6
NMTAP	39	192	3
NMTAP	39	192	5
NMTAP	39	240	2
NMTAP	39	240	4
BRTAP	39	288	0
BRTAP	39	288	7
NMTAP	39	336	2
NMTAP	39	360	2
NMTAP	40	0	3
NMTAP	40	48	1
NMTAP	40	72	1
NMTAP	40	96	7
NMTAP	40	144	2
BRTAP	40	192	0
BRTAP	40	192	4
NMTAP	40	240	1
NMTAP	40	264	1
NMTAP	40	288	4
NMTAP	40	336	2
NMTAP	40	360	2
NMTAP	41	0	7
NMTAP	41	48	3
BRTAP	41	96	0
BRTAP	41	96	6
NMTAP	41	144	7
NMTAP	41	168	7
NMTAP	41	192	1
NMTAP	41	240	5
NMTAP	41	264	5
NMTAP	41	288	3
NMTAP	41	336	0
BRTAP	42	0	3
BRTAP	42	0	5
NMTAP	42	48	6
NMTAP	42	72	6
NMTAP	42	96	4
NMTAP	42	144	4
NMTAP	42	144	5
NMTAP	42	192	3
NMTAP	42	192	6
NMTAP	42	240	2
NMTAP	42	240	7
BRTAP	42	288	1
NMTAP	42	312	0
NMTAP	42	336	1
NMTAP	42	360	7
NMTAP	43	0	1
NMTAP	43	24	6
NMTAP	43	48	1
NMTAP	43	72	5
BRTAP	43	96	1
NMTAP	43	120	5
NMTAP	43	144	2
NMTAP	43	168	5
NMSTR	43	192	3
NMSLL	43	192	3	96	192	4
NMSTR	43	216	5
NMSLR	43	216	5	96	168	4
NMTAP	43	240	4
NMTAP	44	192	3
NMTAP	44	192	5
NMTAP	44	288	2
NMTAP	44	288	4
NMTAP	44	336	1
NMTAP	44	360	0
NMTAP	45	24	6
NMTAP	45	48	7
NMSTR	45	96	5
NMSI_	45	96	5	96	48	7
NMSTR	45	192	1
NMSI_	45	192	1	96	48	3
NMTAP	45	192	5
NMTAP	45	288	1
NMHLD	45	288	5	144
NMTAP	46	48	0
NMTAP	46	72	0
NMTAP	46	96	5
NMTAP	46	192	4
NMTAP	46	192	5
NMTAP	46	240	3
NMTAP	46	240	6
NMTAP	46	336	7
NMTAP	47	0	0
NMTAP	47	0	6
NMTAP	47	48	1
NMTAP	47	48	5
NMTAP	47	96	5
NMTAP	47	120	5
NMTAP	47	144	4
NMTAP	47	192	3
NMTAP	47	192	5
NMTAP	47	240	6
NMTAP	47	264	6
NMTAP	47	288	7
NMTAP	47	336	0
NMTAP	47	336	6
NMTAP	48	0	1
NMTAP	48	24	1
NMTAP	48	48	3
NMTAP	48	96	2
NMTAP	48	96	4
NMTAP	48	144	3
NMTAP	48	144	5
NMTAP	48	192	4
NMTAP	48	192	6
NMTAP	48	240	3
NMTAP	48	240	7
NMTAP	48	288	5
NMTAP	48	312	3
NMTAP	48	336	5
NMTAP	48	360	3
NMTAP	49	0	5
NMTAP	49	48	1
NMTAP	49	72	3
NMTAP	49	96	1
NMTAP	49	120	3
NMTAP	49	144	1
NMTAP	49	192	6
NMTAP	49	216	4
NMTAP	49	240	6
NMTAP	49	264	4
NMTAP	49	288	6
NMTAP	49	336	2
NMTAP	49	360	4
NMTAP	50	0	2
NMTAP	50	24	4
NMTAP	50	48	2
NMSTR	50	96	7
NMSI_	50	96	7	96	48	3
NMTAP	50	120	0
NMTAP	50	144	6
NMTAP	50	168	1
NMTAP	50	192	7
BRSTR	50	288	1
NMSI_	50	288	1	96	48	4
BRSTR	50	288	5
NMSI_	50	288	5	96	48	0
NMTAP	51	0	1
NMTAP	51	0	5
NMTAP	51	96	3
NMSTR	51	96	7
NMSI_	51	96	7	96	48	3
NMTAP	51	144	6
NMTAP	51	192	1
NMTAP	51	192	7
NMTAP	51	240	0
NMTAP	51	288	0
NMTAP	51	336	1
NMTAP	51	352	3
NMTAP	51	368	1
NMTAP	52	0	3
NMTAP	52	96	1
NMTAP	52	96	3
NMTAP	52	144	2
NMTAP	52	144	4
NMTAP	52	192	3
NMHLD	52	192	5	48
NMTAP	52	240	1
NMHLD	52	288	2	48
NMTAP	52	288	4
NMTAP	52	336	6
NMTAP	53	0	4
NMHLD	53	0	6	48
NMTAP	53	48	0
NMHLD	53	96	1	48
NMTAP	53	96	3
NMTAP	53	144	6
NMTAP	53	192	0
NMTAP	53	216	7
NMTAP	53	240	1
NMTAP	53	264	6
NMTAP	53	288	7
NMTAP	53	336	4
NMTAP	53	360	3
NMTAP	54	0	5
NMTAP	54	24	2
NMTAP	54	48	3
NMTAP	54	96	2
NMTAP	54	96	4
NMTAP	54	144	6
NMTAP	54	144	7
NMSTR	54	192	1
NMSI_	54	192	1	96	48	4
NMTAP	54	192	3
NMTAP	54	288	1
NMSTR	54	288	5
NMSI_	54	288	5	96	48	0
NMSTR	55	0	2
NMSI_	55	0	2	96	48	7
NMTAP	55	0	5
NMTAP	55	96	2
NMSTR	55	96	6
NMSI_	55	96	6	96	48	3
NMSTR	55	192	0
NMSLL	55	192	0	96	144	2
NMTAP	55	192	6
NMTAP	55	240	1
EXTAP	55	288	0
NMSTR	55	288	5
NMSI_	55	288	5	96	48	3
NMTAP	56	0	5
EXTAP	56	96	1
EXTAP	56	96	3
NMTAP	56	144	5
NMTAP	56	192	2
NMTAP	56	192	4
NMTAP	56	240	0
NMTAP	56	288	3
NMTAP	56	288	5
NMTAP	56	336	7
BRTAP	57	0	0
BRTAP	57	0	1
BRSTR	57	96	0
NMSI_	57	96	0	96	48	4
BRSTR	57	144	6
NMSI_	57	144	6	96	48	3
BRTAP	57	192	0
BRTAP	57	240	6
NMTAP	57	288	0
NMTAP	57	312	1
NMTAP	57	336	2
NMTAP	57	360	3
NMTAP	58	0	7
NMTAP	58	24	6
NMTAP	58	48	5
NMTAP	58	72	4
NMSTR	58	96	3
NMSI_	58	96	3	96	48	6
NMSTR	58	96	7
NMSI_	58	96	7	96	48	2
NMTAP	58	192	3
NMTAP	58	192	7
NMSTR	58	288	0
NMSI_	58	288	0	96	48	4
NMTAP	58	288	4
NMTAP	58	336	1
NMTAP	59	0	0
NMTAP	59	0	5
NMTAP	59	48	6
NMTAP	59	96	7
NMTAP	59	144	6
NMTAP	59	160	4
NMTAP	59	176	6
NMTAP	59	192	4
NMTAP	59	288	2
NMTAP	59	288	6
NMSTR	60	0	0
NMSI_	60	0	0	96	48	4
NMTAP	60	0	4
NMTAP	60	48	7
NMTAP	60	96	0
NMSTR	60	96	5
NMSI_	60	96	5	96	48	7
NMTAP	60	144	6
NMSTR	60	192	0
NMSI_	60	192	0	96	48	2
NMTAP	60	192	5
NMTAP	60	240	1
NMTAP	60	288	0
NMSTR	60	288	6
NMSI_	60	288	6	96	48	4
NMSTR	60	336	4
NMSI_	60	336	4	96	48	7
NMSTR	61	0	1
NMSI_	61	0	1	96	48	3
NMTAP	61	0	6
NMTAP	61	48	0
NMSTR	61	96	1
NMSI_	61	96	1	96	48	7
NMSTR	61	144	6
NMSI_	61	144	6	96	48	2
NMSTR	61	192	1
NMSI_	61	192	1	96	48	4
NMTAP	61	240	6
NMTAP	61	288	1
NMTAP	61	336	7
NMHLD	62	0	3	96
NMHLD	62	0	5	96
NMHLD	62	144	4	48
NMHLD	62	144	6	48
NMHLD	62	216	5	48
NMHLD	62	216	7	48
NMSTR	62	288	0
NMSI_	62	288	0	96	48	3
NMSTR	62	288	6
NMSI_	62	288	6	96	48	3
NMTAP	62	336	1
NMTAP	62	336	5
NMTAP	63	0	0
NMTAP	63	0	6
NMTAP	63	96	1
NMSTR	63	96	5
NMSCR	63	96	5	96	48	0
NMTAP	63	192	3
NMTAP	63	192	5
NMTAP	63	240	1
NMTAP	63	336	0
NMTAP	63	336	1
NMTAP	64	0	2
NMTAP	64	0	3
NMTAP	64	48	4
NMTAP	64	48	5
NMTAP	64	96	6
NMTAP	64	96	7
NMTAP	64	144	0
NMTAP	64	144	5
NMTAP	64	192	1
NMTAP	64	192	4
NMTAP	64	240	2
NMTAP	64	240	3
BRTAP	64	288	2
BRTAP	64	288	3
NMTAP	64	312	4
NMTAP	64	336	5
NMTAP	64	360	6
NMTAP	65	0	0
NMTAP	65	0	7
NMTAP	65	24	1
NMTAP	65	48	2
NMTAP	65	72	3
BRTAP	65	96	7
NMTAP	65	120	6
NMTAP	65	144	5
NMTAP	65	168	4
NMTAP	65	192	2
NMTAP	65	192	3
NMTAP	65	216	1
NMTAP	65	240	0
NMTAP	65	264	7
BRTAP	65	288	5
BRSTR	65	288	6
NMSCR	65	288	6	96	768	5
NMTAP	68	192	3
NMSTR	68	288	2
NMSXR	68	288	2	96	384	7
NMHLD	68	288	4	480
NMHLD	70	192	5	96
NMHLD	70	288	4	96
NMHLD	71	0	3	96
NMHLD	71	96	2	96
NMHLD	71	192	3	96
NMHLD	71	288	4	96
NMHLD	72	0	5	96
EXSTR	72	96	6
NMSCL	72	96	6	96	384	0
NMSUL	72	96	6	96	384	0
EXSTR	73	336	2
NMSCR	73	336	2	96	96	4
NMTAP	74	144	5
NMSTR	74	192	5
NMSUL	74	192	5	96	96	1
NMTAP	75	0	0
NMTAP	75	48	0
NMSTR	75	96	0
NMSCR	75	96	0	96	240	5
NMTAP	75	240	5
NMTAP	75	288	6
NMTAP	75	336	7
NMTAP	76	0	0
NMTAP	76	48	1
NMTAP	76	144	1
NMTAP	76	144	5
NMSTR	76	192	1
NMSXR	76	192	1	96	480	5
NMSTR	76	192	5
NMSXR	76	192	5	96	480	1
NMHLD	78	144	2	48
NMHLD	78	144	4	48
NMHLD	78	240	3	48
NMHLD	78	240	5	48
NMTAP	78	336	3
NMTAP	78	336	4
NMTAP	79	0	3
NMTAP	79	0	4
NMTAP	79	48	2
NMTAP	79	48	5
NMTAP	79	96	1
NMTAP	79	96	6
NMTAP	79	144	0
NMTAP	79	144	7
NMTTP	79	240	0	C	0	M1
BRSTR	79	336	1
NMSCR	79	336	1	96	48	4
BRSTR	79	336	5
NMSCR	79	336	5	96	48	0
NMTAP	80	48	1
NMSTR	80	48	5
NMSI_	80	48	5	96	48	1
NMTAP	80	144	5
NMSTR	80	144	7
NMSI_	80	144	7	96	48	3
NMTAP	80	240	0
NMTAP	80	240	7
NMTAP	80	336	0
NMTAP	80	336	4
BRTAP	81	0	0
BRSTR	81	0	4
NMSUR	81	0	4	96	32	2
NMTAP	81	16	1
NMTAP	81	16	5
NMTAP	81	32	2
NMTAP	81	32	6
NMSTR	81	48	3
NMSI_	81	48	3	96	48	7
NMTAP	81	48	7
NMHLD	81	64	0	128
NMTAP	81	64	4
CNSCR	81	128	2	0	16	3
NMSTR	81	336	2
NMSI_	81	336	2	96	48	7
NMTAP	81	336	3
NMTAP	82	0	1
NMSTR	82	48	2
NMSI_	82	48	2	96	48	4
NMSTR	82	48	5
NMSI_	82	48	5	96	48	0
NMTAP	82	144	2
NMTAP	82	144	5
EXSTR	82	240	0
NMSI_	82	240	0	96	48	4
NMSTR	82	288	6
NMSI_	82	288	6	96	48	2
NMTAP	82	336	0
BRTAP	83	0	6
NMTAP	83	96	1
NMTAP	83	96	3
NMTAP	83	144	0
NMTAP	83	144	7
NMTAP	83	192	6
NMTAP	83	240	3
NMTAP	83	240	5
NMTAP	83	288	2
NMTAP	83	312	3
NMTAP	83	336	1
NMSTR	84	0	0
NMSI_	84	0	0	96	48	4
NMTAP	84	0	4
NMTAP	84	96	0
NMSTR	84	96	6
NMSI_	84	96	6	96	48	3
NMTAP	84	144	7
NMHLD	84	192	2	24
NMTAP	84	192	6
NMTAP	84	288	0
NMTAP	84	336	1
NMTAP	85	0	2
NMTAP	85	0	3
NMTAP	85	48	4
NMTAP	85	48	5
NMTAP	85	96	6
NMTAP	85	96	7
NMTAP	85	144	1
NMTAP	85	168	0
NMTAP	85	192	1
BRTAP	85	240	2
BRTAP	85	240	7
NMTAP	85	288	5
NMTAP	85	312	4
NMTAP	85	336	5
BRTAP	86	0	3
BRTAP	86	0	6
NMTAP	86	48	1
NMTAP	86	72	3
NMTAP	86	96	2
NMTAP	86	120	4
BRHLD	86	144	3	144
BRSTR	86	240	0
NMSCR	86	240	0	96	48	3
BRSTR	86	288	6
NMSUL	86	288	6	96	48	2
NMSTR	86	336	0
BRSUR	86	336	0	96	48	4
NMTAP	87	0	6
BRTAP	87	48	0
BRSTR	87	144	2
NMSCL	87	144	2	96	48	7
BRSTR	87	144	6
NMSCL	87	144	6	96	48	3
NMSTR	87	240	2
NMSI_	87	240	2	96	48	6
NMTAP	87	240	6
NMTAP	87	336	0
NMTAP	87	336	2
NMTAP	88	48	0
NMTAP	88	48	4
NMTAP	88	96	0
NMTAP	88	96	4
NMTAP	88	112	1
NMTAP	88	112	5
NMTAP	88	128	2
NMTAP	88	128	6
NMTAP	88	144	3
NMTAP	88	144	7
BRSTR	88	192	3
NMSUL	88	192	3	96	32	5
BRTAP	88	192	7
NMTAP	88	208	2
NMTAP	88	208	6
NMTAP	88	224	1
NMTAP	88	224	5
NMTAP	88	240	0
NMSTR	88	240	4
NMSI_	88	240	4	96	48	0
NMTAP	88	256	3
NMHLD	88	256	7	128
CNSCL	88	320	5	0	16	4
NMHLD	89	144	6	48
NMTAP	89	192	2
NMTAP	89	216	3
NMHLD	89	240	1	48
NMTAP	89	288	7
NMTAP	89	312	0
NMHLD	89	336	6	48
NMTAP	90	0	3
NMTAP	90	24	4
NMSTR	90	48	2
NMSCL	90	48	2	96	96	7
NMTAP	90	144	7
NMTAP	90	168	6
NMTAP	90	192	5
NMTAP	90	216	4
NMSTR	90	240	3
NMSUR	90	240	3	96	96	7
NMSTR	90	336	7
NMSLL	90	336	7	96	96	3
NMTAP	90	360	0
NMTAP	91	0	1
NMTAP	91	24	2
NMSTR	91	48	3
NMSLL	91	48	3	96	96	7
NMTAP	91	288	1
NMTAP	91	312	7
NMSTR	91	336	2
NMSLR	91	336	2	96	96	0
NMTAP	91	360	5
NMTAP	92	0	3
NMTAP	92	24	6
NMTAP	92	48	2
NMTAP	92	192	1
NMTAP	92	192	5
NMTAP	92	240	0
NMTAP	92	240	7
NMTAP	92	264	6
NMTAP	92	288	0
NMTAP	92	288	5
NMTAP	92	312	4
NMTAP	92	336	0
NMTAP	92	336	3
NMTAP	93	0	0
NMTAP	93	0	6
NMTAP	93	24	1
NMTAP	93	48	2
NMTAP	93	48	6
NMTAP	93	72	3
NMTAP	93	96	4
NMTAP	93	96	6
NMTAP	93	144	0
NMTAP	93	144	2
NMTAP	93	168	7
NMTAP	93	192	2
NMTAP	93	192	6
NMTAP	93	216	5
NMTAP	93	240	2
NMTAP	93	240	4
NMTAP	93	288	1
NMTAP	93	288	5
NMTAP	93	312	2
NMTAP	93	312	6
EXSTR	93	336	3
NMSUL	93	336	3	96	48	7
EXSTR	93	336	7
NMSUL	93	336	7	96	48	3
EXSTR	94	48	3
NMSCR	94	48	3	96	48	6
EXSTR	94	48	7
NMSCR	94	48	7	96	48	2
EXSTR	94	144	3
NMSI_	94	144	3	96	48	0
EXSTR	94	144	7
NMSI_	94	144	7	96	48	4
BRTAP	94	240	3
BRTAP	94	240	7
NMTAP	94	336	6
NMTAP	94	336	7
NMTAP	95	0	5
NMTAP	95	48	0
NMTAP	95	48	1
NMTAP	95	96	2
NMTAP	95	144	0
NMTAP	95	144	7
NMTAP	95	192	1
NMTAP	95	192	6
NMTAP	95	240	3
NMTAP	95	240	4
NMTAP	95	264	2
NMTAP	95	264	5
NMTAP	95	288	1
NMTAP	95	288	6
NMTAP	95	312	0
NMTAP	95	312	7
NMSTR	95	336	1
NMSI_	95	336	1	96	96	4
NMSTR	95	336	6
NMSI_	95	336	6	96	96	3
CNSCR	96	144	3	0	96	5
CNSCL	96	144	4	0	96	2
CNSI_	96	240	2	0	192	0
CNSI_	96	240	5	0	192	7
NMHLD	97	144	3	96
NMHLD	97	144	5	192
NMHLD	98	48	4	192
NMHLD	98	48	5	96
NMHLD	98	336	2	96
NMHLD	98	336	4	192
NMHLD	99	240	2	96
NMHLD	99	240	3	192
NMHLD	100	144	4	96
NMSTR	100	144	5
NMSCR	100	144	5	96	96	1
NMTAP	100	336	4
NMHLD	101	48	0	96
NMSTR	101	48	1
NMSCR	101	48	1	96	96	5
NMTAP	101	240	0
NMSTR	101	336	4
NMSCL	101	336	4	96	96	0
NMTAP	101	336	5
NMTAP	102	48	6
NMTAP	102	144	7
NMTAP	102	240	0
NMSTR	102	240	7
NMSCL	102	240	7	96	96	3
NMTAP	102	336	1
NMTAP	103	48	2
NMSTR	103	144	3
NMSCL	103	144	3	96	48	0
NMSTR	103	240	3
NMSCR	103	240	3	96	48	6
NMTAP	103	240	5
NMTAP	103	336	1
NMSTR	103	336	3
NMSI_	103	336	3	96	48	0
NMSTR	104	48	3
NMSI_	104	48	3	96	48	6
NMTAP	104	48	5
NMTAP	104	144	1
NMSTR	104	144	3
NMSI_	104	144	3	96	48	7
NMTAP	104	240	3
NMTAP	104	240	7
NMSTR	104	336	4
NMSCR	104	336	4	96	48	7
NMTAP	105	48	2
NMSTR	105	48	4
NMSCL	105	48	4	96	48	1
NMSTR	105	144	4
NMSI_	105	144	4	96	48	7
NMTAP	105	144	6
NMTAP	105	240	2
NMSTR	105	240	4
NMSI_	105	240	4	96	48	1
NMSTR	105	336	4
NMSI_	105	336	4	96	48	0
NMTAP	105	336	6
NMTAP	106	48	0
NMTAP	106	48	4
NMTAP	106	144	2
NMTAP	106	168	3
NMTAP	106	192	2
NMTAP	106	240	5
NMTAP	106	264	4
NMTAP	106	288	6
NMTAP	106	336	1
NMTAP	106	360	0
NMTAP	107	0	2
NMTAP	107	48	6
NMTAP	107	72	6
NMTAP	107	96	7
NMTAP	107	144	1
NMTAP	107	168	1
NMTAP	107	192	3
NMTAP	107	240	5
NMTAP	107	264	5
NMTAP	107	288	4
NMTAP	107	336	1
NMTAP	107	360	0
NMTAP	108	0	2
NMTAP	108	24	7
NMTAP	108	48	3
NMTAP	108	72	6
NMTAP	108	96	4
NMTAP	108	120	5
NMTAP	108	144	3
NMTAP	108	168	4
NMTAP	108	192	2
NMTAP	108	240	2
NMTAP	108	240	3
NMTAP	108	288	0
NMTAP	108	288	1
NMTAP	108	336	6
NMTAP	108	336	7
NMTAP	109	0	4
NMTAP	109	0	5
NMSTR	109	48	2
NMSI_	109	48	2	96	48	5
NMSTR	109	48	6
NMSI_	109	48	6	96	48	1
NMTAP	109	72	1
NMTAP	109	72	5
NMTAP	109	96	0
NMTAP	109	96	4
NMTAP	109	120	3
NMTAP	109	120	7
EXTAP	109	144	2
EXTAP	109	144	6

T_REC_TAP	587
T_REC_BRK	29
T_REC_XTP	10
T_REC_BXX	0
T_REC_HLD	52
T_REC_XHO	0
T_REC_BHO	1
T_REC_BXH	1
T_REC_STR	109
T_REC_BST	13
T_REC_XST	9
T_REC_XBS	0
T_REC_TTP	10
T_REC_THO	0
T_REC_SLD	131
T_REC_BSL	1
T_REC_ALL	953
T_NUM_TAP	725
T_NUM_BRK	45
T_NUM_HLD	52
T_NUM_SLD	131
T_NUM_ALL	953
T_JUDGE_TAP	767
T_JUDGE_HLD	134
T_JUDGE_SLD	132
T_JUDGE_ALL	1033
TTM_EACHPAIRS	228
TTM_SCR_TAP	362500
TTM_SCR_BRK	117000
TTM_SCR_HLD	52000
TTM_SCR_SLD	196500
TTM_SCR_ALL	728000
TTM_SCR_S	701800
TTM_SCR_SS	723500
TTM_RAT_ACV	10062

