VERSION	0.00.00	1.04.00
FES_MODE	0
BPM_DEF	170.000	170.000	170.000	170.000
MET_DEF	4	4
RESOLUTION	384
CLK_DEF	576
COMPATIBLE_CODE	MA2

BPM	0	0	170.000
MET	0	0	4	3
MET	48	288	4	4
MET	50	288	4	7
MET	52	192	4	4
MET	54	192	4	7
MET	56	96	4	4
MET	58	96	4	7
MET	60	0	4	4
MET	62	0	4	7
MET	63	288	4	4
MET	69	288	4	5
MET	72	96	8	6
MET	73	288	8	5
MET	74	144	4	4
MET	79	144	4	2
MET	79	336	4	7
MET	81	240	4	4
MET	83	240	4	7
MET	85	144	4	4
MET	87	144	4	7
MET	89	48	4	4
MET	91	48	4	7
MET	92	336	4	4
MET	94	336	4	7
MET	96	240	4	3

NMSTR	2	96	2
NMSCR	2	96	2	96	192	5
NMHLD	2	96	6	864
NMSTR	3	288	5
NMSCL	3	288	5	96	192	2
NMHLD	5	96	1	864
NMSTR	5	96	5
NMSCL	5	96	5	96	192	2
NMSTR	6	288	2
NMSCR	6	288	2	96	192	5
NMHLD	8	96	2	288
NMTAP	8	96	5
NMHLD	9	0	3	288
NMHLD	9	288	4	288
NMHLD	10	192	5	288
NMSTR	11	96	4
NMSI_	11	96	4	96	192	0
NMHLD	12	0	7	192
NMSTR	12	192	1
NMSCR	12	192	1	96	288	6
NMHLD	14	96	5	288
NMTAP	14	192	4
NMTAP	14	240	4
NMTAP	14	288	4
NMHLD	15	0	3	288
NMTAP	15	96	4
NMTAP	15	144	4
NMTAP	15	192	4
NMHLD	15	288	6	288
NMTAP	16	0	4
NMTAP	16	48	4
NMTAP	16	96	4
NMTAP	16	192	2
NMTAP	16	288	3
NMTAP	16	288	5
NMTAP	17	0	2
NMTAP	17	0	4
NMHLD	17	96	1	288
NMTAP	17	192	3
NMTAP	17	240	3
NMTAP	17	288	3
NMHLD	18	0	5	288
NMTAP	18	96	3
NMTAP	18	144	3
NMTAP	18	192	3
NMHLD	18	288	2	288
NMTAP	19	0	3
NMTAP	19	48	3
NMSTR	19	96	3
NMSI_	19	96	3	96	96	7
EXTAP	20	0	0
NMTAP	20	96	0
NMTAP	20	96	1
NMTAP	20	192	2
NMTAP	20	192	3
NMTAP	20	288	4
NMSTR	20	288	5
NMSI_	20	288	5	96	96	3
CNSI_	21	96	3	0	96	6
EXTAP	21	192	0
NMTAP	21	288	6
NMTAP	21	288	7
NMTAP	22	0	4
NMTAP	22	0	5
NMSTR	22	96	2
NMSI_	22	96	2	96	96	4
NMTAP	22	96	3
CNSI_	22	288	4	0	96	1
EXTAP	23	0	7
NMTAP	23	96	0
NMTAP	23	96	1
NMTAP	23	192	0
NMTAP	23	192	1
NMTAP	23	288	2
NMTAP	23	288	7
NMTAP	24	0	1
NMTAP	24	0	6
NMTAP	24	96	0
NMTAP	24	96	5
NMSTR	24	192	6
NMSXL	24	192	6	96	288	1
NMSXR	24	192	6	96	288	3
NMTAP	24	240	6
EXTAP	26	0	1
NMSTR	26	96	1
NMSCL	26	96	1	96	192	6
BXTAP	27	0	5
BXHLD	27	96	5	192
NMSTR	27	288	4
NMSUL	27	288	4	96	192	0
NMTAP	28	192	6
NMHLD	28	288	6	192
NMSTR	29	96	7
NMSI_	29	96	7	96	192	2
NMSTR	30	0	5
NMSI_	30	0	5	96	192	0
NMSTR	30	288	2
NMSV_	30	288	2	96	192	5
NMHLD	31	192	6	288
NMHLD	32	0	4	96
NMTAP	32	192	4
NMTAP	32	192	6
NMSTR	32	288	4
NMSCL	32	288	4	96	144	1
NMSTR	32	288	5
NMSCR	32	288	5	96	144	0
NMHLD	33	288	0	96
NMHLD	33	288	1	96
NMSTR	34	96	0
NMSCL	34	96	0	96	144	5
NMSTR	34	96	1
NMSUL	34	96	1	96	144	4
NMHLD	35	96	3	96
NMHLD	35	192	2	96
NMHLD	35	288	1	96
NMHLD	36	0	0	96
NMHLD	36	96	7	96
NMHLD	36	192	6	96
NMHLD	36	288	5	96
NMSTR	37	0	4
NMSI_	37	0	4	96	192	1
NMSI_	37	0	4	96	192	7
NMHLD	38	96	0	96
NMHLD	38	96	7	96
NMTAP	38	240	0
NMTAP	38	240	7
NMTAP	38	336	1
NMTAP	38	336	6
EXTAP	39	0	0
EXTAP	39	48	0
EXTAP	39	96	7
EXTAP	39	144	7
EXTAP	39	192	0
BRHLD	39	288	1	96
BRTAP	39	288	5
NMTAP	40	0	3
NMTAP	40	48	3
NMTAP	40	96	2
NMTAP	40	96	4
NMTAP	40	192	3
NMTAP	40	192	6
NMTAP	40	288	5
NMTAP	40	336	5
NMTAP	41	0	4
NMTAP	41	0	6
NMTAP	41	96	0
NMTAP	41	96	7
NMTAP	41	192	1
NMTAP	41	192	3
NMTAP	41	288	4
NMTAP	41	288	5
NMTAP	42	0	4
NMTAP	42	0	5
NMTAP	42	96	1
NMTAP	42	96	3
NMTAP	42	192	0
NMTAP	42	192	7
NMTAP	42	288	2
EXHLD	42	288	6	96
NMHLD	43	0	4	96
NMHLD	43	96	2	96
NMHLD	43	192	0	96
NMHLD	43	288	2	96
NMHLD	44	0	4	96
NMTAP	44	96	6
NMTAP	44	144	6
NMTAP	44	192	4
NMTAP	44	240	4
NMTAP	44	288	2
NMTAP	44	336	2
NMTAP	45	0	0
BRTAP	45	96	1
BRTAP	45	96	7
BRTAP	45	192	2
BRTAP	45	192	6
BRTAP	45	288	3
BRHLD	45	288	5	480
NMTAP	46	0	4
NMTAP	46	96	4
NMTAP	46	192	7
NMTAP	46	288	1
NMSTR	47	0	3
NMSCL	47	0	3	96	288	5
EXHLD	47	96	4	480
CNSUL	48	0	5	0	192	2
NMTAP	48	288	2
NMTAP	48	288	4
EXHLD	49	0	2	576
NMSTR	49	0	4
NMSCR	49	0	4	96	288	2
CNSUR	50	0	2	0	192	5
BRTAP	50	288	2
BRTAP	50	288	6
NMTAP	51	0	3
NMHLD	51	0	5	576
NMTAP	51	96	4
NMTAP	51	144	4
NMTAP	51	192	4
NMTAP	51	288	6
NMTAP	52	0	0
NMTAP	52	96	6
BRTAP	52	192	4
NMTAP	52	288	2
NMTAP	52	336	2
NMTAP	53	0	4
NMTAP	53	48	4
NMHLD	53	96	3	96
NMTAP	53	192	5
NMTAP	53	240	5
NMTAP	53	288	3
NMTAP	53	336	3
NMHLD	54	0	4	96
NMTAP	54	96	2
BRTAP	54	192	1
BRTAP	54	192	5
NMTAP	54	288	0
NMHLD	54	288	6	480
NMTAP	55	0	7
NMTAP	55	48	7
NMTAP	55	96	7
NMTAP	55	192	5
NMTAP	55	288	3
NMTAP	56	0	5
BRTAP	56	96	1
BRTAP	56	96	7
NMTAP	56	144	1
NMTAP	56	144	7
NMTAP	56	240	0
NMTAP	56	240	6
BRTAP	56	336	4
BRTAP	56	336	5
BRTAP	57	0	4
BRTAP	57	0	5
BRTAP	57	96	2
BRTAP	57	144	2
BRTAP	57	192	3
BRHLD	57	240	1	96
NMTAP	57	336	0
NMTAP	58	0	0
BRTAP	58	96	1
BRTAP	58	96	7
NMTAP	58	192	5
NMTAP	58	240	4
NMHLD	58	288	3	96
NMHLD	59	0	1	96
NMTAP	59	96	0
NMHLD	59	192	6	96
NMTAP	59	192	7
NMTAP	59	288	4
NMSTR	60	0	3
NMSCL	60	0	3	96	96	0
NMSTR	60	0	5
NMSUL	60	0	5	96	96	0
EXTAP	60	288	6
EXTAP	60	288	7
NMSTR	61	0	0
NMSCR	61	0	0	96	96	3
NMSTR	61	0	5
NMSCR	61	0	5	96	96	0
NMTAP	61	288	2
NMTAP	61	288	7
NMHLD	62	0	2	96
NMHLD	62	0	7	96
NMHLD	62	144	3	96
NMHLD	62	144	6	96
NMHLD	62	288	4	96
NMHLD	62	288	5	96
NMHLD	63	48	3	96
NMHLD	63	48	4	96
NMTAP	63	192	2
NMTAP	63	192	3
NMTAP	63	240	2
NMTAP	63	240	3
NMTAP	63	336	1
NMTAP	63	336	4
NMTAP	64	48	0
NMTAP	64	48	7
NMTAP	64	96	0
NMTAP	64	96	7
NMSTR	64	192	1
NMSCR	64	192	1	96	264	7
NMSTR	64	192	6
NMSCL	64	192	6	96	264	0
NMTTP	65	288	0	C	1	M1
NMTTP	65	288	2	B	0	M1
NMTTP	65	288	3	B	0	M1
NMTTP	65	288	4	B	0	M1
NMTTP	65	288	5	B	0	M1
NMHLD	68	288	0	1344
NMSTR	68	288	7
NMSCL	68	288	7	96	288	4
NMTTP	70	192	4	E	0	M1
NMTTP	70	288	0	C	0	M1
NMTTP	71	0	0	E	0	M1
NMTTP	71	96	1	E	0	M1
NMTTP	71	192	2	E	0	M1
NMTTP	71	288	3	E	0	M1
NMTTP	72	0	4	E	0	M1
NMTHO	72	96	0	576	C	0	M1
NMTAP	74	144	0
NMTAP	74	144	7
NMTAP	74	240	1
NMHLD	74	288	1	96
NMTAP	75	0	3
NMTAP	75	96	5
NMHLD	75	144	5	96
NMTAP	75	240	4
NMTAP	75	336	3
NMTAP	75	336	4
NMTAP	76	48	2
NMTAP	76	48	3
NMTAP	76	144	1
NMHLD	76	192	1	96
NMTAP	76	288	0
NMTAP	77	0	6
NMHLD	77	48	6	96
NMTAP	77	144	7
NMTAP	77	240	0
NMHLD	77	288	0	96
NMTAP	78	0	6
NMTAP	78	96	1
NMTAP	78	96	5
NMTAP	78	144	1
NMTAP	78	144	5
NMTAP	78	240	2
NMTAP	78	288	2
NMTAP	78	336	4
NMTAP	79	0	4
NMTAP	79	48	3
EXTAP	79	96	6
BXTAP	79	144	2
BXTAP	79	144	6
EXSTR	79	336	1
NMSI_	79	336	1	96	48	3
NMSTR	80	48	0
NMSI_	80	48	0	96	48	4
NMSTR	80	144	1
NMSI_	80	144	1	96	48	3
EXTAP	80	240	0
NMTAP	80	336	1
NMTAP	80	336	7
NMTAP	81	0	1
NMTAP	81	0	7
NMTAP	81	48	1
NMTAP	81	48	7
NMTAP	81	144	4
NMTAP	81	144	5
NMTAP	81	240	2
NMTAP	81	240	3
NMTAP	81	336	0
NMTAP	81	336	1
NMTAP	82	48	6
NMTAP	82	48	7
NMTAP	82	144	0
NMTAP	82	144	5
NMTAP	82	240	2
NMTAP	82	288	2
NMTAP	82	336	3
NMTAP	83	0	1
NMTAP	83	48	4
NMTAP	83	96	4
NMTAP	83	144	3
NMTAP	83	144	5
EXSTR	83	240	6
NMSI_	83	240	6	96	48	4
NMSTR	83	336	7
NMSI_	83	336	7	96	48	3
NMSTR	84	48	6
NMSI_	84	48	6	96	48	4
EXTAP	84	144	7
NMTAP	84	240	0
NMTAP	84	240	6
NMTAP	84	288	0
NMTAP	84	288	6
NMTAP	84	336	0
NMTAP	84	336	6
NMTAP	85	48	2
NMTAP	85	48	4
NMTAP	85	144	0
NMTAP	85	144	1
NMTAP	85	240	3
NMTAP	85	240	5
NMTAP	85	336	6
NMTAP	85	336	7
NMTAP	86	48	0
NMHLD	86	48	1	96
EXTAP	86	144	3
BRTAP	86	240	2
BRTAP	86	240	4
BRTAP	86	288	2
BRTAP	86	288	4
EXTAP	87	0	1
EXTAP	87	0	5
BXTAP	87	48	1
BXTAP	87	48	5
EXSTR	87	144	1
NMSI_	87	144	1	96	48	4
NMSTR	87	240	0
NMSI_	87	240	0	96	48	5
NMSTR	87	336	1
NMSI_	87	336	1	96	48	4
EXTAP	88	48	0
NMTAP	88	144	3
NMTAP	88	144	7
NMTAP	88	192	3
NMTAP	88	192	7
NMTAP	88	240	3
NMTAP	88	240	7
NMTAP	88	336	1
NMTAP	88	336	5
NMHLD	89	48	0	96
NMHLD	89	144	2	96
NMHLD	89	240	4	96
NMHLD	89	336	6	96
NMHLD	90	48	4	96
NMHLD	90	144	2	96
NMHLD	90	240	0	96
NMTAP	90	336	7
NMTAP	91	48	1
NMTAP	91	48	6
NMTAP	91	144	2
NMTAP	91	192	2
NMTAP	91	240	3
NMTAP	91	288	2
NMTAP	91	336	1
NMTAP	91	336	4
NMTAP	92	48	5
NMTAP	92	96	5
NMTAP	92	144	4
NMTAP	92	192	5
BXTAP	92	240	3
BXTAP	92	240	6
NMTAP	92	336	0
NMTAP	92	336	1
NMTAP	93	0	0
NMTAP	93	0	1
NMTAP	93	96	2
NMTAP	93	96	3
NMTAP	93	144	2
NMTAP	93	144	3
NMTAP	93	240	6
NMTAP	93	240	7
NMTAP	93	288	6
NMTAP	93	288	7
NMTAP	94	0	0
NMTAP	94	0	5
NMSTR	94	48	0
NMSI_	94	48	0	96	48	4
NMTAP	94	48	5
NMSTR	94	144	6
NMSI_	94	144	6	96	48	2
NMTAP	94	240	1
NMSTR	94	336	1
NMSI_	94	336	1	96	48	5
NMSTR	95	48	7
NMSI_	95	48	7	96	48	3
NMSTR	95	144	0
NMSI_	95	144	0	96	48	4
NMSTR	95	240	6
BRSCL	95	240	6	96	288	1
EXTAP	95	336	3
EXTAP	96	240	0
EXTAP	96	336	0
BRSTR	97	48	1
BRSI_	97	48	1	96	48	5
NMHLD	97	48	7	1056
NMHLD	99	240	0	96
NMTAP	100	48	0
NMTAP	100	48	7
EXTAP	100	144	1
EXTAP	100	144	6
NMHLD	100	240	4	96
NMHLD	100	240	5	96
NMTAP	101	48	2
NMTAP	101	48	3
NMHLD	101	144	2	96
NMHLD	101	144	3	96
NMTAP	101	336	4
NMTAP	101	336	6
NMHLD	102	48	4	96
NMHLD	102	48	6	96
NMTAP	102	240	3
NMTAP	102	240	7
NMTAP	102	336	2
NMTAP	102	336	6
NMTAP	103	48	1
NMTAP	103	48	5
NMSTR	103	144	4
NMSCR	103	144	4	96	96	7
NMSTR	103	240	0
NMSCR	103	240	0	96	96	3
NMHLD	104	48	7	288
NMTAP	104	144	4
NMTAP	104	240	5
NMSTR	104	336	3
NMSCL	104	336	3	96	96	0
NMSTR	105	48	6
NMSCL	105	48	6	96	96	3
NMHLD	105	240	0	288
NMTAP	105	336	3
NMTAP	106	48	2
BRTAP	106	144	4
NMTAP	106	240	1
NMTAP	106	240	3
NMTAP	106	336	2
NMTAP	107	0	2
NMTAP	107	48	4
NMTAP	107	96	4
NMTAP	107	144	3
NMTAP	107	192	3
NMSTR	107	240	5
NMSCR	107	240	5	96	192	2
NMTAP	107	288	5
EXTAP	107	336	2
NMTAP	108	240	0
NMTAP	108	288	0
NMTAP	108	336	7
NMTAP	109	0	7
NMTAP	109	48	0
NMTAP	109	96	6
BRTAP	109	144	1
BRTAP	109	144	5

T_REC_TAP	265
T_REC_BRK	29
T_REC_XTP	24
T_REC_BXX	7
T_REC_HLD	71
T_REC_XHO	3
T_REC_BHO	3
T_REC_BXH	1
T_REC_STR	46
T_REC_BST	1
T_REC_XST	3
T_REC_XBS	0
T_REC_TTP	12
T_REC_THO	1
T_REC_SLD	50
T_REC_BSL	2
T_REC_ALL	518
T_NUM_TAP	350
T_NUM_BRK	43
T_NUM_HLD	75
T_NUM_SLD	50
T_NUM_ALL	518
T_JUDGE_TAP	387
T_JUDGE_HLD	348
T_JUDGE_SLD	52
T_JUDGE_ALL	787
TTM_EACHPAIRS	120
TTM_SCR_TAP	175000
TTM_SCR_BRK	111800
TTM_SCR_HLD	75000
TTM_SCR_SLD	75000
TTM_SCR_ALL	436800
TTM_SCR_S	419550
TTM_SCR_SS	432500
TTM_RAT_ACV	10099

