VERSION	0.00.00	1.04.00
FES_MODE	0
BPM_DEF	170.000	170.000	170.000	170.000
MET_DEF	4	4
RESOLUTION	384
CLK_DEF	576
COMPATIBLE_CODE	MA2

BPM	0	0	170.000
MET	0	0	4	3
MET	48	288	4	4
MET	50	288	4	7
MET	52	192	4	4
MET	54	192	4	7
MET	56	96	4	4
MET	58	96	4	7
MET	60	0	4	4
MET	62	0	4	7
MET	63	288	4	4
MET	69	288	4	5
MET	72	96	8	6
MET	73	288	8	5
MET	74	144	4	4
MET	79	144	4	2
MET	79	336	4	7
MET	81	240	4	4
MET	83	240	4	7
MET	85	144	4	4
MET	87	144	4	7
MET	89	48	4	4
MET	91	48	4	7
MET	92	336	4	4
MET	94	336	4	7
MET	96	240	4	3

NMTAP	2	96	2
NMTAP	2	192	2
NMTAP	3	0	1
NMTAP	3	96	1
NMTAP	3	288	0
NMTAP	4	0	0
NMTAP	4	192	6
NMTAP	4	192	7
NMTAP	5	96	5
NMTAP	5	192	5
NMTAP	6	0	6
NMTAP	6	96	6
NMTAP	6	288	7
NMTAP	7	0	7
NMTAP	7	192	0
NMTAP	7	192	1
NMTAP	8	96	1
NMTAP	8	192	1
NMTAP	9	0	2
NMTAP	9	96	2
NMTAP	9	288	3
NMTAP	10	0	3
NMTAP	10	192	4
NMTAP	10	192	5
NMTAP	11	96	6
NMTAP	11	192	6
NMTAP	12	0	5
NMTAP	12	96	5
EXHLD	12	288	3	288
EXHLD	12	288	4	288
NMHLD	14	96	5	288
NMHLD	15	0	4	288
NMHLD	15	288	3	288
NMTAP	16	192	2
NMHLD	17	96	2	288
NMHLD	18	0	3	288
NMHLD	18	288	4	288
NMTAP	19	192	5
NMHLD	20	96	6	288
NMHLD	21	0	5	288
NMHLD	21	288	4	288
NMTAP	22	192	3
NMTAP	23	96	2
NMTAP	23	96	3
NMTAP	23	192	2
NMTAP	23	192	3
NMTAP	24	0	4
NMTAP	24	0	5
NMTAP	24	96	4
NMTAP	24	96	5
EXHLD	24	288	3	288
EXHLD	24	288	4	288
NMTAP	26	96	2
NMTAP	26	192	2
NMTAP	26	288	2
NMTAP	27	0	2
NMTAP	27	0	3
NMTAP	27	96	2
NMTAP	27	96	3
NMTAP	27	288	1
NMTAP	28	0	1
NMTAP	28	96	1
NMTAP	28	192	0
NMTAP	28	192	1
NMTAP	28	288	0
NMTAP	28	288	1
NMTAP	29	96	6
NMTAP	29	192	6
NMTAP	29	288	6
NMTAP	30	0	6
NMTAP	30	0	7
NMTAP	30	96	6
NMTAP	30	96	7
NMTAP	30	288	5
NMTAP	31	0	5
NMTAP	31	96	5
NMTAP	31	192	4
NMTAP	31	192	5
NMTAP	31	288	4
NMTAP	31	288	5
NMTAP	32	96	5
NMTAP	32	192	5
NMTAP	32	288	5
NMTAP	33	0	6
NMTAP	33	96	6
NMTAP	33	192	6
NMTAP	33	288	7
NMTAP	34	0	7
NMTAP	34	96	7
NMTAP	34	192	0
NMTAP	34	288	0
NMTAP	35	0	0
NMTAP	35	96	1
NMTAP	35	192	1
NMTAP	35	288	1
NMTAP	36	0	2
NMTAP	36	96	2
NMTAP	36	192	2
EXHLD	36	288	3	864
EXHLD	36	288	4	864
NMTTP	39	288	1	B	0	L1
NMTTP	40	0	2	B	0	L1
NMTTP	40	192	6	B	0	L1
NMTTP	40	288	5	B	0	L1
NMTTP	41	96	0	B	0	L1
NMTTP	41	192	1	B	0	L1
NMTTP	42	0	7	B	0	L1
NMTTP	42	96	6	B	0	L1
NMTTP	42	288	1	B	0	L1
NMTTP	43	0	2	B	0	L1
NMTTP	43	0	3	B	0	L1
NMTTP	43	192	6	B	0	L1
NMTTP	43	288	4	B	0	L1
NMTTP	43	288	5	B	0	L1
NMTTP	44	96	0	B	0	L1
NMTTP	44	96	1	B	0	L1
NMTTP	44	192	2	B	0	L1
NMTTP	44	192	3	B	0	L1
NMTTP	45	0	6	B	0	L1
NMTTP	45	0	7	B	0	L1
NMTTP	45	96	4	B	0	L1
NMTTP	45	96	5	B	0	L1
NMTTP	45	288	1	B	0	L1
NMTTP	46	0	2	B	0	L1
NMTTP	46	96	3	B	0	L1
NMTTP	46	192	4	B	0	L1
NMTTP	46	288	5	B	0	L1
NMTTP	47	0	6	B	0	L1
NMTHO	47	96	0	960	C	1	L1
EXTAP	50	288	7
NMTAP	51	0	7
NMTAP	51	96	6
NMTAP	51	96	7
NMTAP	51	192	5
NMTAP	51	288	5
NMTAP	52	0	4
NMTAP	52	0	5
NMTAP	52	96	3
NMTAP	52	192	3
NMTAP	52	288	2
NMTAP	52	288	3
NMTAP	53	0	1
NMTAP	53	96	1
NMTAP	53	192	0
NMTAP	53	192	1
NMTAP	53	288	6
NMTAP	53	288	7
NMTAP	54	0	6
NMTAP	54	0	7
NMTAP	54	192	0
NMTAP	54	288	0
NMTAP	55	0	0
NMTAP	55	0	1
NMTAP	55	96	2
NMTAP	55	192	2
NMTAP	55	288	2
NMTAP	55	288	3
NMTAP	56	0	4
NMTAP	56	96	4
NMTAP	56	192	4
NMTAP	56	192	5
NMTAP	56	288	6
NMTAP	57	0	6
NMTAP	57	96	6
NMTAP	57	96	7
NMTAP	57	192	0
NMTAP	57	192	1
NMTAP	57	288	0
NMTAP	57	288	1
NMTAP	58	96	7
NMTAP	58	192	7
NMTAP	58	288	6
NMTAP	58	288	7
NMTAP	59	0	5
NMTAP	59	96	5
NMTAP	59	192	4
NMTAP	59	192	5
NMTAP	59	288	3
NMTAP	60	0	3
NMTAP	60	96	2
NMTAP	60	96	3
NMTAP	60	192	1
NMTAP	60	288	1
NMTAP	61	0	0
NMTAP	61	0	1
NMTAP	61	96	6
NMTAP	61	96	7
NMTAP	61	192	6
NMTAP	61	192	7
NMTAP	62	0	0
NMTAP	62	96	0
NMTAP	62	192	0
NMTAP	62	192	1
NMTAP	62	288	2
NMTAP	63	0	2
NMTAP	63	96	2
NMTAP	63	96	3
NMTAP	63	192	4
NMTAP	63	288	4
NMTAP	64	0	4
NMTAP	64	0	5
NMTAP	64	96	6
NMTAP	64	192	6
NMTAP	64	288	6
NMTAP	64	288	7
NMTAP	65	0	0
NMTAP	65	0	1
BRTAP	65	96	0
BRTAP	65	96	1
NMSTR	65	288	1
NMSSR	65	288	1	96	288	5
NMSTR	68	288	6
NMSSL	68	288	6	96	288	2
EXTAP	70	192	1
EXTAP	70	288	1
EXTAP	71	0	1
NMTAP	71	96	2
NMTAP	71	192	2
NMTAP	71	288	2
NMTAP	72	0	3
NMTAP	72	0	4
NMTAP	72	96	5
NMTAP	72	192	5
NMTAP	72	288	5
NMTAP	73	0	6
NMTAP	73	96	6
NMTAP	73	192	6
BXTAP	73	288	0
BXTAP	73	288	7
NMTAP	74	144	6
NMTAP	74	240	6
NMTAP	74	336	6
NMTAP	75	48	6
NMTAP	75	48	7
NMTAP	75	144	5
NMTAP	75	240	5
NMTAP	75	336	5
NMTAP	76	48	4
NMTAP	76	48	5
NMTAP	76	144	2
NMTAP	76	240	2
NMTAP	76	336	2
NMTAP	77	48	2
NMTAP	77	48	3
NMTAP	77	144	1
NMTAP	77	240	1
NMTAP	77	336	1
NMTAP	78	48	0
NMTAP	78	48	1
NMTAP	78	144	0
NMTAP	78	144	7
NMTAP	78	240	0
NMTAP	78	240	7
NMTAP	78	336	1
NMTAP	78	336	6
NMTAP	79	48	2
NMTAP	79	48	5
BRTAP	79	144	3
BRTAP	79	144	4
NMTAP	79	336	4
NMTAP	80	48	4
NMTAP	80	144	3
NMTAP	80	144	5
NMTAP	80	240	6
NMTAP	80	336	6
NMTAP	81	48	5
NMTAP	81	48	7
NMTAP	81	144	0
NMTAP	81	240	0
NMTAP	81	336	1
NMTAP	81	336	7
NMTAP	82	48	2
NMTAP	82	144	2
NMTAP	82	240	1
NMTAP	82	240	3
NMTAP	82	336	4
NMTAP	82	336	6
NMTAP	83	48	4
NMTAP	83	48	6
NMTAP	83	240	3
NMTAP	83	336	3
NMTAP	84	48	2
NMTAP	84	48	4
NMTAP	84	144	1
NMTAP	84	240	1
NMTAP	84	336	0
NMTAP	84	336	2
NMTAP	85	48	7
NMTAP	85	144	7
NMTAP	85	240	0
NMTAP	85	240	6
NMTAP	85	336	5
NMTAP	86	48	5
NMTAP	86	144	4
NMTAP	86	144	6
NMTAP	86	240	1
NMTAP	86	240	3
NMTAP	86	336	1
NMTAP	86	336	3
NMTAP	87	144	4
NMTAP	87	240	4
NMTAP	87	336	3
NMTAP	87	336	5
NMTAP	88	48	6
NMTAP	88	144	6
NMTAP	88	240	5
NMTAP	88	240	7
NMTAP	88	336	0
NMTAP	89	48	0
NMTAP	89	144	1
NMTAP	89	144	7
NMTAP	89	240	2
NMTAP	89	336	2
NMTAP	90	48	1
NMTAP	90	48	3
NMTAP	90	144	4
NMTAP	90	144	6
NMTAP	90	240	4
NMTAP	90	240	6
NMTAP	91	48	3
NMTAP	91	144	3
NMTAP	91	240	2
NMTAP	91	240	4
NMTAP	91	336	1
NMTAP	92	48	1
NMTAP	92	144	0
NMTAP	92	144	2
NMTAP	92	240	7
NMTAP	92	336	7
NMTAP	93	48	0
NMTAP	93	48	6
NMTAP	93	144	5
NMTAP	93	240	5
NMTAP	93	336	4
NMTAP	93	336	6
NMTAP	94	48	1
NMTAP	94	48	3
NMTAP	94	144	1
NMTAP	94	144	3
NMTAP	94	336	4
NMTAP	94	336	5
NMTAP	95	48	6
NMTAP	95	48	7
NMTAP	95	144	0
NMTAP	95	144	1
NMTAP	95	240	2
NMTAP	95	240	3
EXTAP	95	336	4
NMTAP	96	48	4
NMTAP	96	144	4
NMTAP	96	144	5
EXTAP	96	240	3
NMTAP	96	336	3
NMTAP	97	48	2
NMTAP	97	48	3
NMHLD	97	144	1	288
NMHLD	98	48	0	288
NMHLD	98	336	7	288
NMTAP	99	240	6
NMHLD	100	144	6	288
NMHLD	101	48	7	288
NMHLD	101	336	0	288
NMTAP	102	240	1
NMHLD	103	144	1	288
NMHLD	104	48	2	288
NMHLD	104	336	3	288
NMHLD	105	240	4	288
NMHLD	106	144	5	288
NMTAP	107	48	6
NMHLD	107	336	0	576
NMHLD	107	336	7	576

T_REC_TAP	298
T_REC_BRK	4
T_REC_XTP	6
T_REC_BXX	2
T_REC_HLD	22
T_REC_XHO	6
T_REC_BHO	0
T_REC_BXH	0
T_REC_STR	2
T_REC_BST	0
T_REC_XST	0
T_REC_XBS	0
T_REC_TTP	28
T_REC_THO	1
T_REC_SLD	2
T_REC_BSL	0
T_REC_ALL	371
T_NUM_TAP	334
T_NUM_BRK	6
T_NUM_HLD	29
T_NUM_SLD	2
T_NUM_ALL	371
T_JUDGE_TAP	340
T_JUDGE_HLD	224
T_JUDGE_SLD	2
T_JUDGE_ALL	566
TTM_EACHPAIRS	84
TTM_SCR_TAP	167000
TTM_SCR_BRK	15600
TTM_SCR_HLD	29000
TTM_SCR_SLD	3000
TTM_SCR_ALL	214600
TTM_SCR_S	207600
TTM_SCR_SS	214000
TTM_RAT_ACV	10028

