VERSION	0.00.00	1.04.00
FES_MODE	0
BPM_DEF	170.000	170.000	170.000	170.000
MET_DEF	4	4
RESOLUTION	384
CLK_DEF	576
COMPATIBLE_CODE	MA2

BPM	0	0	170.000
MET	0	0	4	3
MET	48	288	4	4
MET	50	288	4	7
MET	52	192	4	4
MET	54	192	4	7
MET	56	96	4	4
MET	58	96	4	7
MET	60	0	4	4
MET	62	0	4	7
MET	63	288	4	4
MET	69	288	4	5
MET	72	96	8	6
MET	73	288	8	5
MET	74	144	4	4
MET	79	144	4	2
MET	79	336	4	7
MET	81	240	4	4
MET	83	240	4	7
MET	85	144	4	4
MET	87	144	4	7
MET	89	48	4	4
MET	91	48	4	7
MET	92	336	4	4
MET	94	336	4	7
MET	96	240	4	3

NMHLD	2	96	3	576
NMTAP	5	96	3
NMTAP	6	0	3
NMTAP	6	288	3
NMTAP	6	288	4
NMHLD	8	96	4	576
NMTAP	11	96	4
NMTAP	12	0	4
EXTAP	12	288	3
EXTAP	12	288	4
NMTAP	14	96	3
NMTAP	15	0	3
NMTAP	15	288	2
NMTAP	16	192	2
NMTAP	17	96	1
NMTAP	18	0	1
NMTAP	18	288	0
NMTAP	18	288	7
NMTAP	20	96	7
NMTAP	21	0	7
NMTAP	21	288	6
NMTAP	22	192	6
NMTAP	23	96	5
NMTAP	24	0	5
EXTAP	24	288	3
EXTAP	24	288	4
NMHLD	26	96	4	288
NMHLD	26	96	5	288
NMHLD	27	288	6	288
NMHLD	27	288	7	288
NMHLD	29	96	0	288
NMHLD	29	96	1	288
NMHLD	30	288	2	288
NMHLD	30	288	3	288
NMTAP	32	96	3
NMTAP	32	192	3
NMTAP	33	0	2
NMTAP	33	0	3
NMTAP	33	288	1
NMTAP	34	0	1
NMTAP	34	192	0
NMTAP	34	192	1
NMTAP	35	96	6
NMTAP	35	192	6
NMTAP	36	0	6
NMTAP	36	0	7
NMTAP	36	288	5
NMTAP	37	0	5
NMTAP	37	192	4
NMTAP	37	192	5
NMTAP	38	96	3
NMTAP	38	192	3
NMTAP	39	0	3
NMTAP	39	0	4
BRTAP	39	288	4
NMTAP	40	0	4
NMTAP	40	192	5
NMTAP	40	288	5
NMTAP	41	96	6
NMTAP	41	192	6
NMTAP	42	0	0
NMTAP	42	0	7
NMTAP	42	96	0
NMTAP	42	96	7
NMTAP	42	288	1
NMTAP	43	0	1
NMTAP	43	192	2
NMTAP	43	288	2
NMTAP	44	96	3
NMTAP	44	192	3
NMTAP	45	0	3
NMTAP	45	0	4
NMTTP	45	288	3	B	0	L1
NMTTP	46	192	4	B	0	L1
NMTTP	47	96	2	B	0	L1
NMTTP	48	0	5	B	0	L1
NMTHO	48	288	0	384	C	0	L1
BRTAP	50	288	7
NMTAP	51	0	7
NMTAP	51	192	6
NMTAP	51	288	6
NMTAP	52	96	5
EXTAP	52	192	5
EXTAP	53	0	3
EXTAP	53	0	4
EXTAP	53	96	3
EXTAP	53	96	4
EXTAP	53	192	3
EXTAP	53	192	4
BRTAP	54	192	3
NMTAP	54	288	3
NMTAP	55	96	2
NMTAP	55	192	2
NMTAP	56	0	1
NMTAP	56	96	1
EXTAP	56	288	0
EXTAP	56	288	7
EXTAP	57	0	0
EXTAP	57	0	7
EXTAP	57	96	0
EXTAP	57	96	7
NMTAP	58	96	0
NMTAP	58	192	0
NMTAP	59	0	1
NMTAP	59	96	1
NMTAP	59	288	2
NMTAP	60	0	2
EXTAP	60	192	2
EXTAP	60	192	3
EXTAP	60	288	2
EXTAP	60	288	3
EXTAP	61	0	2
EXTAP	61	0	3
NMTAP	62	0	4
NMTAP	62	96	4
NMTAP	62	288	5
NMTAP	63	0	5
NMTAP	63	192	6
EXTAP	63	288	6
EXTAP	64	96	6
EXTAP	64	96	7
EXTAP	64	192	6
EXTAP	64	192	7
EXTAP	64	288	6
EXTAP	64	288	7
NMSTR	65	288	0
NMSI_	65	288	0	96	288	3
NMSTR	67	288	7
NMSI_	67	288	7	96	288	4
NMHLD	69	288	3	480
NMHLD	69	288	4	480
NMSTR	72	96	4
NMSI_	72	96	4	96	288	7
EXSTR	74	144	0
NMSI_	74	144	0	96	288	3
NMTTP	76	144	3	B	0	L1
NMTTP	76	144	4	B	0	L1
NMTTP	77	144	2	B	0	L1
NMTTP	77	144	5	B	0	L1
NMTTP	78	144	0	C	1	L1
NMTTP	78	144	1	B	0	L1
NMTTP	78	144	6	B	0	L1
EXTAP	79	336	7
EXTAP	80	48	7
NMTAP	80	240	6
NMTAP	80	240	7
NMTAP	80	336	6
NMTAP	80	336	7
NMTAP	81	144	5
NMTAP	81	240	5
NMTAP	82	48	3
NMTAP	82	48	4
NMTAP	82	144	3
NMTAP	82	144	4
NMTAP	82	336	3
NMTAP	83	48	3
NMTAP	83	240	2
NMTAP	83	240	3
NMTAP	83	336	2
NMTAP	83	336	3
NMTAP	84	144	1
NMTAP	84	240	1
NMTAP	85	48	0
NMTAP	85	48	7
NMTAP	85	144	0
NMTAP	85	144	7
NMTAP	85	336	1
NMTAP	86	48	1
NMTAP	86	240	2
NMTAP	86	240	3
NMTAP	86	336	2
NMTAP	86	336	3
BRTAP	87	144	4
NMTAP	87	240	4
NMTAP	87	336	4
NMTAP	88	48	3
NMTAP	88	48	4
NMTAP	88	240	5
NMTAP	88	336	5
NMTAP	89	48	5
NMTAP	89	144	4
NMTAP	89	144	5
NMTAP	89	336	6
NMTAP	90	48	6
NMTAP	90	144	6
NMTAP	90	240	6
NMTAP	90	240	7
NMTAP	91	48	0
NMTAP	91	144	0
NMTAP	91	240	0
NMTAP	91	336	0
NMTAP	91	336	7
EXTAP	92	144	0
EXTAP	92	144	7
EXSTR	92	240	0
NMSI_	92	240	0	96	288	3
EXSTR	92	240	7
NMSI_	92	240	7	96	288	4
EXTAP	94	336	4
EXTAP	95	48	4
EXTAP	95	144	3
EXTAP	95	240	3
NMTAP	95	336	3
NMTAP	95	336	4
NMTAP	96	48	3
NMTAP	96	48	4
NMTAP	96	144	3
NMTAP	96	144	4
BRTAP	96	240	3
BRTAP	96	240	4
NMSTR	97	144	3
NMSI_	97	144	3	96	336	0
NMTAP	100	144	7
NMTAP	100	240	7
NMTAP	101	48	6
NMTAP	101	48	7
NMTAP	101	144	6
NMTAP	101	144	7
NMTAP	101	336	5
NMTAP	102	48	5
NMTAP	102	240	4
NMTAP	102	240	5
NMTAP	102	336	4
NMTAP	102	336	5
NMTAP	103	144	3
NMTAP	103	240	3
NMTAP	104	48	2
NMTAP	104	48	3
NMTAP	104	144	2
NMTAP	104	144	3
NMTAP	104	336	1
NMTAP	105	48	1
NMTAP	105	240	0
NMTAP	105	240	1
NMTAP	105	336	0
NMTAP	105	336	1
NMTAP	106	144	7
NMTAP	106	240	7
NMTAP	106	336	7
NMTAP	107	48	0
NMTAP	107	144	0
NMTAP	107	240	0
EXHLD	107	336	0	288
EXHLD	107	336	7	288
BXTAP	109	144	1
BXTAP	109	144	6

T_REC_TAP	160
T_REC_BRK	6
T_REC_XTP	38
T_REC_BXX	2
T_REC_HLD	12
T_REC_XHO	2
T_REC_BHO	0
T_REC_BXH	0
T_REC_STR	4
T_REC_BST	0
T_REC_XST	3
T_REC_XBS	0
T_REC_TTP	11
T_REC_THO	1
T_REC_SLD	7
T_REC_BSL	0
T_REC_ALL	246
T_NUM_TAP	216
T_NUM_BRK	8
T_NUM_HLD	15
T_NUM_SLD	7
T_NUM_ALL	246
T_JUDGE_TAP	224
T_JUDGE_HLD	112
T_JUDGE_SLD	7
T_JUDGE_ALL	343
TTM_EACHPAIRS	59
TTM_SCR_TAP	108000
TTM_SCR_BRK	20800
TTM_SCR_HLD	15000
TTM_SCR_SLD	10500
TTM_SCR_ALL	154300
TTM_SCR_S	148900
TTM_SCR_SS	153500
TTM_RAT_ACV	10052

