VERSION	0.00.00	1.04.00
FES_MODE	0
BPM_DEF	188.000	188.000	188.000	188.000
MET_DEF	4	4
RESOLUTION	384
CLK_DEF	384
COMPATIBLE_CODE	MA2

BPM	0	0	188.000
MET	0	0	4	4

NMSTR	2	0	0
NMSXL	2	0	0	96	144	1
NMSTR	2	96	6
NMSXR	2	96	6	96	144	5
NMSTR	2	336	1
NMSCR	2	336	1	96	144	4
NMTAP	3	96	5
NMTTP	3	192	7	E	0	M1
NMSTR	3	336	6
NMSCL	3	336	6	96	144	3
NMTAP	4	96	2
NMTTP	4	192	1	E	0	M1
NMTAP	4	336	3
NMTAP	4	336	5
NMTAP	5	48	3
NMTAP	5	48	5
NMSTR	5	96	4
NMSI_	5	96	4	96	288	7
NMSUR	5	96	4	96	288	0
EXSTR	6	192	1
BRSI_	6	192	1	96	24	5
EXTAP	6	216	0
EXTAP	6	240	1
EXTAP	6	264	0
NMTTP	6	300	0	C	0	M1
EXTAP	7	0	6
EXTAP	7	0	7
NMTAP	7	96	1
NMTAP	7	96	7
NMTAP	7	192	2
NMTAP	7	192	3
NMTAP	7	240	4
NMTAP	7	288	2
NMTAP	7	288	3
NMTAP	7	336	1
NMTAP	8	0	0
NMTAP	8	0	7
NMTAP	8	96	4
NMTAP	8	96	6
NMTAP	8	192	3
NMTAP	8	192	4
NMTAP	8	240	2
NMTAP	8	288	3
NMTAP	8	288	4
NMTAP	8	336	5
NMTAP	9	0	6
NMTAP	9	0	7
NMTAP	9	96	0
NMTAP	9	96	2
NMTAP	9	192	3
NMTAP	9	192	4
NMTAP	9	240	5
NMTAP	9	288	3
NMTAP	9	288	4
NMTAP	9	336	2
NMSTR	10	0	1
NMSI_	10	0	1	96	48	3
NMSTR	10	48	4
NMSI_	10	48	4	96	48	0
NMTAP	10	96	1
NMTAP	10	144	4
NMTAP	10	240	2
EXSTR	10	288	2
NMSCL	10	288	2	96	192	3
EXTAP	10	288	7
NMTTP	11	0	0	C	1	M1
NMTAP	11	288	2
NMTAP	11	288	4
NMTAP	12	0	0
NMTAP	12	0	1
NMTAP	12	96	5
NMTAP	12	96	7
NMTAP	12	192	3
NMTAP	12	192	4
NMTAP	12	240	2
NMTAP	12	288	3
NMTAP	12	288	4
NMTAP	12	336	5
NMTAP	13	0	6
NMTAP	13	0	7
NMTAP	13	96	0
NMTAP	13	96	2
NMTAP	13	192	3
NMTAP	13	192	4
NMTAP	13	240	5
NMTAP	13	288	3
NMTAP	13	288	4
NMTAP	13	336	2
NMTAP	14	0	1
NMTAP	14	0	3
NMTAP	14	48	2
NMTAP	14	96	4
NMTAP	14	96	6
NMTAP	14	144	5
BRTAP	14	192	0
BRTAP	14	192	7
EXTAP	15	0	2
EXTAP	15	0	3
EXHLD	15	48	2	576
EXHLD	15	48	3	144
NMTTP	15	336	2	B	0	M1
NMTTP	16	48	3	B	0	M1
NMTTP	16	144	3	E	0	M1
NMTAP	16	336	3
NMTAP	16	336	4
NMHLD	17	48	4	144
NMHLD	17	48	6	144
NMTAP	17	336	0
NMTAP	17	336	7
NMHLD	18	48	0	96
NMHLD	18	48	6	96
NMSTR	18	192	1
NMSI_	18	192	1	96	48	4
NMSTR	18	192	7
NMSI_	18	192	7	96	48	4
EXTAP	19	0	3
EXTAP	19	0	5
EXHLD	19	48	3	144
EXHLD	19	48	5	576
NMTTP	19	336	5	B	0	M1
NMTTP	20	48	4	B	0	M1
NMTTP	20	144	5	E	0	M1
NMTAP	20	336	3
NMTAP	20	336	4
NMHLD	21	48	1	144
NMHLD	21	48	3	144
NMTAP	21	336	0
NMTAP	21	336	7
NMHLD	22	48	2	96
NMHLD	22	48	6	96
NMTAP	22	192	1
NMTAP	22	192	7
NMSTR	22	240	1
NMSCL	22	240	1	96	144	6
NMTAP	22	240	7
BXTAP	22	336	1
BXTAP	22	336	6
NMHLD	23	96	5	96
NMTAP	23	192	4
NMTAP	23	240	4
NMSTR	23	240	6
NMSCR	23	240	6	96	144	1
NMTAP	23	336	3
NMHLD	24	96	2	96
NMTAP	24	192	3
NMSTR	24	240	1
NMSUR	24	240	1	96	144	6
NMTAP	24	240	3
NMTAP	24	336	4
NMTAP	25	48	4
NMHLD	25	96	4	96
NMTAP	25	192	7
NMTAP	25	240	7
NMTAP	25	336	0
NMHLD	25	336	5	96
NMTTP	26	48	0	E	0	M1
NMTTP	26	72	1	E	0	M1
NMTTP	26	96	2	E	0	M1
NMTAP	26	144	4
NMTAP	26	192	3
NMTAP	26	240	2
NMTAP	26	240	4
EXTAP	26	336	1
EXTAP	26	336	5
NMTAP	27	48	3
NMTAP	27	96	3
NMTAP	27	96	4
NMTAP	27	192	3
NMTAP	27	192	4
NMSTR	27	240	2
NMSXR	27	240	2	96	144	7
NMTAP	27	240	5
EXTAP	27	336	7
NMTAP	28	48	6
NMTAP	28	96	6
NMTAP	28	192	0
NMTAP	28	192	5
BRTAP	28	240	0
BRTAP	28	240	5
EXTAP	29	0	2
EXTAP	29	0	3
EXHLD	29	48	2	192
NMTAP	29	96	3
NMTAP	29	192	3
NMTAP	29	288	3
NMTTP	29	336	2	A	0	M1
NMTAP	30	0	3
NMTTP	30	48	2	B	0	M1
NMTAP	30	96	3
NMTTP	30	144	2	E	0	M1
NMTAP	30	192	3
NMTAP	30	288	3
NMTAP	30	336	1
NMTAP	31	0	3
NMHLD	31	48	0	192
NMTAP	31	96	3
NMTAP	31	192	3
NMTAP	31	288	3
NMTTP	31	336	7	B	0	M1
NMTTP	31	336	7	E	0	M1
NMTTP	31	336	7	A	0	M1
NMTAP	32	0	3
NMTTP	32	48	0	B	0	M1
NMTTP	32	48	0	A	0	M1
NMTTP	32	48	1	E	0	M1
NMTAP	32	96	3
NMHLD	32	192	2	96
NMSTR	32	192	3
NMSI_	32	192	3	96	24	5
EXTAP	33	0	4
EXTAP	33	0	5
EXHLD	33	48	5	192
NMTAP	33	96	4
NMTAP	33	192	4
NMTAP	33	288	4
NMTTP	33	336	5	A	0	M1
NMTAP	34	0	4
NMTTP	34	48	5	B	0	M1
NMTAP	34	96	4
NMTTP	34	144	6	E	0	M1
NMTAP	34	192	4
NMTAP	34	288	4
NMTAP	34	336	6
NMTAP	35	0	4
NMHLD	35	48	7	192
NMTAP	35	96	4
NMTAP	35	192	4
NMTAP	35	288	4
NMTTP	35	336	0	B	0	M1
NMTTP	35	336	0	A	0	M1
NMTTP	35	336	1	E	0	M1
NMTAP	36	0	4
NMTTP	36	48	7	B	0	M1
NMTTP	36	48	7	E	0	M1
NMTTP	36	48	7	A	0	M1
NMTAP	36	96	4
NMTAP	36	192	4
NMTAP	36	192	5
NMTAP	36	240	3
NMSTR	36	240	6
NMSCR	36	240	6	96	144	1
BXTAP	36	336	1
BXTAP	36	336	6
NMHLD	37	96	2	96
NMTAP	37	192	3
NMSTR	37	240	1
NMSCL	37	240	1	96	144	6
NMTAP	37	240	3
NMTAP	37	336	4
NMHLD	38	96	5	96
NMTAP	38	192	4
NMTAP	38	240	4
NMSTR	38	240	6
NMSUL	38	240	6	96	144	1
NMTAP	38	336	3
NMTAP	39	48	3
NMHLD	39	96	3	96
NMTAP	39	192	0
NMTAP	39	240	0
NMHLD	39	336	2	96
NMTAP	39	336	7
NMTTP	40	48	0	E	0	M1
NMTTP	40	72	7	E	0	M1
NMTTP	40	96	6	E	0	M1
NMTAP	40	144	3
NMTAP	40	192	4
NMTAP	40	240	3
NMTAP	40	240	5
EXTAP	40	336	2
EXTAP	40	336	6
NMTAP	41	48	3
NMTAP	41	96	3
NMTAP	41	96	4
NMTAP	41	192	3
NMTAP	41	192	4
NMTAP	41	240	2
NMSTR	41	240	5
NMSXL	41	240	5	96	144	0
EXTAP	41	336	0
NMTAP	42	48	1
NMTAP	42	96	1
NMTAP	42	192	2
NMTAP	42	192	7
BRTAP	42	240	2
BRTAP	42	240	7
EXTAP	42	336	0
EXHLD	42	336	5	96
NMTAP	43	48	1
NMTAP	43	96	2
NMTAP	43	96	4
NMTAP	43	144	5
NMTAP	43	192	3
NMTAP	43	192	6
NMTAP	43	240	2
NMTAP	43	288	1
NMTAP	43	288	5
NMTAP	43	336	1
NMHLD	43	336	5	96
NMTAP	44	48	2
NMTAP	44	96	2
NMTAP	44	96	6
NMTAP	44	144	1
NMTAP	44	144	7
BRSTR	44	192	0
NMSUL	44	192	0	96	48	4
NMSUR	44	192	0	96	48	4
NMHLD	45	0	5	96
NMTAP	45	96	4
NMTAP	45	192	1
NMTAP	45	192	6
NMTAP	45	240	1
NMSTR	45	240	6
NMSCR	45	240	6	96	96	1
EXTAP	45	336	3
CNSV_	46	48	1	0	144	3
NMTAP	46	96	2
NMHLD	46	192	2	96
NMTAP	46	288	4
NMHLD	46	336	5	96
NMHLD	47	48	7	432
NMTAP	47	144	5
NMTAP	47	192	5
NMSTR	47	240	4
NMSCR	47	240	4	96	240	3
BRTAP	48	192	0
NMTAP	49	0	3
NMTAP	49	0	5
NMTAP	49	48	2
NMTAP	49	96	3
NMTAP	49	96	5
NMTAP	49	144	6
NMTAP	49	192	3
NMTAP	49	192	5
NMTAP	49	240	2
NMTAP	49	288	3
NMTAP	49	288	5
NMTAP	49	336	6
NMTAP	50	0	3
NMTAP	50	24	4
NMTAP	50	48	3
NMTAP	50	72	4
NMTAP	50	96	2
NMTAP	50	120	4
NMTAP	50	144	2
NMTAP	50	168	4
NMTAP	50	192	1
NMTAP	50	216	4
NMTAP	50	240	1
NMTAP	50	264	4
NMTAP	50	288	0
NMTAP	50	312	4
NMTAP	50	336	0
NMTAP	50	360	4
BXTAP	51	0	5
BXTAP	51	0	7
BXTAP	51	144	0
BXTAP	51	144	2
BXSTR	51	288	1
NMSCL	51	288	1	96	144	5
BXSTR	51	288	6
NMSCR	51	288	6	96	144	2
NMTAP	52	192	3
NMTAP	52	192	4
NMSTR	52	288	1
NMSXL	52	288	1	96	48	3
EXTAP	53	0	1
EXSTR	53	0	7
NMSXR	53	0	7	96	48	5
EXTAP	53	96	1
EXTAP	53	96	7
NMTAP	53	192	1
NMTAP	53	240	2
NMSTR	53	240	5
NMSCR	53	240	5	96	48	0
NMTAP	53	288	4
EXTAP	53	336	3
EXTAP	53	336	5
NMTAP	54	48	1
NMTAP	54	72	0
NMHLD	54	96	2	48
NMTAP	54	144	0
NMTAP	54	168	1
NMHLD	54	192	7	48
NMSTR	54	240	0
NMSCR	54	240	0	96	48	3
NMTAP	54	288	6
NMTAP	54	288	7
EXTAP	54	336	0
EXTAP	54	336	5
NMTAP	55	48	5
NMTAP	55	72	4
NMHLD	55	96	6	48
NMTAP	55	144	4
NMTAP	55	168	5
NMTAP	55	192	3
NMTAP	55	240	4
NMTAP	55	240	6
NMTAP	55	288	3
NMTAP	55	288	7
EXSTR	55	336	0
NMSI_	55	336	0	96	48	4
EXTAP	55	336	2
EXTAP	56	48	0
EXTAP	56	48	6
NMTAP	56	96	5
NMTAP	56	144	3
NMSTR	56	192	1
NMSI_	56	192	1	96	48	4
NMSTR	56	192	7
NMSI_	56	192	7	96	48	4
NMHLD	57	0	4	48
NMTAP	57	0	5
NMTAP	57	48	6
NMTAP	57	96	2
NMHLD	57	96	3	48
NMTAP	57	144	1
NMHLD	57	192	4	48
NMTAP	57	192	5
NMTAP	57	240	7
NMTAP	57	288	2
NMHLD	57	288	3	48
NMTAP	57	336	0
NMTAP	58	0	4
NMTAP	58	48	3
NMTAP	58	48	5
NMTAP	58	96	2
NMTAP	58	96	6
EXTAP	58	144	1
EXTAP	58	144	7
NMTAP	58	240	3
NMTAP	58	240	4
NMTAP	58	288	3
NMSTR	58	288	4
NMSXL	58	288	4	96	48	6
EXSTR	59	0	3
NMSXR	59	0	3	96	48	1
EXTAP	59	0	4
EXTAP	59	96	3
EXTAP	59	96	4
NMTAP	59	192	6
NMSTR	59	240	2
NMSCL	59	240	2	96	48	7
NMTAP	59	240	5
NMTAP	59	288	3
EXTAP	59	336	2
EXTAP	59	336	4
NMTAP	60	48	6
NMTAP	60	72	7
NMHLD	60	96	5	48
NMTAP	60	144	7
NMTAP	60	168	6
NMHLD	60	192	0	48
NMSTR	60	240	7
NMSCL	60	240	7	96	48	4
NMTAP	60	288	0
NMTAP	60	288	1
EXTAP	60	336	2
EXTAP	60	336	7
NMTAP	61	48	2
NMTAP	61	72	3
NMHLD	61	96	1	48
NMTAP	61	144	3
NMTAP	61	168	2
NMTAP	61	192	4
NMTAP	61	240	1
NMTAP	61	240	3
NMTAP	61	288	0
NMTAP	61	288	4
EXTAP	61	336	5
EXSTR	61	336	7
NMSI_	61	336	7	96	48	3
EXTAP	62	48	1
EXTAP	62	48	7
NMTAP	62	96	2
NMTAP	62	144	4
NMSTR	62	192	0
NMSI_	62	192	0	96	48	3
NMSTR	62	192	6
NMSI_	62	192	6	96	48	3
NMSTR	63	0	2
BRSUL	63	0	2	96	48	6
NMTAP	63	48	2
NMSTR	63	96	5
BRSUR	63	96	5	96	48	1
NMTAP	63	144	5
NMSTR	63	192	2
BRSCL	63	192	2	96	48	7
NMTAP	63	240	2
NMTAP	63	288	5
NMTAP	63	336	5
NMTAP	64	0	6
NMTAP	64	48	3
NMTAP	64	48	6
NMTAP	64	96	2
NMTAP	64	96	7
NMTAP	64	144	0
NMTAP	64	144	1
EXSTR	64	240	3
NMSCL	64	240	3	96	144	4
EXTAP	64	240	4
BXTAP	64	336	3
BXHLD	64	336	7	144
NMHLD	65	192	2	144
NMTAP	65	288	3
NMSTR	65	336	3
NMSCR	65	336	3	96	48	5
NMHLD	66	48	1	144
NMHLD	66	192	6	144
NMTAP	66	288	5
NMSTR	66	336	5
NMSCL	66	336	5	96	48	3
NMTAP	67	48	6
NMSTR	67	96	6
NMSLR	67	96	6	96	144	4
NMTAP	67	192	4
NMTAP	67	288	3
NMTAP	68	0	2
NMTAP	68	32	3
NMTAP	68	64	1
NMTAP	68	96	5
NMTAP	68	128	4
NMTAP	68	160	6
NMTAP	68	192	3
NMTAP	68	288	3
NMTAP	68	288	4
EXTAP	68	336	2
EXTAP	68	336	5
NMTAP	69	48	2
NMTAP	69	96	2
NMTAP	69	96	3
NMTAP	69	144	3
NMTAP	69	192	3
NMTAP	69	192	4
NMTAP	69	240	4
NMTAP	69	288	4
NMTAP	69	288	5
NMTAP	69	336	5
NMTAP	70	0	3
NMTAP	70	0	5
NMTAP	70	48	2
NMTAP	70	96	1
NMTAP	70	96	4
NMTAP	70	144	5
NMTAP	70	192	2
NMTAP	70	192	6
NMTAP	70	240	1
NMTAP	70	288	0
NMTAP	70	288	5
NMTAP	70	336	6
BRTAP	71	0	7
NMTAP	71	48	0
NMTAP	71	48	1
NMTAP	71	96	0
NMTAP	71	96	1
NMTAP	71	144	2
NMTAP	71	144	3
NMTAP	71	192	4
NMTAP	71	192	5
BRTAP	71	240	6
BRSTR	71	240	7
NMSI_	71	240	7	96	24	3
BRSTR	71	336	0
NMSI_	71	336	0	96	24	4
BRTAP	71	336	7
NMTAP	72	48	0
NMTAP	72	48	5
NMTAP	72	144	4
NMTAP	72	144	5
EXSTR	72	192	6
BRSI_	72	192	6	96	24	2
EXTAP	72	216	7
EXTAP	72	240	6
EXTAP	72	264	7
NMTTP	72	300	0	C	0	M1
EXTAP	73	0	0
EXTAP	73	0	1
NMTAP	73	96	0
NMTAP	73	96	6
NMTAP	73	192	4
NMTAP	73	192	5
NMTAP	73	240	3
NMTAP	73	288	4
NMTAP	73	288	5
NMTAP	73	336	6
NMTAP	74	0	0
NMTAP	74	0	7
NMTAP	74	96	1
NMTAP	74	96	3
NMTAP	74	192	3
NMTAP	74	192	4
NMTAP	74	240	5
NMTAP	74	288	3
NMTAP	74	288	4
NMTAP	74	336	2
NMTAP	75	0	0
NMTAP	75	0	1
NMTAP	75	96	5
NMTAP	75	96	7
NMTAP	75	192	3
NMTAP	75	192	4
NMTAP	75	240	2
NMTAP	75	288	3
NMTAP	75	288	4
NMTAP	75	336	5
NMSTR	76	0	6
NMSI_	76	0	6	96	48	4
NMSTR	76	48	3
NMSI_	76	48	3	96	48	7
NMTAP	76	96	6
NMTAP	76	144	3
NMTAP	76	240	5
EXTAP	76	288	0
EXSTR	76	288	5
NMSCR	76	288	5	96	192	4
NMTTP	77	0	0	C	1	M1
NMTAP	77	288	2
NMTAP	77	288	4
NMTAP	78	0	0
NMTAP	78	0	1
NMTAP	78	96	5
NMTAP	78	96	7
NMTAP	78	192	3
NMTAP	78	192	4
NMTAP	78	240	2
NMTAP	78	288	3
NMTAP	78	288	4
NMTAP	78	336	5
NMTAP	79	0	6
NMTAP	79	0	7
NMTAP	79	96	0
NMTAP	79	96	2
NMTAP	79	192	3
NMTAP	79	192	4
NMTAP	79	240	5
NMTAP	79	288	3
NMTAP	79	288	4
NMTAP	79	336	2
NMTAP	80	0	1
NMTAP	80	0	3
NMTAP	80	48	2
NMTAP	80	96	4
NMTAP	80	96	6
NMTAP	80	144	5
BRTAP	80	192	0
BRTAP	80	192	7
NMSTR	81	0	2
NMSCR	81	0	2	96	96	4
NMTAP	81	192	5
NMSTR	81	240	5
NMSXL	81	240	5	96	240	1
NMHLD	81	336	3	144
NMTAP	82	192	3
NMTAP	82	240	3
NMSTR	82	336	2
NMSI_	82	336	2	96	72	4
NMTAP	83	48	5
NMTAP	83	144	5
NMTAP	83	192	4
NMTAP	83	240	5
NMSTR	83	336	3
NMSV_	83	336	3	96	144	4
NMHLD	83	336	5	144
BRTAP	84	192	7
NMTAP	85	0	2
NMTAP	85	0	4
NMTAP	85	48	1
NMTAP	85	96	2
NMTAP	85	96	4
NMTAP	85	144	5
NMTAP	85	192	2
NMTAP	85	192	4
NMTAP	85	240	1
NMTAP	85	288	2
NMTAP	85	288	4
NMTAP	85	336	5
NMTAP	86	0	2
NMTAP	86	24	3
NMTAP	86	48	2
NMTAP	86	72	3
NMTAP	86	96	1
NMTAP	86	120	3
NMTAP	86	144	1
NMTAP	86	168	3
NMTAP	86	192	0
NMTAP	86	216	3
NMTAP	86	240	0
NMTAP	86	264	3
NMTAP	86	288	7
NMTAP	86	312	3
NMTAP	86	336	7
NMTAP	86	360	3
BXTAP	87	0	0
BXTAP	87	0	4
BXTAP	87	48	0
BXTAP	87	48	4
BXTAP	87	144	2
BXTAP	87	144	6
BXTAP	87	192	2
BXTAP	87	192	6
BRTAP	87	288	3
BRTAP	87	288	4
BRHLD	87	336	1	288
BRHLD	87	336	6	288
NMTTP	88	288	3	B	0	M1
NMTTP	88	288	3	E	0	M1
NMTTP	88	288	3	A	0	M1
NMTTP	88	288	4	B	0	M1
NMTTP	88	288	4	E	0	M1
NMTTP	88	288	4	A	0	M1
NMTTP	88	288	5	E	0	M1
EXSTR	89	0	1
NMSI_	89	0	1	96	48	5
EXTAP	89	0	6
NMTAP	89	48	1
NMSTR	89	96	7
NMSI_	89	96	7	96	48	4
NMTAP	89	144	7
NMSTR	89	192	3
NMSI_	89	192	3	96	48	0
NMTAP	89	240	3
NMSTR	89	288	5
NMSI_	89	288	5	96	48	2
NMTAP	89	336	5
NMSTR	90	0	1
NMSI_	90	0	1	96	48	4
NMTAP	90	48	1
NMSTR	90	96	3
NMSI_	90	96	3	96	48	6
NMTAP	90	144	3
NMSTR	90	192	2
NMSI_	90	192	2	96	48	5
NMTAP	90	240	2
NMSTR	90	288	7
NMSI_	90	288	7	96	48	4
NMTAP	90	336	7
NMSTR	91	0	3
NMSUL	91	0	3	96	48	7
NMTAP	91	48	3
NMSTR	91	96	5
NMSUL	91	96	5	96	48	1
NMTAP	91	144	5
NMSTR	91	192	0
NMSUR	91	192	0	96	48	4
NMTAP	91	240	0
NMSTR	91	288	6
NMSUL	91	288	6	96	48	2
NMTAP	91	336	6
NMSTR	92	0	7
NMSCR	92	0	7	96	48	2
NMTAP	92	48	7
NMSTR	92	96	3
NMSCR	92	96	3	96	48	6
NMTAP	92	144	3
NMTAP	92	192	1
NMTAP	92	240	1
BRTAP	92	288	0
BRTAP	92	288	7
EXTAP	93	0	3
NMTAP	93	24	4
NMTAP	93	48	3
NMTAP	93	72	4
NMTAP	93	96	2
NMTAP	93	120	5
NMTAP	93	144	2
NMTAP	93	168	5
NMTAP	93	192	1
NMTAP	93	216	2
NMTAP	93	240	3
NMTAP	93	264	4
NMTAP	93	288	7
NMTAP	93	312	6
NMTAP	93	336	5
NMTAP	93	360	4
EXTAP	94	0	2
NMTAP	94	24	3
NMTAP	94	48	2
NMTAP	94	72	3
NMTAP	94	96	1
NMTAP	94	120	4
NMTAP	94	144	1
NMTAP	94	168	4
NMTAP	94	192	0
NMTAP	94	216	1
NMTAP	94	240	2
NMTAP	94	264	3
NMTAP	94	288	7
NMTAP	94	312	6
NMTAP	94	336	5
NMTAP	94	360	4
EXTAP	95	0	2
EXTAP	95	0	3
NMTAP	95	48	2
NMTAP	95	48	3
NMTAP	95	96	3
NMTAP	95	96	4
NMTAP	95	144	3
NMTAP	95	144	4
NMTAP	95	192	4
NMTAP	95	192	5
NMTAP	95	240	4
NMTAP	95	240	5
NMTAP	95	288	5
NMTAP	95	288	6
NMTAP	95	336	5
NMTAP	95	336	6
BRTAP	96	0	7
NMTAP	96	24	4
NMTAP	96	48	6
NMTAP	96	72	3
NMTAP	96	96	5
NMTAP	96	120	2
NMTAP	96	144	4
NMTAP	96	168	1
BRTAP	96	192	3
NMTAP	96	216	0
NMTAP	96	240	4
NMTAP	96	264	1
NMTAP	96	288	5
NMTAP	96	312	2
NMTAP	96	336	6
NMTAP	96	360	3
NMSTR	97	0	7
NMSI_	97	0	7	96	48	3
NMTTP	97	108	7	B	0	M1
NMTTP	97	120	0	C	0	M1
NMTTP	97	132	3	B	0	M1
NMTTP	97	240	3	E	0	M1
NMTTP	97	264	4	E	0	M1
NMTTP	97	288	5	E	0	M1
NMTTP	97	312	6	E	0	M1
NMTTP	97	336	7	E	0	M1
NMTTP	97	360	0	E	0	M1
NMTTP	98	0	1	E	0	M1
NMTTP	98	24	2	E	0	M1
NMTTP	98	48	0	C	0	M1
NMTTP	98	48	3	E	0	M1
NMTAP	100	0	3
NMTAP	100	48	3
NMTAP	100	96	4
NMTAP	100	144	4
NMTAP	100	192	3
NMTAP	100	240	3
NMTAP	100	288	4
NMHLD	100	336	5	96
NMTAP	101	48	4
NMTAP	101	96	4
NMTAP	101	144	5
NMTAP	101	192	5
NMTAP	101	240	4
NMTAP	101	288	4
NMHLD	101	336	3	96
NMTAP	102	48	4
NMTAP	102	96	4
NMTAP	102	144	3
NMTAP	102	192	3
NMTAP	102	240	4
NMTAP	102	288	4
NMHLD	102	336	2	96
NMTAP	103	48	3
NMTAP	103	96	3
NMTAP	103	144	2
NMTAP	103	192	2
NMTAP	103	240	4
NMTAP	103	288	4
NMTAP	103	336	3
NMTAP	104	0	2
NMTAP	104	48	4
NMTAP	104	96	3
NMTAP	104	144	4
NMTAP	104	192	2
NMTAP	104	240	4
NMTAP	104	288	3
NMTAP	104	336	4
NMTAP	105	0	3
NMTAP	105	48	3
NMTAP	105	48	4
NMTAP	105	96	2
NMTAP	105	96	5
NMTAP	105	144	1
NMTAP	105	144	6
NMSTR	105	240	3
BRSSR	105	240	3	96	48	7
NMSTR	105	240	4
BRSSL	105	240	4	96	48	0
BXTAP	105	336	3
BXTAP	105	336	4
NMTTP	105	360	1	B	0	M1
NMTTP	105	360	6	B	0	M1
NMTTP	105	366	0	B	0	M1
NMTTP	105	366	7	B	0	M1
NMTTP	105	372	0	E	1	M1
EXTAP	106	192	3
EXTAP	106	192	5
EXTAP	106	240	3
EXSTR	106	240	5
NMSUR	106	240	5	96	96	3
EXSTR	106	336	2
NMSCL	106	336	2	96	96	6
NMTAP	107	192	5
NMSTR	107	240	4
NMSXL	107	240	4	96	144	3
NMTAP	107	288	3
NMTAP	107	336	2
NMTAP	107	336	4
NMTAP	108	48	1
NMSTR	108	96	1
NMSLL	108	96	1	96	144	3
NMTAP	108	192	3
NMTAP	108	288	4
NMTAP	109	0	5
NMTAP	109	32	4
NMTAP	109	64	6
NMTAP	109	96	2
NMTAP	109	128	3
NMTAP	109	160	1
NMTAP	109	192	4
NMTAP	109	288	3
NMTAP	109	288	4
EXTAP	109	336	2
EXTAP	109	336	5
NMTAP	110	48	5
NMTAP	110	96	4
NMTAP	110	96	5
NMTAP	110	144	4
NMTAP	110	192	3
NMTAP	110	192	4
NMTAP	110	240	3
NMTAP	110	288	2
NMTAP	110	288	3
NMTAP	110	336	2
NMTAP	111	0	2
NMTAP	111	0	4
NMTAP	111	48	5
NMTAP	111	96	3
NMTAP	111	96	6
NMTAP	111	144	2
NMTAP	111	192	1
NMTAP	111	192	5
NMTAP	111	240	6
NMTAP	111	288	2
NMTAP	111	288	7
NMTAP	111	336	1
BRTAP	112	0	0
NMTAP	112	48	6
NMTAP	112	48	7
NMTAP	112	96	6
NMTAP	112	96	7
NMTAP	112	144	4
NMTAP	112	144	5
NMTAP	112	192	2
NMTAP	112	192	3
BRSTR	112	240	0
NMSI_	112	240	0	96	24	4
BRTAP	112	240	1
BRTAP	112	336	0
BRSTR	112	336	7
NMSI_	112	336	7	96	24	3
NMTAP	113	48	2
NMTAP	113	48	7
NMTAP	113	144	2
NMTAP	113	144	3
EXSTR	113	192	1
BRSI_	113	192	1	96	24	5
EXTAP	113	216	0
EXTAP	113	240	1
EXTAP	113	264	0
NMTTP	113	300	0	C	1	M1
EXTAP	114	0	6
EXTAP	114	0	7
NMTAP	114	96	1
NMTAP	114	96	2
NMTAP	114	192	3
NMTAP	114	192	5
NMTAP	114	240	6
NMTAP	114	288	3
NMTAP	114	288	5
NMTAP	114	336	2
NMSTR	115	0	1
NMSI_	115	0	1	96	48	3
NMSTR	115	48	4
NMSI_	115	48	4	96	48	0
NMTAP	115	96	1
NMTAP	115	144	4
NMTAP	115	240	3
NMTAP	115	288	3
NMTAP	115	288	4
BRTAP	116	0	1
BRTAP	116	0	7
NMTAP	116	96	2
NMTAP	116	96	3
NMTAP	116	192	4
NMTAP	116	192	6
NMTAP	116	240	7
NMTAP	116	288	4
NMTAP	116	288	6
NMTAP	116	336	3
NMTAP	117	0	1
NMTAP	117	0	2
NMTAP	117	96	5
NMTAP	117	96	7
NMTAP	117	192	3
NMTAP	117	192	4
NMTAP	117	240	2
NMTAP	117	288	1
NMTAP	117	288	5
NMTAP	117	336	0
NMTAP	117	336	6
NMTAP	118	48	4
NMTAP	118	48	5
NMSTR	118	96	4
NMSCL	118	96	4	96	48	1
NMSTR	118	96	5
NMSUL	118	96	5	96	48	0
BXTAP	118	192	4
BXTAP	118	192	5
NMTAP	118	336	2
NMTAP	118	336	3
NMTAP	119	0	2
NMSTR	119	0	3
NMSUR	119	0	3	96	96	6
BXTAP	119	96	2
BXTAP	119	96	3
NMTTP	119	240	0	C	0	M1
NMTTP	119	288	1	E	0	M1
NMTTP	119	288	7	E	0	M1
BXTAP	120	0	2
BXSTR	120	0	5
NMSCL	120	0	5	96	48	2
EXTAP	120	96	2
EXTAP	120	96	5
NMTAP	120	192	0
NMTAP	120	216	7
NMTAP	120	240	1
NMTAP	120	264	6
NMTAP	120	288	0
NMTAP	120	312	7
BRTAP	120	336	1
NMTAP	121	48	2
NMTAP	121	48	3
NMTAP	121	96	2
NMTAP	121	96	3
NMTAP	121	192	3
NMTAP	121	192	4
NMTAP	121	240	4
NMTAP	121	264	3
BXTAP	121	288	2
BXTAP	121	288	5
NMTAP	122	0	1
NMTAP	122	0	3
NMTAP	122	48	1
NMTAP	122	48	3
NMTAP	122	144	4
NMTAP	122	144	6
NMTAP	122	192	4
NMTAP	122	192	6
NMTAP	122	288	0
NMTAP	122	288	7
NMTAP	122	336	0
NMTAP	122	336	7
NMSTR	123	48	3
NMSI_	123	48	3	96	48	7
NMSTR	123	48	4
NMSI_	123	48	4	96	48	0
NMTAP	123	96	3
NMTAP	123	96	4
BRTAP	123	240	0
BRTAP	123	240	2
BRTAP	123	288	0
BRTAP	123	288	2
BRTAP	124	0	5
BRTAP	124	0	7
BRTAP	124	48	5
BRTAP	124	48	7
BRTAP	124	144	1
BRTAP	124	144	6
BXSTR	124	192	1
BRSXR	124	192	1	96	48	0
BXSTR	124	192	6
BRSXL	124	192	6	96	48	7
CNSCR	124	336	0	0	288	3
CNSCL	124	336	7	0	288	4
NMTAP	125	288	2
NMTAP	125	312	4
NMTAP	125	336	3
NMTAP	125	360	5
NMTTP	126	0	0	B	0	M1
NMTTP	126	0	0	C	1	M1
NMTTP	126	0	7	B	0	M1

T_REC_TAP	652
T_REC_BRK	35
T_REC_XTP	70
T_REC_BXX	26
T_REC_HLD	42
T_REC_XHO	7
T_REC_BHO	2
T_REC_BXH	1
T_REC_STR	67
T_REC_BST	5
T_REC_XST	13
T_REC_XBS	5
T_REC_TTP	68
T_REC_THO	0
T_REC_SLD	82
T_REC_BSL	10
T_REC_ALL	1085
T_NUM_TAP	870
T_NUM_BRK	84
T_NUM_HLD	49
T_NUM_SLD	82
T_NUM_ALL	1085
T_JUDGE_TAP	941
T_JUDGE_HLD	149
T_JUDGE_SLD	92
T_JUDGE_ALL	1182
TTM_EACHPAIRS	250
TTM_SCR_TAP	435000
TTM_SCR_BRK	218400
TTM_SCR_HLD	49000
TTM_SCR_SLD	123000
TTM_SCR_ALL	825400
TTM_SCR_S	792500
TTM_SCR_SS	817000
TTM_RAT_ACV	10102

