VERSION	0.00.00	1.04.00
FES_MODE	0
BPM_DEF	188.000	188.000	188.000	188.000
MET_DEF	4	4
RESOLUTION	384
CLK_DEF	384
COMPATIBLE_CODE	MA2

BPM	0	0	188.000
MET	0	0	4	4

EXSTR	2	0	1
NMSXL	2	0	1	96	240	2
EXSTR	2	336	7
NMSXR	2	336	7	96	288	6
EXHLD	3	336	0	816
EXHLD	4	336	7	432
NMTAP	6	192	0
NMTAP	6	192	7
BRTAP	6	288	1
BRTAP	6	288	6
NMTAP	7	0	2
NMTAP	7	96	0
NMTAP	7	96	1
NMTAP	7	192	7
NMTAP	7	288	0
NMTAP	7	288	6
NMTAP	8	0	5
NMTAP	8	96	6
NMTAP	8	96	7
NMTAP	8	192	0
NMTAP	8	288	1
NMTAP	8	288	7
NMTAP	9	0	2
NMTAP	9	96	0
NMTAP	9	96	1
NMTAP	9	192	7
NMTAP	9	288	0
NMTAP	9	288	6
NMTAP	10	0	1
NMTAP	10	96	2
NMTAP	10	96	4
NMTAP	10	192	5
NMTAP	10	240	5
NMTAP	10	288	4
NMTAP	11	0	3
NMTAP	11	0	5
NMTAP	11	96	6
NMTAP	11	192	0
NMTAP	11	288	1
NMTAP	11	288	7
NMTAP	12	0	2
NMTAP	12	96	0
NMTAP	12	96	1
NMTAP	12	192	7
NMTAP	12	288	0
NMTAP	12	288	6
NMTAP	13	0	1
NMTAP	13	0	5
NMTAP	13	96	1
NMTAP	13	96	5
NMTAP	13	192	2
NMTAP	13	192	4
NMTAP	13	288	3
NMTAP	13	288	5
NMTAP	14	0	4
NMTAP	14	48	4
NMTAP	14	96	3
BRTAP	14	192	1
BRTAP	14	192	5
EXTAP	15	0	2
EXTAP	15	0	3
EXHLD	15	48	2	528
EXHLD	15	48	3	528
EXTAP	16	336	3
EXTAP	16	336	5
EXHLD	17	48	4	144
EXHLD	17	48	6	144
EXTAP	17	336	3
EXTAP	17	336	5
EXHLD	18	48	2	96
EXHLD	18	48	4	96
EXTAP	18	192	2
EXTAP	18	192	4
NMTAP	19	0	4
NMTAP	19	0	5
NMHLD	19	48	4	528
NMHLD	19	48	5	528
NMTAP	20	336	2
NMTAP	20	336	4
NMHLD	21	48	1	144
NMHLD	21	48	3	144
NMTAP	21	336	0
NMTAP	21	336	4
NMTAP	22	48	0
NMHLD	22	48	4	144
EXTAP	22	192	1
EXSTR	22	240	1
NMSCR	22	240	1	96	96	4
NMTAP	23	192	6
NMSTR	23	240	6
NMSCL	23	240	6	96	96	3
NMTAP	24	192	1
NMSTR	24	240	1
NMSUR	24	240	1	96	96	5
NMTAP	25	192	6
NMHLD	25	240	6	96
EXTAP	25	336	4
NMTAP	26	48	3
NMTAP	26	48	5
NMTAP	26	144	2
NMTAP	26	144	4
NMTAP	26	240	1
NMTAP	26	240	3
NMSTR	26	336	0
NMSI_	26	336	0	96	96	6
NMTAP	26	336	4
CNSI_	27	144	6	0	144	2
CNSI_	27	288	2	0	144	4
EXTAP	28	192	3
EXTAP	28	192	5
EXTAP	28	240	3
EXTAP	28	240	5
EXTAP	29	0	2
EXTAP	29	0	4
EXHLD	29	48	2	864
EXTAP	29	48	4
NMTAP	29	144	3
NMTAP	29	240	3
NMTAP	29	336	4
NMTAP	30	48	4
NMTAP	30	144	3
NMTAP	30	240	3
BXTAP	30	336	5
NMTAP	31	48	3
NMTAP	31	144	3
NMTAP	31	240	2
NMTAP	31	240	3
EXTAP	31	336	1
EXTAP	31	336	4
EXTAP	32	48	2
EXTAP	32	48	5
EXTAP	32	96	2
EXTAP	32	96	5
BXTAP	32	192	3
BXTAP	32	192	6
EXTAP	33	0	3
EXTAP	33	0	5
EXTAP	33	48	3
EXHLD	33	48	5	864
NMTAP	33	144	4
NMTAP	33	240	4
NMTAP	33	336	3
NMTAP	34	48	4
NMTAP	34	144	4
NMTAP	34	240	4
NMTAP	34	336	2
NMTAP	35	48	4
NMTAP	35	144	4
NMTAP	35	240	4
NMTAP	35	240	5
EXTAP	35	336	3
EXTAP	35	336	6
EXTAP	36	48	7
EXTAP	36	96	7
NMTAP	36	192	0
NMTAP	36	192	6
NMTAP	36	240	0
NMSTR	36	240	6
NMSCL	36	240	6	96	96	3
NMTAP	37	192	1
NMTAP	37	192	4
NMSTR	37	240	1
NMSCR	37	240	1	96	96	4
NMTAP	37	240	4
NMTAP	38	192	4
NMTAP	38	192	6
NMTAP	38	240	4
NMSTR	38	240	6
NMSUL	38	240	6	96	96	2
NMTAP	39	192	1
NMHLD	39	240	1	96
NMTAP	39	336	3
NMTAP	40	48	2
NMTAP	40	48	4
NMTAP	40	144	3
NMTAP	40	144	5
NMTAP	40	240	4
NMTAP	40	240	6
NMTAP	40	336	3
NMSTR	40	336	7
NMSI_	40	336	7	96	144	1
CNSI_	41	192	1	0	144	5
CNSI_	41	336	5	0	144	3
NMTAP	42	192	2
NMTAP	42	192	4
NMTAP	42	240	2
NMTAP	42	240	4
BXHLD	42	336	1	144
BXHLD	42	336	5	144
NMTAP	43	192	6
NMTAP	43	240	6
NMTAP	43	288	7
NMTAP	44	0	1
NMTAP	44	48	1
NMTAP	44	96	0
BRTAP	44	192	2
BRTAP	44	192	6
NMTTP	45	0	1	E	0	M1
NMTTP	45	96	2	E	0	M1
NMTTP	45	192	3	E	0	M1
NMTTP	45	288	4	E	0	M1
NMHLD	46	0	5	192
NMTAP	46	192	4
NMTAP	46	288	4
NMTTP	47	0	6	E	0	M1
NMTTP	47	96	5	E	0	M1
NMTTP	47	192	4	E	0	M1
NMTTP	47	288	3	E	0	M1
NMTHO	48	0	0	192	C	0	M1
NMHLD	49	0	0	96
NMTAP	49	0	7
NMHLD	49	96	1	96
NMHLD	49	192	2	96
NMTAP	49	288	3
NMHLD	50	0	4	96
NMHLD	50	96	5	96
NMHLD	50	192	6	96
NMTAP	50	288	7
EXTAP	51	0	0
EXTAP	51	0	5
EXTAP	51	48	0
EXTAP	51	48	5
EXTAP	51	144	2
EXTAP	51	144	7
EXTAP	51	192	2
EXTAP	51	192	7
BRTAP	51	288	1
BRTAP	51	288	6
EXTAP	52	192	3
EXTAP	52	192	4
BRTAP	53	0	0
BRTAP	53	0	1
NMTAP	53	96	2
NMTAP	53	96	4
NMTAP	53	192	6
NMTAP	53	192	7
NMTAP	53	288	3
NMTAP	53	288	5
NMTAP	54	0	2
NMTAP	54	48	2
NMTAP	54	96	3
NMTAP	54	192	1
NMTAP	54	192	4
NMTAP	54	288	0
NMTAP	54	288	7
NMTAP	55	0	5
NMTAP	55	48	5
NMTAP	55	96	4
NMTAP	55	192	2
NMTAP	55	192	3
NMTAP	55	288	0
NMSTR	55	288	1
NMSI_	55	288	1	96	96	4
EXTAP	56	192	5
EXTAP	56	288	4
EXTAP	56	288	5
NMTAP	57	0	6
NMTAP	57	48	6
NMTAP	57	96	0
NMTAP	57	144	0
NMTAP	57	192	7
NMTAP	57	240	7
NMTAP	57	288	1
NMTAP	57	336	1
NMTAP	58	0	0
NMTAP	58	0	1
EXTAP	58	96	2
EXTAP	58	96	3
EXTAP	58	192	1
EXTAP	58	192	5
NMTAP	58	288	1
NMTAP	58	288	5
BRTAP	59	0	6
BRTAP	59	0	7
NMTAP	59	96	3
NMTAP	59	96	5
NMTAP	59	192	0
NMTAP	59	192	1
NMTAP	59	288	2
NMTAP	59	288	4
NMTAP	60	0	5
NMTAP	60	48	5
NMTAP	60	96	4
NMTAP	60	192	3
NMTAP	60	192	6
NMTAP	60	288	0
NMTAP	60	288	7
NMTAP	61	0	2
NMTAP	61	48	2
NMTAP	61	96	3
NMTAP	61	192	4
NMTAP	61	192	5
NMSTR	61	288	6
NMSI_	61	288	6	96	96	2
NMTAP	61	288	7
EXTAP	62	192	1
NMHLD	62	288	2	96
NMTAP	62	288	3
NMHLD	63	0	0	96
NMHLD	63	96	7	96
NMHLD	63	192	5	96
NMTAP	63	288	4
EXTAP	64	0	3
EXTAP	64	0	6
NMTAP	64	96	0
NMTAP	64	144	0
BRTAP	64	240	1
BRTAP	64	240	7
BRTAP	64	336	2
BRHLD	64	336	6	624
NMTTP	65	192	7	E	0	M1
NMTTP	65	288	0	C	0	M1
NMTTP	66	0	3	E	0	M1
NMTTP	66	96	2	E	0	M1
NMTTP	66	192	0	C	0	M1
NMTTP	66	288	6	E	0	M1
EXTAP	67	0	7
NMTAP	67	96	7
NMSTR	67	192	0
NMSCR	67	192	0	96	192	5
NMHLD	67	192	7	192
NMTAP	68	192	7
NMTAP	68	240	7
NMTAP	68	336	0
NMTAP	68	336	6
NMTAP	69	48	1
NMTAP	69	48	7
NMTAP	69	96	1
NMTAP	69	96	7
NMTAP	69	192	2
NMTAP	69	192	3
NMTAP	69	288	4
NMTAP	69	288	5
NMTAP	70	0	0
NMTAP	70	0	7
NMTAP	70	96	1
NMTAP	70	96	3
NMTAP	70	192	3
NMTAP	70	192	4
NMTAP	70	288	6
NMTAP	70	288	7
BRTAP	71	0	0
BRTAP	71	0	5
BRTAP	71	240	1
BRTAP	71	240	7
BRTAP	71	336	3
BRTAP	71	336	5
NMTAP	72	192	3
NMTAP	72	192	4
NMTAP	72	288	2
NMTAP	72	288	5
NMTAP	73	0	0
NMTAP	73	96	1
NMTAP	73	96	3
NMTAP	73	192	5
NMTAP	73	240	5
NMTAP	73	288	4
NMTAP	74	0	3
NMTAP	74	0	6
NMTAP	74	96	4
NMTAP	74	96	5
NMTAP	74	192	2
NMTAP	74	192	3
NMTAP	74	288	1
NMTAP	74	288	4
NMHLD	75	0	1	96
NMTAP	75	0	4
NMHLD	75	96	3	96
NMHLD	75	192	4	96
NMTAP	75	288	6
NMSTR	76	0	6
NMSI_	76	0	6	96	96	2
NMSTR	76	192	1
NMSI_	76	192	1	96	96	5
BRTAP	77	0	7
NMTAP	77	96	4
NMTAP	77	96	6
NMTAP	77	192	5
NMTAP	77	240	5
NMTAP	77	288	4
NMTAP	78	0	3
NMTAP	78	96	2
NMTAP	78	96	4
NMTAP	78	192	1
NMTAP	78	240	1
NMTAP	78	288	0
NMTAP	79	0	1
NMTAP	79	0	7
NMTAP	79	96	2
NMTAP	79	96	6
NMTAP	79	192	3
NMTAP	79	192	5
NMTAP	79	288	2
NMSTR	79	288	4
NMSUL	79	288	4	96	192	3
NMSTR	81	0	2
NMSCR	81	0	2	96	192	5
NMSTR	82	0	6
NMSCR	82	0	6	96	192	1
NMTAP	83	0	2
NMTAP	83	192	1
NMTAP	84	0	0
NMHLD	84	0	7	192
BRTAP	84	192	0
NMHLD	85	0	0	96
NMTAP	85	0	7
NMHLD	85	96	1	96
NMHLD	85	192	2	96
NMTAP	85	288	3
NMHLD	86	0	4	96
NMHLD	86	96	5	96
NMHLD	86	192	6	96
NMTAP	86	288	7
EXTAP	87	0	0
EXTAP	87	0	5
EXTAP	87	48	0
EXTAP	87	48	5
EXTAP	87	144	2
EXTAP	87	144	7
EXTAP	87	192	2
EXTAP	87	192	7
EXTAP	87	288	1
EXTAP	87	288	6
EXHLD	87	336	1	240
EXTAP	87	336	6
NMTTP	88	192	0	C	1	M1
NMTAP	89	0	0
NMTAP	89	0	7
NMTAP	89	96	0
NMTAP	89	96	7
NMTAP	89	192	1
NMTAP	89	192	3
NMTAP	89	288	4
NMTAP	89	288	5
NMTAP	90	0	6
NMTAP	90	0	7
NMTAP	90	96	0
NMTAP	90	96	1
NMTAP	90	192	2
NMTAP	90	192	3
NMTAP	90	288	4
NMTAP	90	288	5
NMTAP	91	0	6
NMTAP	91	0	7
NMTAP	91	96	0
NMTAP	91	96	1
NMTAP	91	192	2
NMTAP	91	192	3
NMTAP	91	288	4
NMTAP	91	288	5
NMTAP	92	0	6
NMTAP	92	0	7
NMTAP	92	96	0
NMTAP	92	96	1
NMTAP	92	192	2
NMTAP	92	192	3
NMTAP	92	288	2
NMTAP	92	288	3
NMTAP	93	0	5
NMTAP	93	48	5
NMTAP	93	96	4
NMTAP	93	144	6
NMTAP	93	192	1
NMTAP	93	240	1
NMTAP	93	288	7
NMTAP	93	336	7
NMTAP	94	0	2
NMTAP	94	48	2
NMTAP	94	96	3
NMTAP	94	144	1
NMTAP	94	192	6
NMTAP	94	240	6
BRTAP	94	288	0
NMTAP	95	0	6
NMTAP	95	0	7
NMTAP	95	48	6
NMTAP	95	48	7
NMTAP	95	96	6
NMTAP	95	96	7
NMTAP	95	192	4
NMTAP	95	192	5
NMTAP	95	240	4
NMTAP	95	240	5
NMTAP	95	288	4
NMTAP	95	288	5
NMTAP	96	0	2
NMTAP	96	0	3
NMTAP	96	48	2
NMTAP	96	48	3
NMTAP	96	96	2
NMTAP	96	96	3
NMTAP	96	192	0
NMTAP	96	192	1
NMTAP	96	240	0
NMTAP	96	240	1
NMTAP	96	288	0
NMTAP	96	288	1
NMTAP	97	0	2
NMTAP	97	0	7
BRHLD	97	96	2	288
BRSTR	97	96	7
NMSI_	97	96	7	96	192	4
CNSI_	98	0	4	0	192	1
CNSI_	98	192	1	0	192	5
NMHLD	100	0	3	768
NMHLD	101	0	4	1152
NMTHO	103	0	0	768	C	0	M1
BXTAP	105	240	0
BXTAP	105	240	7
BXHLD	105	336	1	144
BXHLD	105	336	6	144
NMTAP	106	192	2
NMTAP	106	192	5
NMTAP	106	288	2
NMTAP	106	288	5
NMTAP	107	0	4
NMSTR	107	96	4
NMSCR	107	96	4	96	144	1
NMTAP	108	0	2
NMSTR	108	96	2
NMSLL	108	96	2	96	144	4
NMTAP	109	0	5
NMTAP	109	96	3
NMTAP	109	96	5
NMTAP	109	192	2
NMTAP	109	192	4
NMTAP	109	240	2
NMTAP	109	240	4
NMTAP	109	336	1
NMTAP	109	336	3
NMTAP	110	48	0
NMTAP	110	48	7
NMTAP	110	96	0
NMTAP	110	96	7
NMTAP	110	192	4
NMTAP	110	192	6
NMTAP	110	288	3
NMTAP	110	288	4
NMTAP	111	0	1
NMTAP	111	0	3
NMTAP	111	96	0
NMTAP	111	96	7
NMTAP	111	192	4
NMTAP	111	192	5
NMTAP	111	288	2
NMTAP	111	288	3
BRTAP	112	0	0
BRTAP	112	0	5
BRTAP	112	240	1
BRTAP	112	240	7
BRTAP	112	336	3
BRTAP	112	336	5
BRTAP	113	192	3
BRTAP	113	192	4
BRTAP	113	288	2
BRTAP	113	288	5
EXTAP	114	0	6
EXTAP	114	0	7
NMTAP	114	96	3
NMTAP	114	96	4
NMTAP	114	192	0
NMTAP	114	192	1
NMTAP	114	288	3
NMTAP	114	288	4
NMTAP	115	0	6
NMTAP	115	0	7
NMTAP	115	96	0
NMTAP	115	96	5
NMTAP	115	192	0
NMTAP	115	192	1
NMTAP	115	288	2
NMTAP	115	288	7
NMTAP	116	0	4
NMTAP	116	0	5
NMTAP	116	96	1
NMTAP	116	96	2
NMTAP	116	192	6
NMTAP	116	192	7
NMTAP	116	288	0
NMTAP	116	288	5
NMTAP	117	0	6
NMTAP	117	0	7
NMTAP	117	96	1
NMTAP	117	96	2
NMTAP	117	192	4
NMTAP	117	192	5
NMTAP	117	288	4
NMTAP	117	288	5
BRTAP	118	0	3
BRTAP	118	0	7
NMTAP	118	192	2
NMTAP	118	192	3
BRTAP	118	288	0
BRTAP	118	288	4
NMTAP	119	96	4
NMTAP	119	96	5
BRTAP	119	192	3
BRTAP	119	192	7
BRTAP	120	0	1
BRTAP	120	0	6
NMTAP	120	96	1
NMTAP	120	96	6
EXTAP	120	192	7
EXTAP	120	216	0
EXTAP	120	240	7
EXTAP	120	264	0
EXTAP	120	288	7
EXTAP	120	312	0
EXSTR	120	336	7
BRSUL	120	336	7	96	144	3
NMSUR	120	336	7	96	144	3
NMTAP	122	0	5
NMTAP	122	48	4
NMTAP	122	48	6
NMTAP	122	144	2
NMTAP	122	192	1
NMTAP	122	192	3
NMTAP	122	288	5
NMTAP	122	336	4
NMTAP	122	336	6
EXTAP	123	48	0
EXTAP	123	48	7
EXTAP	123	96	0
EXTAP	123	96	7
BXTAP	123	240	2
BXTAP	123	240	3
BXTAP	123	288	1
BXTAP	123	288	4
BXTAP	124	0	4
BXTAP	124	0	5
BXTAP	124	48	3
BXTAP	124	48	6
BXTAP	124	144	0
BXTAP	124	144	7
BXSTR	124	192	0
BRSXL	124	192	0	96	336	3
BXSTR	124	192	7
BRSXR	124	192	7	96	336	4
NMTTP	126	0	0	C	1	M1
NMTTP	126	0	1	B	0	M1
NMTTP	126	0	2	B	0	M1
NMTTP	126	0	3	B	0	M1
NMTTP	126	0	3	E	0	M1
NMTTP	126	0	4	B	0	M1
NMTTP	126	0	5	B	0	M1
NMTTP	126	0	5	E	0	M1
NMTTP	126	0	6	B	0	M1

T_REC_TAP	387
T_REC_BRK	42
T_REC_XTP	74
T_REC_BXX	15
T_REC_HLD	31
T_REC_XHO	11
T_REC_BHO	2
T_REC_BXH	4
T_REC_STR	17
T_REC_BST	1
T_REC_XST	4
T_REC_XBS	2
T_REC_TTP	24
T_REC_THO	2
T_REC_SLD	22
T_REC_BSL	3
T_REC_ALL	641
T_NUM_TAP	506
T_NUM_BRK	69
T_NUM_HLD	44
T_NUM_SLD	22
T_NUM_ALL	641
T_JUDGE_TAP	566
T_JUDGE_HLD	275
T_JUDGE_SLD	25
T_JUDGE_ALL	866
TTM_EACHPAIRS	214
TTM_SCR_TAP	253000
TTM_SCR_BRK	179400
TTM_SCR_HLD	44000
TTM_SCR_SLD	33000
TTM_SCR_ALL	509400
TTM_SCR_S	487450
TTM_SCR_SS	502500
TTM_RAT_ACV	10137

