VERSION	0.00.00	1.04.00
FES_MODE	0
BPM_DEF	188.000	188.000	188.000	188.000
MET_DEF	4	4
RESOLUTION	384
CLK_DEF	384
COMPATIBLE_CODE	MA2

BPM	0	0	188.000
MET	0	0	4	4

NMTAP	7	0	2
NMTAP	7	96	2
NMTAP	7	192	2
NMTAP	8	0	1
NMTAP	8	96	1
NMTAP	8	192	1
NMTAP	9	0	0
NMTAP	9	96	0
NMTAP	9	192	0
NMHLD	10	0	6	192
NMHLD	10	0	7	192
NMTAP	11	0	5
NMTAP	11	96	5
NMTAP	11	192	5
NMTAP	12	0	6
NMTAP	12	96	6
NMTAP	12	192	6
NMTAP	13	0	7
NMTAP	13	96	7
NMTAP	13	192	7
NMHLD	14	0	0	192
NMHLD	14	0	1	192
EXTAP	15	0	2
EXTAP	15	0	3
EXHLD	15	48	2	768
EXHLD	15	48	3	768
EXTAP	17	336	3
EXTAP	17	336	4
EXTAP	18	48	3
EXTAP	18	48	4
EXTAP	19	0	4
EXTAP	19	0	5
EXHLD	19	48	4	768
EXHLD	19	48	5	768
EXTAP	21	336	3
EXTAP	21	336	4
EXTAP	22	48	3
EXTAP	22	48	4
NMSTR	23	0	1
NMSI_	23	0	1	96	192	4
NMSTR	24	0	6
NMSI_	24	0	6	96	192	3
NMSTR	25	0	1
NMSI_	25	0	1	96	192	5
NMSTR	26	0	6
NMSI_	26	0	6	96	192	2
NMTAP	27	0	1
NMTAP	27	96	1
NMTAP	27	192	0
NMTAP	27	192	1
NMTAP	28	0	6
NMTAP	28	96	6
BRTAP	28	192	6
BRTAP	28	192	7
NMTAP	29	0	6
NMTAP	29	96	6
NMTAP	29	192	5
NMTAP	29	288	5
NMTAP	30	0	4
NMTAP	30	96	4
NMTAP	30	192	2
NMTAP	30	192	3
NMTAP	31	0	1
NMTAP	31	96	1
NMTAP	31	192	2
NMTAP	31	288	2
NMTAP	32	0	3
NMTAP	32	96	3
NMTAP	32	192	4
NMTAP	32	192	5
NMTAP	33	0	5
NMTAP	33	96	5
NMTAP	33	192	6
NMTAP	33	288	6
NMTAP	34	0	7
NMTAP	34	96	7
NMTAP	34	192	0
NMTAP	34	192	1
NMTAP	35	0	2
NMTAP	35	96	2
NMTAP	35	192	1
NMTAP	35	288	1
NMTAP	36	0	0
NMTAP	36	96	0
NMTAP	36	192	6
NMTAP	36	192	7
NMSTR	37	0	6
NMSCL	37	0	6	96	192	3
NMSTR	38	0	1
NMSCR	38	0	1	96	192	4
NMSTR	39	0	6
NMSI_	39	0	6	96	192	2
NMSTR	40	0	1
NMSI_	40	0	1	96	192	5
NMTAP	41	0	6
NMTAP	41	96	6
NMTAP	41	192	6
NMTAP	41	192	7
NMTAP	42	0	1
NMTAP	42	96	1
BRTAP	42	192	0
BRTAP	42	192	1
EXHLD	43	0	0	384
EXHLD	43	0	7	384
NMHLD	45	0	1	192
NMHLD	45	192	2	192
NMHLD	46	0	3	192
NMTAP	46	192	4
NMHLD	47	0	6	192
NMHLD	47	192	5	192
NMHLD	48	0	4	192
NMTAP	48	192	3
NMTAP	49	0	2
NMTAP	49	96	2
NMTAP	49	192	2
NMTAP	49	192	3
NMTAP	50	0	5
NMTAP	50	96	5
NMTAP	50	192	4
NMTAP	50	192	5
EXTAP	51	0	3
EXTAP	51	0	4
EXTAP	51	144	3
EXTAP	51	144	4
BXTAP	51	288	3
BXTAP	51	288	4
NMTAP	53	0	2
NMTAP	53	96	2
NMTAP	53	192	0
NMTAP	53	192	1
NMTAP	53	288	0
NMTAP	53	288	1
NMTAP	54	0	7
NMTAP	54	96	7
NMTAP	54	192	6
NMTAP	54	192	7
NMTAP	55	0	5
NMTAP	55	96	5
NMTAP	55	192	6
NMTAP	55	192	7
NMTAP	55	288	6
NMTAP	55	288	7
NMTAP	56	0	0
NMTAP	56	96	0
NMTAP	56	192	0
NMTAP	56	192	1
NMTAP	57	0	0
NMTAP	57	96	1
NMTAP	57	192	2
NMTAP	57	288	3
NMTAP	58	0	4
NMTAP	58	96	5
NMTAP	58	192	6
NMTAP	58	192	7
NMTAP	59	0	6
NMTAP	59	96	6
NMTAP	59	192	6
NMTAP	59	288	6
NMTAP	59	288	7
NMTAP	60	0	5
NMTAP	60	96	5
NMTAP	60	192	5
NMTAP	60	288	4
NMTAP	60	288	5
NMTAP	61	0	3
NMTAP	61	96	3
NMTAP	61	192	3
NMTAP	61	288	2
NMTAP	61	288	3
NMTAP	62	0	1
NMTAP	62	96	1
NMTAP	62	192	0
NMTAP	62	192	1
NMTAP	63	0	7
NMTAP	63	96	6
NMTAP	63	192	5
NMTAP	63	288	4
NMTAP	64	0	3
NMTAP	64	96	2
NMTAP	64	192	0
NMTAP	64	192	1
NMSTR	65	0	0
NMSI_	65	0	0	96	192	5
NMSTR	65	0	1
NMSI_	65	0	1	96	192	4
NMSTR	66	0	6
NMSI_	66	0	6	96	192	3
NMSTR	66	0	7
NMSI_	66	0	7	96	192	2
NMSTR	67	0	0
NMSI_	67	0	0	96	192	5
NMSTR	67	0	1
NMSI_	67	0	1	96	192	4
NMSTR	68	0	6
NMSI_	68	0	6	96	192	3
NMSTR	68	0	7
NMSI_	68	0	7	96	192	2
NMTAP	69	0	1
NMTAP	69	96	2
NMTAP	69	192	3
NMTAP	69	288	4
NMTAP	70	0	5
NMTAP	70	96	6
NMTAP	70	192	7
NMTAP	70	288	0
BRTAP	71	0	0
BRTAP	71	0	7
EXTAP	71	240	0
EXTAP	71	240	7
EXHLD	71	336	0	240
EXHLD	71	336	7	240
NMTTP	73	0	1	B	0	L1
NMTTP	73	96	2	B	0	L1
NMTTP	73	192	3	B	0	L1
NMTTP	74	0	6	B	0	L1
NMTTP	74	96	5	B	0	L1
NMTTP	74	192	4	B	0	L1
NMTTP	75	0	1	E	0	L1
NMTTP	75	96	2	E	0	L1
NMTTP	75	192	3	E	0	L1
NMTTP	75	288	4	E	0	L1
NMTTP	76	0	5	E	0	L1
NMTTP	76	192	0	C	0	L1
NMTTP	77	0	6	B	0	L1
NMTTP	77	96	5	B	0	L1
NMTTP	77	192	4	B	0	L1
NMTTP	78	0	1	B	0	L1
NMTTP	78	96	2	B	0	L1
NMTTP	78	192	3	B	0	L1
NMTTP	79	0	7	E	0	L1
NMTTP	79	96	6	E	0	L1
NMTTP	79	192	5	E	0	L1
NMTTP	79	288	4	E	0	L1
NMTTP	80	0	3	E	0	L1
NMTTP	80	192	0	C	0	L1
NMHLD	81	0	6	192
NMHLD	81	192	5	192
NMHLD	82	0	4	192
NMTAP	82	192	3
NMHLD	83	0	1	192
NMHLD	83	192	2	192
NMHLD	84	0	3	192
NMTAP	84	192	4
NMTAP	85	0	5
NMTAP	85	96	5
NMTAP	85	192	4
NMTAP	85	192	5
NMTAP	86	0	6
NMTAP	86	96	6
NMTAP	86	192	6
NMTAP	86	192	7
EXTAP	87	0	0
EXTAP	87	0	7
EXTAP	87	144	0
EXTAP	87	144	7
BXTAP	87	288	0
BXTAP	87	288	7
NMTAP	89	0	0
NMTAP	89	96	1
NMTAP	89	192	2
NMTAP	89	288	3
NMTAP	90	0	4
NMTAP	90	96	5
NMTAP	90	192	6
NMTAP	90	192	7
NMTAP	91	0	7
NMTAP	91	96	6
NMTAP	91	192	5
NMTAP	91	288	4
NMTAP	92	0	3
NMTAP	92	96	2
NMTAP	92	192	0
NMTAP	92	192	1
NMTAP	93	0	0
NMTAP	93	96	1
NMTAP	93	192	2
NMTAP	93	288	3
NMTAP	94	0	4
NMTAP	94	96	5
NMTAP	94	192	6
NMTAP	94	288	7
NMTAP	95	0	0
NMTAP	95	96	1
NMTAP	95	192	2
NMTAP	95	288	3
NMTAP	96	0	4
NMTAP	96	96	5
NMTAP	96	192	6
NMTAP	96	288	7
NMSTR	97	0	0
NMSSL	97	0	0	96	480	4
NMHLD	100	0	2	192
NMHLD	100	192	1	192
NMHLD	101	0	0	192
NMTAP	101	192	7
NMHLD	102	0	5	192
NMHLD	102	192	6	192
NMHLD	103	0	7	192
NMTAP	103	192	0
NMHLD	104	0	1	192
NMTAP	104	192	0
NMHLD	105	0	6	192
NMTAP	105	192	7
NMTAP	106	0	6
NMTAP	106	0	7
NMTAP	106	96	6
NMTAP	106	96	7
NMTAP	106	192	0
NMTAP	106	192	5
NMTAP	107	0	4
NMTAP	107	0	5
NMTAP	107	96	4
NMTAP	107	96	5
NMTAP	107	192	3
NMTAP	107	192	6
NMTAP	108	0	2
NMTAP	108	0	3
NMTAP	108	96	2
NMTAP	108	96	3
NMTAP	108	192	1
NMTAP	108	192	4
NMTAP	109	0	0
NMTAP	109	0	1
NMTAP	109	96	0
NMTAP	109	96	1
NMTAP	109	192	2
NMTAP	109	192	7
NMTAP	110	0	0
NMTAP	110	0	1
NMTAP	110	96	0
NMTAP	110	96	1
NMTAP	110	192	2
NMTAP	110	192	3
NMTAP	110	288	2
NMTAP	110	288	3
NMTAP	111	0	4
NMTAP	111	0	5
NMTAP	111	96	4
NMTAP	111	96	5
NMTAP	111	192	6
NMTAP	111	192	7
NMTAP	111	288	6
NMTAP	111	288	7
BRTAP	112	0	0
BRTAP	112	0	7
EXTAP	112	240	0
EXTAP	112	240	7
EXHLD	112	336	0	240
EXHLD	112	336	7	240
NMTAP	114	0	6
NMTAP	114	96	6
NMTAP	114	192	6
NMTAP	114	192	7
NMTAP	114	288	6
NMTAP	114	288	7
NMTAP	115	0	5
NMTAP	115	96	5
NMTAP	115	192	4
NMTAP	115	192	5
NMTAP	115	288	4
NMTAP	115	288	5
NMTAP	116	0	2
NMTAP	116	96	2
NMTAP	116	192	2
NMTAP	116	192	3
NMTAP	116	288	2
NMTAP	116	288	3
NMTAP	117	0	1
NMTAP	117	96	1
NMTAP	117	192	0
NMTAP	117	192	1
NMTAP	117	288	0
NMTAP	117	288	1
BRTAP	118	0	0
BRTAP	118	0	1
EXTAP	118	192	2
EXTAP	118	192	3
EXTAP	118	288	2
EXTAP	118	288	3
EXTAP	119	96	3
EXTAP	119	96	4
EXTAP	119	192	3
EXTAP	119	192	4
EXTAP	120	0	4
EXTAP	120	0	5
EXHLD	120	96	4	432
EXHLD	120	96	5	432
EXTAP	122	0	5
EXTAP	122	48	5
EXTAP	122	144	4
EXTAP	122	192	4
EXTAP	122	288	2
EXTAP	122	288	3
EXHLD	122	336	2	96
EXHLD	122	336	3	96
EXTAP	123	240	4
EXTAP	123	288	4
EXTAP	124	0	3
EXTAP	124	48	3
EXTAP	124	144	3
EXTAP	124	144	4
NMHLD	124	192	3	576
NMHLD	124	192	4	576

T_REC_TAP	245
T_REC_BRK	10
T_REC_XTP	46
T_REC_BXX	4
T_REC_HLD	26
T_REC_XHO	14
T_REC_BHO	0
T_REC_BXH	0
T_REC_STR	17
T_REC_BST	0
T_REC_XST	0
T_REC_XBS	0
T_REC_TTP	24
T_REC_THO	0
T_REC_SLD	17
T_REC_BSL	0
T_REC_ALL	403
T_NUM_TAP	332
T_NUM_BRK	14
T_NUM_HLD	40
T_NUM_SLD	17
T_NUM_ALL	403
T_JUDGE_TAP	346
T_JUDGE_HLD	242
T_JUDGE_SLD	17
T_JUDGE_ALL	605
TTM_EACHPAIRS	92
TTM_SCR_TAP	166000
TTM_SCR_BRK	36400
TTM_SCR_HLD	40000
TTM_SCR_SLD	25500
TTM_SCR_ALL	267900
TTM_SCR_S	258550
TTM_SCR_SS	266500
TTM_RAT_ACV	10052

