VERSION	0.00.00	1.04.00
FES_MODE	0
BPM_DEF	137.000	137.000	137.000	137.000
MET_DEF	4	4
RESOLUTION	384
CLK_DEF	384
COMPATIBLE_CODE	MA2

BPM	0	0	137.000
MET	0	0	4	4

NMTAP	1	288	3
NMTAP	1	288	4
NMSTR	2	0	2
NMSCR	2	0	2	96	48	4
NMHLD	2	0	3	1248
NMSTR	2	192	2
NMSCR	2	192	2	96	48	4
NMSTR	3	0	2
NMSCR	3	0	2	96	48	4
NMTAP	3	192	1
NMTAP	3	288	1
NMSTR	4	0	2
NMSCR	4	0	2	96	48	4
NMSTR	4	192	2
NMSCR	4	192	2	96	48	4
NMTAP	5	0	1
NMTAP	5	96	2
NMTAP	5	192	3
NMTAP	5	192	4
NMTAP	5	288	4
NMTAP	5	288	5
NMHLD	6	0	4	1056
NMSTR	6	0	5
NMSCL	6	0	5	96	48	3
NMSTR	6	192	5
NMSCL	6	192	5	96	48	3
NMSTR	7	0	5
NMSCL	7	0	5	96	48	3
NMTAP	7	192	6
NMTAP	7	288	6
NMSTR	8	0	5
NMSCL	8	0	5	96	48	3
NMTAP	8	192	5
NMTAP	8	288	5
NMTAP	9	0	4
NMTAP	9	0	5
NMTAP	9	48	6
NMTAP	9	96	6
NMTAP	9	120	4
NMTAP	9	168	3
NMTAP	9	168	4
NMTAP	9	216	3
NMTAP	9	216	4
NMTAP	9	264	2
NMTAP	9	288	3
NMTAP	9	312	1
NMTAP	9	360	5
NMTAP	10	0	4
NMTAP	10	24	6
NMTAP	10	72	6
NMTAP	10	72	7
NMTAP	10	120	0
NMTAP	10	120	1
NMTAP	10	168	2
NMSTR	10	192	3
NMSI_	10	192	3	96	48	0
NMSI_	10	192	3	96	48	6
EXTAP	10	288	3
NMTAP	11	0	6
NMTAP	11	24	7
NMTAP	11	72	0
NMTAP	11	72	7
NMTAP	11	120	0
NMTAP	11	120	1
NMTAP	11	168	2
NMTAP	11	192	3
NMTAP	11	240	3
NMSTR	11	288	1
NMSSR	11	288	1	96	96	5
NMTAP	11	288	4
NMSTR	12	0	5
NMSSR	12	0	5	96	96	1
NMTAP	12	96	1
NMTAP	12	192	5
EXTAP	12	288	2
EXTAP	12	288	3
NMTAP	13	0	1
NMTAP	13	24	0
NMTAP	13	72	0
NMTAP	13	72	7
NMTAP	13	120	6
NMTAP	13	120	7
NMTAP	13	168	5
NMTAP	13	192	4
NMTAP	13	240	4
NMTAP	13	288	3
NMSTR	13	288	6
NMSSL	13	288	6	96	96	2
NMSTR	14	0	2
NMSSL	14	0	2	96	96	6
NMTAP	14	96	6
NMTAP	14	192	2
EXTAP	14	288	4
EXTAP	14	288	5
NMTAP	15	0	6
NMTAP	15	24	7
NMTAP	15	72	0
NMTAP	15	72	7
NMTAP	15	120	0
NMTAP	15	120	1
NMTAP	15	168	2
NMTAP	15	192	3
NMTAP	15	240	3
NMSTR	15	288	1
NMSSL	15	288	1	96	96	5
NMTAP	15	288	4
NMSTR	16	0	5
NMSSL	16	0	5	96	96	1
NMTAP	16	96	1
NMTAP	16	192	5
EXTAP	16	288	2
EXTAP	16	288	3
NMTAP	17	0	1
NMTAP	17	24	0
NMTAP	17	72	0
NMTAP	17	72	7
NMTAP	17	120	6
NMTAP	17	120	7
NMTAP	17	168	5
NMTAP	17	192	4
NMTAP	17	240	4
NMTAP	17	288	3
NMSTR	17	288	6
NMSSR	17	288	6	96	96	2
NMSTR	18	0	2
NMSSR	18	0	2	96	96	6
NMTAP	18	96	6
NMTAP	18	192	2
EXTAP	18	288	3
EXSTR	18	288	5
NMSXR	18	288	5	96	144	2
NMTAP	19	0	2
NMTAP	19	96	1
NMTAP	19	144	1
NMTAP	19	192	0
NMTAP	19	240	0
NMTAP	19	288	3
NMTAP	19	336	3
NMTAP	20	0	6
NMTAP	20	24	4
NMTAP	20	72	0
NMTAP	20	72	7
NMTAP	20	120	0
NMTAP	20	120	7
NMTAP	20	168	1
NMSTR	20	192	3
NMSCR	20	192	3	96	48	6
EXSTR	20	288	1
NMSXL	20	288	1	96	144	4
NMTAP	20	288	3
NMTAP	21	0	4
NMTAP	21	96	5
NMTAP	21	144	5
NMTAP	21	192	6
NMTAP	21	240	6
NMSTR	21	288	3
NMSXR	21	288	3	96	144	4
NMTAP	22	0	5
NMTAP	22	24	5
NMTAP	22	72	6
NMTAP	22	120	7
NMTAP	22	168	0
NMTAP	22	192	0
BRSTR	22	288	2
NMSI_	22	288	2	96	48	4
NMTAP	22	288	7
NMTAP	23	0	6
NMTAP	23	24	6
NMTAP	23	72	7
NMTAP	23	120	0
NMTAP	23	168	1
NMTAP	23	192	1
NMTAP	23	240	2
NMTAP	23	288	3
NMSTR	23	288	5
NMSI_	23	288	5	96	48	3
NMTAP	24	0	1
NMTAP	24	24	1
NMTAP	24	72	0
NMTAP	24	120	7
NMTAP	24	168	6
NMTAP	24	192	6
NMTAP	24	288	3
NMTAP	24	288	5
NMTAP	24	336	3
NMTAP	24	336	5
NMHLD	25	0	4	48
NMHLD	25	0	6	48
NMHLD	25	96	3	48
NMHLD	25	96	7	48
NMHLD	25	192	4	48
NMHLD	25	192	6	48
NMTAP	25	288	3
NMTAP	25	336	2
NMHLD	26	0	1	48
NMHLD	26	0	3	48
NMHLD	26	96	0	48
NMHLD	26	96	4	48
NMHLD	26	192	2	48
NMHLD	26	192	4	48
BRTAP	26	288	1
BRTAP	26	288	5
NMTTP	27	48	5	E	0	M1
NMTTP	27	96	4	E	0	M1
NMTTP	27	144	3	E	0	M1
EXSTR	27	288	2
NMSXR	27	288	2	96	144	4
NMTAP	27	288	4
NMTAP	28	0	5
NMTAP	28	96	6
NMTAP	28	144	6
NMTAP	28	192	7
NMTAP	28	240	7
NMTAP	28	288	4
NMTAP	28	336	4
NMTAP	29	0	1
NMTAP	29	24	3
NMTAP	29	72	0
NMTAP	29	72	7
NMTAP	29	120	0
NMTAP	29	120	7
NMTAP	29	168	6
NMSTR	29	192	4
NMSI_	29	192	4	96	48	0
NMTAP	29	288	4
EXSTR	29	288	6
NMSI_	29	288	6	96	48	2
NMTAP	30	0	1
CNSI_	30	48	2	0	48	5
NMTAP	30	96	0
CNSI_	30	96	5	0	48	3
NMTAP	30	144	0
NMTAP	30	192	1
NMTAP	30	240	1
NMSTR	30	288	5
NMSXL	30	288	5	96	144	4
NMTAP	31	0	3
NMTAP	31	24	3
NMTAP	31	72	2
NMTAP	31	120	1
NMTAP	31	168	0
NMTAP	31	192	0
BRTAP	31	288	1
BRSTR	31	288	5
NMSI_	31	288	5	96	48	0
NMTAP	32	0	2
NMTAP	32	24	2
NMTAP	32	72	3
NMTAP	32	120	4
NMTAP	32	168	5
NMTAP	32	192	5
NMTAP	32	240	4
NMSTR	32	288	2
NMSI_	32	288	2	96	48	7
NMTAP	32	288	6
NMTAP	33	0	5
NMTAP	33	24	5
NMTAP	33	72	4
NMTAP	33	120	3
NMTAP	33	168	2
NMTAP	33	192	2
NMTAP	33	240	3
NMTAP	33	288	2
NMTAP	33	288	4
NMTAP	33	336	2
NMTAP	33	336	4
NMHLD	34	0	1	48
NMHLD	34	0	3	48
NMHLD	34	96	2	48
NMHLD	34	96	4	48
NMHLD	34	192	1	48
NMHLD	34	192	3	48
NMTAP	34	288	0
NMTAP	34	336	7
NMHLD	35	0	4	48
NMHLD	35	0	6	48
NMHLD	35	96	2	48
NMHLD	35	96	4	48
NMHLD	35	192	3	48
NMHLD	35	192	5	48
BRTAP	35	288	2
BRTAP	35	288	6
NMSTR	36	0	7
NMSI_	36	0	7	96	576	3
NMTAP	36	144	2
NMHLD	36	192	2	192
NMTAP	37	192	1
NMSTR	38	0	0
NMSI_	38	0	0	96	672	4
NMTAP	38	144	5
NMHLD	38	192	5	192
NMTAP	39	192	6
NMSTR	40	0	7
NMSCL	40	0	7	96	96	4
NMTAP	40	192	3
NMTAP	40	288	3
NMHLD	41	0	2	96
NMTAP	41	96	3
NMTAP	41	192	4
NMTAP	41	240	3
NMTAP	41	240	5
NMTAP	41	288	3
NMTAP	41	288	5
NMTAP	42	0	6
NMTAP	42	24	0
NMTAP	42	72	2
NMTAP	42	72	4
NMTAP	42	120	1
NMTAP	42	120	5
NMTAP	42	168	1
NMTAP	42	192	7
NMTAP	42	240	3
NMTAP	42	240	5
NMTAP	42	288	2
NMTAP	42	288	6
NMTAP	43	0	1
NMTAP	43	0	4
NMTAP	43	48	5
NMTAP	43	96	3
NMTAP	43	96	6
NMTAP	43	144	2
NMTAP	43	192	1
NMTAP	43	192	5
NMTAP	43	240	6
NMTAP	43	288	3
NMTAP	43	288	7
NMTAP	43	336	2
NMTAP	44	0	1
NMTAP	44	0	5
NMTAP	44	48	6
NMSTR	44	96	0
NMSCR	44	96	0	96	48	3
NMSTR	44	96	7
NMSCL	44	96	7	96	48	4
NMTAP	44	144	0
NMTAP	44	144	7
EXTAP	44	192	0
EXTAP	44	192	7
NMSTR	44	288	2
NMSCL	44	288	2	96	96	5
NMTAP	44	288	4
BRSTR	45	0	5
NMSCR	45	0	5	96	96	2
NMTAP	45	96	4
NMTAP	45	192	3
NMTAP	45	240	3
NMSTR	45	288	4
NMSI_	45	288	4	96	48	0
NMTAP	45	336	4
NMSTR	46	0	4
NMSCL	46	0	4	96	48	1
NMSCR	46	0	4	96	48	7
NMSTR	46	96	4
NMSF_	46	96	4	96	48	0
NMTAP	46	192	4
EXTAP	46	288	1
EXTAP	46	288	7
NMSTR	47	0	7
BRSCL	47	0	7	96	96	3
NMTAP	47	48	7
NMHLD	47	96	7	96
NMSTR	47	288	0
BRSCR	47	288	0	96	96	4
NMTAP	47	336	0
NMHLD	48	0	0	96
NMTAP	48	144	7
NMTAP	48	192	7
NMTAP	48	240	0
NMTAP	48	240	6
NMTAP	48	288	0
NMSTR	48	288	6
NMSCL	48	288	6	96	96	1
NMSTR	49	0	1
NMSCR	49	0	1	96	96	6
NMTAP	49	96	0
NMTAP	49	192	7
NMTAP	49	240	7
NMSTR	49	288	0
NMSI_	49	288	0	96	48	2
NMSI_	49	288	0	96	48	3
NMTAP	49	336	0
NMSTR	50	0	0
NMSI_	50	0	0	96	48	5
NMSI_	50	0	0	96	48	6
NMSTR	50	96	0
NMSI_	50	96	0	96	48	4
NMTAP	50	192	0
NMTAP	50	288	3
NMTAP	50	288	5
NMSTR	51	0	6
NMSCR	51	0	6	96	96	3
NMTAP	51	48	6
NMHLD	51	96	6	96
NMSTR	51	288	1
NMSCL	51	288	1	96	96	4
NMTAP	51	336	1
NMHLD	52	0	1	96
NMTAP	52	144	0
NMTAP	52	192	0
NMTAP	52	288	1
NMSTR	52	288	7
BRSI_	52	288	7	96	48	3
NMTAP	53	0	2
EXTAP	53	0	7
NMTAP	53	144	1
NMTAP	53	168	1
NMTAP	53	192	3
NMSTR	53	240	4
NMSI_	53	240	4	96	48	2
NMSI_	53	240	4	96	48	7
NMTAP	54	48	2
NMTAP	54	48	7
NMTAP	54	120	0
NMTAP	54	120	5
NMTAP	54	168	1
NMSTR	54	192	3
NMSCL	54	192	3	96	48	0
NMSCR	54	192	3	96	48	6
NMTAP	54	288	3
EXTAP	55	0	0
EXTAP	55	0	6
NMTAP	55	48	6
NMTAP	55	72	4
NMTAP	55	96	5
NMTAP	55	144	1
NMTAP	55	168	3
NMTAP	55	192	2
NMTAP	55	240	5
NMTAP	55	264	4
NMTAP	55	288	6
NMTAP	55	336	4
NMTAP	55	336	7
NMHLD	56	48	2	48
NMHLD	56	48	6	48
NMHLD	56	120	1	48
NMHLD	56	120	5	48
NMSTR	56	192	0
NMSI_	56	192	0	96	48	4
NMSTR	56	192	7
NMSI_	56	192	7	96	48	3
BRTAP	56	288	0
BRTAP	56	288	7
NMTAP	57	0	2
NMTAP	57	0	5
NMSTR	57	96	4
NMSXR	57	96	4	96	144	0
NMTAP	57	144	4
NMHLD	57	192	4	192
NMHLD	58	0	1	48
NMHLD	58	48	3	48
NMHLD	58	96	4	48
NMHLD	58	144	6	48
NMSTR	58	192	0
NMSI_	58	192	0	96	48	3
NMTAP	58	240	0
NMTAP	58	288	7
NMTAP	59	0	5
NMTAP	59	48	5
NMTAP	59	96	3
NMTAP	59	96	5
NMTAP	59	144	5
NMTAP	59	192	2
NMTAP	59	240	2
NMTAP	59	288	2
NMTAP	59	288	4
NMTAP	59	336	2
NMTAP	60	0	6
NMTAP	60	48	6
NMTAP	60	96	4
NMTAP	60	96	6
NMTAP	60	144	6
NMTAP	60	192	1
NMTAP	60	240	1
NMTAP	60	288	1
NMTAP	60	288	3
NMTAP	60	336	1
NMTAP	61	0	4
NMTAP	61	48	4
NMTAP	61	96	2
NMTAP	61	96	5
NMTAP	61	144	2
NMTAP	61	144	5
NMTAP	61	192	1
NMTAP	61	192	6
NMTAP	61	240	1
NMTAP	61	240	6
NMTAP	61	288	0
NMSTR	61	288	7
NMSSR	61	288	7	96	192	3
NMHLD	61	336	0	1968
NMTAP	61	336	7
NMTTP	63	0	4	A	0	M1
NMTTP	63	96	5	A	0	M1
NMTTP	63	192	6	A	0	M1
NMTTP	63	288	7	A	0	M1
NMTTP	64	0	4	B	0	M1
NMTTP	64	96	5	B	0	M1
NMTTP	64	192	6	B	0	M1
NMTTP	64	288	7	B	0	M1
NMTTP	65	0	3	B	0	M1
NMTTP	65	96	2	B	0	M1
NMTTP	65	192	1	B	0	M1
NMTTP	65	288	0	B	0	M1
NMTTP	66	0	3	D	0	M1
NMTTP	66	96	2	D	0	M1
NMTTP	66	192	1	D	0	M1
NMTTP	66	288	0	D	0	M1
EXSTR	67	0	7
NMSCL	67	0	7	96	96	4
NMSTR	67	192	3
NMSUR	67	192	3	96	192	5
BXHLD	68	0	7	192
EXSTR	68	288	3
NMSI_	68	288	3	96	48	0
NMTAP	69	0	5
NMTAP	69	48	5
NMTAP	69	96	5
NMTAP	69	144	5
NMSTR	69	192	4
NMSI_	69	192	4	96	48	7
NMTAP	69	240	4
NMTAP	69	288	2
NMTAP	69	336	2
NMTAP	70	0	3
NMTAP	70	48	3
NMSTR	70	96	3
NMSF_	70	96	3	96	48	7
NMTAP	70	144	3
BRTAP	70	288	1
BRSTR	70	288	5
NMSCR	70	288	5	96	96	2
NMSTR	71	0	2
NMSCL	71	0	2	96	96	5
NMSTR	71	96	4
NMSCR	71	96	4	96	96	1
EXSTR	71	192	2
NMSCL	71	192	2	96	96	5
EXTAP	71	240	3
EXSTR	71	288	4
NMSCR	71	288	4	96	96	1
EXTAP	71	336	3
EXSTR	72	0	2
NMSCL	72	0	2	96	96	4
EXTAP	72	48	3
EXSTR	72	96	4
NMSI_	72	96	4	96	48	0
EXTAP	72	144	3
EXHLD	72	192	2	96
BRTAP	72	288	7
NMSTR	73	0	5
NMSI_	73	0	5	96	48	0
NMTAP	73	48	5
NMHLD	73	96	5	96
CNSI_	73	144	0	0	48	4
CNSI_	73	192	4	0	48	1
NMSTR	73	288	2
NMSI_	73	288	2	96	48	7
NMTAP	73	336	2
NMHLD	74	0	2	96
CNSI_	74	48	7	0	48	3
CNSI_	74	96	3	0	48	6
NMTAP	74	144	1
NMTAP	74	192	1
EXTAP	74	240	2
EXTAP	74	240	6
EXTAP	74	288	2
EXSTR	74	288	6
NMSCL	74	288	6	96	96	1
NMSTR	75	0	1
NMSCR	75	0	1	96	96	6
NMSTR	75	96	7
NMSCL	75	96	7	96	96	2
EXSTR	75	192	1
NMSCR	75	192	1	96	96	6
EXTAP	75	240	0
EXSTR	75	288	7
NMSCL	75	288	7	96	96	2
EXTAP	75	336	0
EXSTR	76	0	1
NMSCR	76	0	1	96	96	7
EXTAP	76	48	0
EXSTR	76	96	7
NMSI_	76	96	7	96	48	3
EXTAP	76	144	0
EXHLD	76	192	1	96
EXSTR	76	288	3
NMSCL	76	288	3	96	144	6
NMTAP	77	0	4
NMTAP	77	48	4
NMTAP	77	96	4
NMTAP	77	144	4
NMSTR	77	192	4
NMSCR	77	192	4	96	144	1
NMTAP	77	240	4
NMTAP	77	288	3
NMTAP	77	336	3
NMTAP	78	0	3
NMTAP	78	48	3
NMSTR	78	96	3
NMSI_	78	96	3	96	48	7
NMTAP	78	144	3
NMSTR	78	192	3
NMSI_	78	192	3	96	48	1
NMSI_	78	192	3	96	48	5
NMSTR	78	288	3
NMSCL	78	288	3	96	288	4
NMTTP	79	0	0	C	1	M1
NMTAP	80	0	5
NMTAP	80	48	6
NMTAP	80	96	4
NMTAP	80	96	6
NMTAP	80	144	3
NMTAP	80	192	2
NMTAP	80	240	1
NMTAP	80	288	1
NMTAP	80	288	3
NMTAP	80	336	4
EXTAP	81	0	4
EXTAP	81	0	5
EXTAP	81	96	6
EXTAP	81	96	7
NMTAP	81	192	5
NMTAP	81	240	6
NMTAP	81	288	4
NMTAP	81	288	7
NMTAP	81	336	3
NMTAP	82	0	2
NMTAP	82	48	1
NMTAP	82	96	0
NMTAP	82	96	3
NMTAP	82	144	4
NMTAP	82	192	5
NMTAP	82	240	6
NMTAP	82	288	4
NMTAP	82	288	6
NMTAP	82	336	3
NMHLD	83	0	2	48
NMHLD	83	0	4	48
NMHLD	83	96	2	48
NMHLD	83	96	4	48
NMTAP	83	192	2
NMTAP	83	240	1
NMTAP	83	288	1
NMTAP	83	288	3
NMTAP	83	336	4
NMTAP	84	0	5
NMTAP	84	48	5
NMSTR	84	96	4
NMSI_	84	96	4	96	48	0
NMTAP	84	96	6
NMTAP	84	144	4
NMTAP	84	144	6
NMSTR	84	192	7
NMSI_	84	192	7	96	48	3
NMTAP	84	240	7
NMHLD	84	288	0	864
NMSTR	85	0	3
NMSCR	85	0	3	96	192	1
NMSTR	86	0	3
NMSCR	86	0	3	96	192	1
NMTTP	87	0	0	D	0	M1

T_REC_TAP	361
T_REC_BRK	9
T_REC_XTP	30
T_REC_BXX	0
T_REC_HLD	50
T_REC_XHO	2
T_REC_BHO	0
T_REC_BXH	1
T_REC_STR	67
T_REC_BST	4
T_REC_XST	16
T_REC_XBS	0
T_REC_TTP	21
T_REC_THO	0
T_REC_SLD	91
T_REC_BSL	3
T_REC_ALL	655
T_NUM_TAP	495
T_NUM_BRK	17
T_NUM_HLD	52
T_NUM_SLD	91
T_NUM_ALL	655
T_JUDGE_TAP	508
T_JUDGE_HLD	177
T_JUDGE_SLD	94
T_JUDGE_ALL	779
TTM_EACHPAIRS	110
TTM_SCR_TAP	247500
TTM_SCR_BRK	44200
TTM_SCR_HLD	52000
TTM_SCR_SLD	136500
TTM_SCR_ALL	480200
TTM_SCR_S	464150
TTM_SCR_SS	478500
TTM_RAT_ACV	10035

