VERSION	0.00.00	1.04.00
FES_MODE	0
BPM_DEF	137.000	137.000	137.000	137.000
MET_DEF	4	4
RESOLUTION	384
CLK_DEF	384
COMPATIBLE_CODE	MA2

BPM	0	0	137.000
MET	0	0	4	4

NMTAP	2	0	1
NMTAP	2	0	3
NMTAP	2	96	2
NMTAP	2	192	3
NMTAP	2	288	4
NMTAP	3	0	1
NMTAP	3	0	3
NMTAP	3	96	2
NMTAP	3	192	3
NMTAP	3	288	4
NMHLD	4	0	1	288
NMTAP	4	0	3
NMTAP	4	96	2
NMTAP	4	192	3
NMTAP	4	288	4
NMHLD	5	0	5	288
NMTAP	5	96	2
NMTAP	5	192	3
NMTAP	5	288	4
NMTAP	6	0	4
NMTAP	6	0	6
NMTAP	6	96	5
NMTAP	6	192	4
NMTAP	6	288	3
NMTAP	7	0	4
NMTAP	7	0	6
NMTAP	7	96	5
NMHLD	7	192	4	576
NMSTR	7	288	3
NMSI_	7	288	3	96	96	0
NMSTR	8	288	3
NMSI_	8	288	3	96	96	0
EXTAP	9	192	1
EXTAP	9	192	6
NMSTR	9	288	3
NMSI_	9	288	3	96	96	0
NMSTR	9	288	4
NMSI_	9	288	4	96	96	7
BXTAP	10	192	1
BXTAP	10	192	6
NMTAP	11	0	1
NMTAP	11	96	0
NMTAP	11	96	7
NMHLD	11	192	6	96
NMHLD	11	192	7	96
NMTAP	12	0	6
NMTAP	12	96	0
NMTAP	12	96	7
NMHLD	12	192	0	96
NMTAP	12	192	1
EXTAP	12	288	2
NMTAP	13	0	3
NMTAP	13	96	3
NMTAP	13	96	4
NMHLD	13	192	4	96
NMHLD	13	192	5	96
NMTAP	14	0	5
NMTAP	14	96	3
NMTAP	14	96	4
NMTAP	14	192	2
NMHLD	14	192	3	96
EXTAP	14	288	1
NMTAP	15	0	0
NMTAP	15	96	0
NMTAP	15	96	7
NMHLD	15	192	6	96
NMHLD	15	192	7	96
NMTAP	16	0	6
NMTAP	16	96	0
NMTAP	16	96	7
NMHLD	16	192	0	96
NMTAP	16	192	1
EXTAP	16	288	2
NMTAP	17	0	3
NMTAP	17	96	3
NMTAP	17	96	4
NMHLD	17	192	4	96
NMHLD	17	192	5	96
NMTAP	18	0	6
NMTAP	18	96	7
NMTAP	18	144	7
NMHLD	18	192	0	96
NMHLD	19	0	2	192
NMTAP	19	96	3
NMTAP	19	192	4
NMTAP	19	288	3
NMTAP	19	288	5
NMHLD	20	0	3	192
NMTAP	20	96	4
NMTAP	20	192	5
EXTAP	20	288	4
EXTAP	20	288	6
NMHLD	21	0	5	192
NMTAP	21	96	4
NMTAP	21	192	3
NMSTR	21	288	2
NMSCR	21	288	2	96	96	5
NMTAP	21	288	3
NMTAP	22	192	6
EXTAP	22	288	4
EXTAP	22	288	5
NMHLD	23	0	2	192
NMTAP	23	96	3
NMTAP	23	192	4
NMTAP	23	288	3
NMTAP	23	288	5
NMHLD	24	0	3	192
NMTAP	24	96	4
NMTAP	24	192	5
EXTAP	24	288	4
EXTAP	24	288	6
NMSTR	25	0	5
NMSUL	25	0	5	96	192	2
NMTAP	26	0	0
NMTAP	26	0	1
NMTAP	26	96	7
NMTAP	26	192	0
NMTAP	26	192	6
NMTTP	27	0	0	C	0	M1
NMHLD	28	0	1	288
NMTAP	28	0	5
NMTAP	28	96	4
NMTAP	28	192	3
NMTAP	28	288	2
NMTAP	29	0	1
NMTAP	29	0	3
NMTAP	29	96	4
NMTAP	29	144	4
NMTAP	29	192	3
NMTAP	29	192	4
EXTAP	29	288	2
EXTAP	29	288	5
NMTAP	30	0	2
NMHLD	30	0	6	288
NMTAP	30	96	3
NMTAP	30	192	4
NMTAP	30	288	5
NMTAP	31	0	4
NMTAP	31	0	6
NMTAP	31	96	7
NMTAP	31	144	7
NMTAP	31	192	0
NMTAP	31	192	7
EXTAP	31	288	1
EXTAP	31	288	6
NMHLD	32	0	1	288
NMTAP	32	0	5
NMTAP	32	96	4
NMTAP	32	192	3
NMTAP	32	288	2
NMTAP	33	0	1
NMTAP	33	0	3
NMTAP	33	96	4
NMTAP	33	144	4
NMTAP	33	192	3
NMTAP	33	192	4
EXTAP	33	288	2
EXTAP	33	288	5
NMSTR	34	0	1
NMSUL	34	0	1	96	192	6
NMHLD	34	0	4	480
NMTAP	35	0	6
NMTAP	35	96	7
NMTAP	35	192	0
NMTAP	35	192	6
NMHLD	36	0	3	576
NMSTR	36	0	4
NMSCR	36	0	4	96	480	2
NMSTR	38	0	3
NMSCL	38	0	3	96	480	5
NMHLD	38	0	4	576
NMSTR	40	0	2
NMSCL	40	0	2	96	192	7
NMSTR	40	0	6
NMSCL	40	0	6	96	192	3
NMTAP	41	0	6
NMTAP	41	0	7
NMTAP	41	96	0
NMTAP	41	96	5
NMTAP	41	192	2
EXTAP	41	240	4
EXTAP	41	288	4
BXTAP	42	0	0
NMTAP	42	96	6
NMTAP	42	96	7
NMTAP	42	192	4
NMTAP	42	192	5
EXTAP	42	288	2
EXTAP	42	288	3
NMHLD	43	0	1	384
NMTAP	43	96	0
NMTAP	43	144	0
NMTAP	43	192	0
NMTAP	43	288	6
NMTAP	43	336	6
NMTAP	44	0	6
EXTAP	44	96	3
EXTAP	44	96	4
EXTAP	44	144	3
EXTAP	44	144	4
EXTAP	44	192	3
EXTAP	44	192	4
BRTAP	44	288	1
BRTAP	44	288	6
NMSTR	45	0	0
NMSI_	45	0	0	96	48	5
NMSTR	45	0	1
NMSI_	45	0	1	96	48	4
NMSTR	45	192	6
NMSI_	45	192	6	96	48	3
NMSTR	45	192	7
NMSI_	45	192	7	96	48	2
NMSTR	46	0	0
NMSCL	46	0	0	96	48	5
NMSTR	46	0	1
NMSCR	46	0	1	96	48	4
NMTAP	46	192	6
NMTAP	46	192	7
EXTAP	46	288	0
EXTAP	46	288	5
NMTAP	47	0	1
NMTAP	47	48	1
NMHLD	47	96	0	96
NMTAP	47	96	2
NMTAP	47	192	3
NMTAP	47	288	6
NMTAP	47	336	6
NMTAP	48	0	5
NMHLD	48	0	7	96
NMTAP	48	96	4
NMTAP	48	192	2
NMTAP	48	192	3
NMTAP	48	288	1
NMTAP	48	288	4
NMSTR	49	0	6
NMSI_	49	0	6	96	48	3
NMSTR	49	0	7
NMSI_	49	0	7	96	48	2
NMSTR	49	192	0
NMSI_	49	192	0	96	48	5
NMSTR	49	192	1
NMSI_	49	192	1	96	48	4
NMSTR	50	0	6
NMSCL	50	0	6	96	48	3
NMSTR	50	0	7
NMSCR	50	0	7	96	48	2
NMTAP	50	192	0
NMTAP	50	192	1
EXTAP	50	288	2
EXTAP	50	288	7
NMTAP	51	0	6
NMTAP	51	48	6
NMTAP	51	96	5
NMHLD	51	96	7	96
NMTAP	51	192	4
NMTAP	51	288	1
NMTAP	51	336	1
NMHLD	52	0	0	96
NMTAP	52	0	2
NMTAP	52	96	3
NMTAP	52	192	2
NMTAP	52	192	5
NMSTR	52	288	3
NMSI_	52	288	3	96	96	0
NMSTR	52	288	4
NMSI_	52	288	4	96	96	7
NMTAP	53	288	4
NMTAP	53	288	5
NMTAP	53	336	4
NMTAP	53	336	5
EXTAP	54	48	4
EXTAP	54	48	6
EXTAP	54	120	4
EXTAP	54	120	6
EXTAP	54	192	1
EXTAP	54	192	3
EXTAP	54	288	0
EXTAP	54	288	7
NMTAP	55	0	0
NMHLD	55	0	1	144
NMTAP	55	144	3
NMHLD	55	192	3	96
NMTAP	55	288	0
NMTAP	55	336	0
BXTAP	56	48	0
BXTAP	56	48	1
BXTAP	56	120	3
BXTAP	56	120	4
BXTAP	56	192	5
BXTAP	56	192	7
NMTAP	57	0	0
NMHLD	57	0	1	144
NMTAP	57	144	3
NMHLD	57	192	3	96
NMTAP	57	288	0
NMTAP	57	336	0
EXTAP	58	48	6
EXTAP	58	48	7
EXTAP	58	120	4
EXTAP	58	120	5
NMSTR	58	192	2
NMSCL	58	192	2	96	96	0
EXTAP	58	192	4
NMTAP	59	0	7
NMTAP	59	96	6
NMTAP	59	192	3
NMTAP	59	192	5
NMTAP	59	288	4
NMTAP	60	0	1
NMTAP	60	0	3
NMTAP	60	96	0
NMTAP	60	192	7
NMTAP	60	288	6
NMTAP	61	0	5
NMTAP	61	48	5
NMTAP	61	96	3
NMTAP	61	144	3
NMTAP	61	192	6
NMTAP	61	240	6
EXTAP	61	288	0
EXHLD	61	336	0	240
NMHLD	63	0	4	576
NMTTP	63	96	2	A	0	M1
NMTTP	63	192	1	A	0	M1
NMTTP	63	288	0	A	0	M1
NMTTP	64	0	7	A	0	M1
NMTTP	64	96	6	A	0	M1
NMTTP	64	192	5	A	0	M1
NMHLD	65	0	3	576
NMTTP	65	96	5	A	0	M1
NMTTP	65	192	6	A	0	M1
NMTTP	65	288	7	A	0	M1
NMTTP	66	0	0	A	0	M1
NMTTP	66	96	1	A	0	M1
NMTTP	66	192	2	A	0	M1
NMTAP	67	0	3
NMTAP	67	0	4
NMTAP	67	96	2
NMTAP	67	192	0
NMTAP	67	192	1
NMTAP	67	288	0
NMTAP	67	288	7
NMHLD	68	0	4	192
NMHLD	68	0	5	192
BXTAP	68	288	0
BXTAP	68	288	7
EXTAP	69	0	2
EXTAP	69	0	3
EXTAP	69	48	2
EXTAP	69	48	3
EXTAP	69	96	2
EXTAP	69	96	3
EXTAP	69	144	2
EXTAP	69	144	3
EXTAP	69	192	2
EXTAP	69	192	3
EXTAP	69	288	1
EXTAP	69	288	4
EXTAP	70	0	4
EXTAP	70	0	5
EXTAP	70	48	4
EXTAP	70	48	5
EXTAP	70	96	4
EXTAP	70	96	5
EXTAP	70	144	4
EXTAP	70	144	5
EXTAP	70	192	4
EXTAP	70	192	5
BXTAP	70	288	2
BXTAP	70	288	7
NMSTR	71	0	2
NMSI_	71	0	2	96	48	7
NMSTR	71	0	3
NMSI_	71	0	3	96	48	6
NMSTR	71	192	4
NMSI_	71	192	4	96	48	1
NMSTR	71	192	5
NMSI_	71	192	5	96	48	0
NMSTR	72	0	2
NMSCL	72	0	2	96	48	7
NMSTR	72	0	3
NMSCR	72	0	3	96	48	6
NMTAP	72	192	4
NMTAP	72	192	5
EXTAP	72	288	3
EXTAP	72	288	6
NMTAP	73	0	5
NMTAP	73	48	5
NMHLD	73	96	4	96
NMTAP	73	96	6
NMTAP	73	192	7
NMTAP	73	288	2
NMTAP	73	336	2
NMTAP	74	0	1
NMHLD	74	0	3	96
NMTAP	74	96	0
NMTAP	74	192	6
NMTAP	74	192	7
NMTAP	74	288	0
NMTAP	74	288	5
NMSTR	75	0	2
NMSI_	75	0	2	96	48	7
NMSTR	75	0	3
NMSI_	75	0	3	96	48	6
NMSTR	75	192	4
NMSI_	75	192	4	96	48	1
NMSTR	75	192	5
NMSI_	75	192	5	96	48	0
NMSTR	76	0	2
NMSCL	76	0	2	96	48	7
NMSTR	76	0	3
NMSCR	76	0	3	96	48	6
NMTAP	76	192	4
NMTAP	76	192	5
EXTAP	76	288	3
EXTAP	76	288	6
NMHLD	77	0	4	288
NMTAP	77	0	5
NMTAP	77	96	6
NMTAP	77	144	6
NMTAP	77	192	7
BXTAP	77	288	0
NMHLD	78	0	0	288
NMTAP	78	0	1
NMTAP	78	96	2
NMTAP	78	144	2
NMTAP	78	192	3
NMSTR	78	288	4
BRSCL	78	288	4	96	384	5
BXHLD	79	0	6	672
EXTAP	80	288	3
NMTAP	81	0	4
NMTAP	81	0	5
NMTAP	81	96	3
NMSTR	81	96	6
NMSCL	81	96	6	96	96	2
NMTAP	82	0	1
NMTAP	82	96	6
NMTAP	82	96	7
NMTAP	82	192	4
NMTAP	82	192	5
NMTAP	82	288	2
NMTAP	82	288	3
NMTAP	83	0	0
NMTAP	83	0	1
NMTAP	83	96	6
NMSTR	83	96	7
NMSCR	83	96	7	96	96	3
NMTAP	84	0	4
NMTAP	84	96	6
NMTAP	84	96	7
NMTAP	84	192	0
NMTAP	84	192	1
NMTAP	84	288	2
NMTAP	84	288	7
NMSTR	85	0	3
NMSI_	85	0	3	96	288	0
NMSTR	85	0	4
NMSI_	85	0	4	96	288	7
EXHLD	86	192	1	192
EXHLD	86	192	6	192

T_REC_TAP	227
T_REC_BRK	2
T_REC_XTP	72
T_REC_BXX	14
T_REC_HLD	43
T_REC_XHO	3
T_REC_BHO	0
T_REC_BXH	1
T_REC_STR	43
T_REC_BST	0
T_REC_XST	0
T_REC_XBS	0
T_REC_TTP	13
T_REC_THO	0
T_REC_SLD	42
T_REC_BSL	1
T_REC_ALL	461
T_NUM_TAP	355
T_NUM_BRK	18
T_NUM_HLD	46
T_NUM_SLD	42
T_NUM_ALL	461
T_JUDGE_TAP	371
T_JUDGE_HLD	221
T_JUDGE_SLD	43
T_JUDGE_ALL	635
TTM_EACHPAIRS	135
TTM_SCR_TAP	177500
TTM_SCR_BRK	46800
TTM_SCR_HLD	46000
TTM_SCR_SLD	63000
TTM_SCR_ALL	333300
TTM_SCR_S	321600
TTM_SCR_SS	331500
TTM_RAT_ACV	10054

