VERSION	0.00.00	1.04.00
FES_MODE	0
BPM_DEF	190.000	190.000	190.000	190.000
MET_DEF	4	4
RESOLUTION	384
CLK_DEF	384
COMPATIBLE_CODE	MA2

BPM	0	0	190.000
MET	0	0	4	4
MET	9	0	4	4
MET	10	0	4	3
MET	10	288	4	4
MET	11	288	4	6
MET	13	96	4	4
MET	16	96	4	2
MET	16	288	4	4

NMTAP	2	0	2
NMTAP	2	0	6
NMTAP	2	48	5
NMTAP	2	72	4
NMTAP	2	120	2
NMSTR	2	144	3
NMSI_	2	144	3	96	48	7
NMSTR	2	240	0
NMSCR	2	240	0	96	48	3
NMTAP	2	336	0
EXTAP	2	336	7
NMTAP	3	48	5
NMTAP	3	72	4
NMTAP	3	96	5
NMSTR	3	144	6
NMSI_	3	144	6	96	48	2
NMSTR	3	240	0
NMSI_	3	240	0	96	48	4
NMTAP	3	240	6
NMTAP	3	336	0
NMTAP	3	336	4
BRHLD	4	0	5	360
NMTHO	4	360	0	168	C	0	M1
NMTTP	5	144	7	E	0	M1
NMTTP	5	168	6	E	0	M1
NMTTP	5	192	5	E	0	M1
NMTAP	5	288	0
NMHLD	6	0	1	72
NMHLD	6	0	7	72
NMTAP	6	144	2
NMHLD	6	192	3	72
NMHLD	6	192	5	72
NMTAP	6	336	4
NMTAP	6	336	6
NMHLD	7	0	4	72
NMHLD	7	0	6	72
NMTAP	7	144	4
NMTAP	7	192	3
NMTAP	7	192	5
NMTAP	7	216	3
NMTAP	7	216	5
NMTAP	7	288	2
NMTAP	7	288	4
NMTAP	7	312	2
NMTAP	7	312	4
NMTAP	8	0	1
NMTAP	8	32	3
NMTAP	8	64	2
NMTAP	8	96	6
NMTAP	8	128	4
NMTAP	8	160	5
NMTAP	8	192	1
NMTAP	8	224	3
NMTAP	8	256	2
NMTAP	8	288	5
NMTAP	8	312	4
NMTAP	8	336	5
NMTAP	8	360	4
BXHLD	9	0	5	96
NMTAP	9	96	4
NMTAP	9	120	6
NMTAP	9	144	4
NMTAP	9	168	6
BXHLD	9	192	4	96
NMTAP	9	288	7
NMTAP	9	312	4
NMTAP	9	336	7
NMTAP	9	360	4
BXHLD	10	0	7	96
NMTAP	10	96	5
NMTAP	10	120	6
NMTAP	10	144	5
NMTAP	10	168	6
NMTAP	10	192	5
NMTAP	10	216	6
NMTAP	10	240	5
BXHLD	10	288	4	96
NMTAP	10	288	6
NMTAP	11	0	5
NMTAP	11	24	3
NMTAP	11	48	5
NMTAP	11	72	3
BXHLD	11	96	4	96
NMTAP	11	192	3
NMTAP	11	216	5
NMTAP	11	240	3
NMTAP	11	264	5
BXTAP	11	288	4
NMSTR	12	0	3
BRSCL	12	0	3	96	48	0
NMTAP	12	24	4
NMTAP	12	48	3
NMTAP	12	72	4
NMSTR	12	96	3
BRSCR	12	96	3	96	48	6
NMSTR	12	192	3
BRSI_	12	192	3	96	48	7
NMTAP	12	288	3
EXTAP	13	0	0
EXTAP	13	0	6
BRHLD	13	96	2	96
BRTAP	13	96	4
NMTAP	13	192	3
NMTAP	13	216	1
NMTAP	13	240	3
NMTAP	13	264	1
BRHLD	13	288	2	96
NMTAP	14	0	1
NMTAP	14	24	3
NMTAP	14	48	1
NMTAP	14	72	3
BRHLD	14	96	2	96
NMTAP	14	192	3
NMTAP	14	216	1
NMTAP	14	240	3
NMTAP	14	264	1
NMTAP	14	288	4
NMTAP	14	312	2
NMTAP	14	336	4
NMTAP	14	360	2
NMHLD	15	0	4	96
NMSTR	15	96	3
NMSCL	15	96	3	96	48	1
NMTAP	15	192	5
NMSTR	15	240	6
NMSCR	15	240	6	96	48	0
NMTAP	15	336	4
NMTAP	16	0	4
NMTAP	16	48	3
NMTAP	16	96	2
EXHLD	16	144	1	48
EXHLD	16	144	5	48
EXTAP	16	216	1
EXTAP	16	216	5
NMSTR	16	288	0
NMSCL	16	288	0	96	48	6
NMTAP	17	0	2
NMSTR	17	48	3
NMSCL	17	48	3	96	48	1
NMHLD	17	144	5	96
NMSTR	17	240	0
NMSUR	17	240	0	96	96	4
BRTAP	17	336	4
CNSI_	18	48	4	0	72	6
CNSI_	18	120	6	0	72	1
NMTTP	18	288	2	A	0	M1
NMTTP	18	312	3	E	0	M1
NMTTP	18	336	4	E	0	M1
NMTTP	18	360	4	A	0	M1
NMTTP	19	192	5	A	0	M1
NMTTP	19	192	5	D	0	M1
NMTTP	19	288	2	A	0	M1
NMTTP	19	312	3	E	0	M1
NMTTP	19	336	4	E	0	M1
NMTTP	19	360	4	A	0	M1
NMTTP	20	192	5	A	0	M1
NMTTP	20	192	5	D	0	M1
NMTTP	20	288	2	A	0	M1
NMTTP	20	312	3	E	0	M1
NMTTP	20	336	4	E	0	M1
NMTTP	20	360	4	A	0	M1
NMTTP	21	192	4	B	0	M1
NMTTP	21	192	5	A	0	M1
NMTTP	21	192	6	D	0	M1
NMHLD	21	288	3	288
NMTTP	21	288	6	B	0	M1
NMTTP	21	288	7	E	0	M1
NMTAP	22	192	4
NMTTP	22	288	3	A	0	M1
NMTTP	22	312	4	E	0	M1
NMTTP	22	336	5	E	0	M1
NMTTP	22	360	5	A	0	M1
NMTTP	23	0	3	E	0	M1
NMTTP	23	24	3	B	0	M1
NMTTP	23	48	5	B	0	M1
NMTTP	23	72	6	E	0	M1
NMTTP	23	96	2	A	0	M1
NMTTP	23	120	2	B	0	M1
NMTTP	23	144	6	B	0	M1
NMTTP	23	168	6	A	0	M1
NMTTP	23	192	0	B	0	M1
NMTTP	23	192	0	C	0	M1
NMTTP	23	288	4	A	0	M1
NMTTP	23	312	4	E	0	M1
NMTTP	23	336	3	E	0	M1
NMTTP	23	360	2	A	0	M1
NMTTP	24	0	5	E	0	M1
NMTTP	24	24	4	B	0	M1
NMTTP	24	48	2	B	0	M1
NMTTP	24	72	2	E	0	M1
NMTTP	24	96	5	A	0	M1
NMTTP	24	120	5	B	0	M1
NMTTP	24	144	1	B	0	M1
NMTTP	24	168	1	A	0	M1
NMTTP	24	192	0	C	0	M1
NMTTP	24	192	7	B	0	M1
NMHLD	24	288	0	72
NMTAP	25	48	2
NMTAP	25	48	4
NMHLD	25	96	2	72
NMHLD	25	96	4	72
NMTAP	25	240	3
NMTAP	25	288	3
NMTAP	25	336	5
NMTAP	26	0	5
NMSTR	26	48	6
NMSCL	26	48	6	96	48	3
NMSTR	26	48	7
NMSUL	26	48	7	96	48	2
NMTAP	26	288	1
NMTAP	26	312	3
NMTAP	26	336	1
NMHLD	26	360	3	216
NMHLD	27	96	4	192
NMTAP	27	288	5
NMTAP	27	312	4
NMTAP	27	336	5
NMHLD	27	360	4	216
NMHLD	28	96	6	192
NMTAP	28	288	7
NMTAP	28	312	6
NMTAP	28	336	7
NMHLD	28	360	6	312
NMTAP	29	96	0
NMSTR	29	192	0
NMSCR	29	192	0	96	192	5
NMTAP	30	192	7
NMTAP	30	240	7
EXTAP	30	288	0
EXTAP	30	288	1
NMTAP	31	0	4
NMTAP	31	0	5
NMTAP	31	96	6
NMTAP	31	96	7
NMTAP	31	192	2
NMTAP	31	192	3
NMTAP	31	240	2
NMSTR	31	240	3
NMSI_	31	240	3	96	48	5
NMSTR	31	336	1
NMSI_	31	336	1	96	48	3
NMTAP	32	48	3
NMSTR	32	144	4
NMSI_	32	144	4	96	48	6
NMHLD	32	240	3	96
NMSTR	32	336	7
NMSI_	32	336	7	96	48	3
NMTAP	33	0	7
NMHLD	33	48	0	96
NMSTR	33	144	2
NMSI_	33	144	2	96	48	6
NMTAP	33	192	2
EXTAP	33	240	1
NMTAP	33	336	7
NMTAP	34	0	6
NMTAP	34	48	5
NMTAP	34	144	1
NMTAP	34	144	7
NMTAP	34	192	1
NMTAP	34	192	7
NMTAP	34	288	7
NMTAP	34	312	6
NMTAP	34	336	5
NMTAP	34	360	4
NMTAP	35	0	0
NMTAP	35	24	1
NMTAP	35	48	2
NMTAP	35	72	3
NMTAP	35	96	5
NMTAP	35	120	6
NMTAP	35	144	7
NMTAP	35	168	0
NMTAP	35	192	3
NMTAP	35	216	2
NMTAP	35	240	1
NMTAP	35	264	0
NMTAP	35	288	6
NMTAP	35	312	5
NMHLD	35	336	4	48
NMTAP	36	0	0
NMTAP	36	24	1
NMHLD	36	48	2	48
NMTAP	36	96	7
NMTAP	36	120	6
NMHLD	36	144	5	48
NMTAP	36	192	3
NMTAP	36	216	4
NMTAP	36	240	3
NMTAP	36	264	4
NMTAP	36	288	3
NMTAP	36	312	2
NMTAP	36	336	1
NMTAP	36	360	0
NMTAP	37	0	4
NMTAP	37	24	5
NMTAP	37	48	6
NMTAP	37	72	7
NMTAP	37	96	1
NMTAP	37	120	2
NMTAP	37	144	3
NMTAP	37	168	4
NMTAP	37	192	0
NMTAP	37	216	7
NMTAP	37	240	6
NMHLD	37	264	5	72
NMTAP	37	336	4
NMTAP	38	24	6
NMTAP	38	24	7
NMTAP	38	96	2
NMTAP	38	96	3
NMTAP	38	168	0
NMTAP	38	168	1
NMTAP	38	240	3
NMTAP	38	240	5
NMTAP	38	288	3
NMTAP	38	288	5
NMTAP	38	312	2
NMTAP	38	336	1
NMTAP	38	360	0
NMTAP	39	0	6
NMTAP	39	24	5
NMTAP	39	48	4
NMTAP	39	72	3
NMTAP	39	96	7
NMTAP	39	120	0
NMTAP	39	144	1
NMTAP	39	168	2
NMTAP	39	192	7
NMTAP	39	216	6
NMTAP	39	240	5
NMTAP	39	264	4
NMTAP	39	288	0
NMTAP	39	312	1
NMTAP	39	336	2
NMTAP	39	360	3
NMTAP	40	0	0
NMTAP	40	0	4
NMTAP	40	24	3
NMTAP	40	24	7
NMTAP	40	48	2
NMTAP	40	48	6
NMTAP	40	72	1
NMTAP	40	72	5
BRTAP	40	96	0
NMTAP	40	96	4
NMTAP	40	192	6
NMTAP	40	216	7
NMTAP	40	240	6
NMTAP	40	264	7
NMSTR	40	288	5
NMSCL	40	288	5	96	96	2
NMSTR	41	0	2
NMSCL	41	0	2	96	96	7
NMSTR	41	96	7
NMSLL	41	96	7	96	96	3
NMSTR	41	192	3
NMSCL	41	192	3	96	96	0
NMSTR	41	288	0
NMSCL	41	288	0	96	96	5
NMSTR	42	0	5
NMSCL	42	0	5	96	96	2
NMTAP	42	96	2
NMSTR	42	192	1
NMSF_	42	192	1	96	48	5
NMTAP	43	0	3
NMTAP	43	0	7
NMHLD	43	96	6	48
NMTAP	43	144	2
NMHLD	43	192	6	48
NMHLD	43	240	3	24
NMHLD	43	288	6	48
NMHLD	43	336	3	24
NMHLD	44	0	6	48
NMHLD	44	48	3	24
NMHLD	44	96	6	48
NMTAP	44	144	4
NMSTR	44	192	4
NMSI_	44	192	4	96	48	0
NMHLD	44	192	6	48
NMTAP	44	288	5
NMTAP	45	0	1
NMTAP	45	0	7
NMHLD	45	96	2	48
NMTAP	45	144	4
NMHLD	45	192	2	48
NMHLD	45	240	3	24
NMHLD	45	288	2	48
NMHLD	45	336	3	24
NMHLD	46	0	2	48
NMHLD	46	48	3	24
NMHLD	46	96	2	48
NMTAP	46	144	3
NMTAP	46	192	2
NMTAP	46	192	3
NMTAP	46	240	3
NMTAP	46	256	2
NMTAP	46	272	4
NMSTR	46	288	1
NMSCL	46	288	1	96	96	6
NMTAP	47	72	5
NMSTR	47	96	5
NMSCL	47	96	5	96	96	2
NMTAP	47	264	1
NMHLD	47	288	1	96
NMTAP	48	0	3
NMTAP	48	96	2
NMTAP	48	128	3
NMTAP	48	144	2
NMTAP	48	160	4
NMTAP	48	192	5
NMTAP	48	240	5
EXHLD	48	288	5	96
NMTAP	49	0	4
NMSTR	49	48	6
NMSLL	49	48	6	96	96	0
NMTAP	49	144	1
NMTAP	49	192	0
NMSTR	49	240	7
NMSI_	49	240	7	96	48	3
NMTAP	49	336	6
CNSI_	50	0	3	0	48	1
NMTAP	50	0	5
NMSTR	50	48	4
NMSLR	50	48	4	96	96	2
NMTAP	50	144	1
NMTAP	50	192	2
NMSTR	50	240	3
NMSI_	50	240	3	96	48	7
NMTAP	50	336	4
NMTAP	51	0	5
CNSI_	51	0	7	0	48	1
NMSTR	51	48	6
NMSLR	51	48	6	96	96	4
NMTAP	51	144	3
NMTAP	51	192	4
NMSTR	51	240	5
NMSI_	51	240	5	96	48	1
NMTAP	51	336	6
CNSI_	52	0	1	0	48	3
NMTAP	52	0	7
NMSTR	52	48	0
NMSI_	52	48	0	96	48	4
NMTAP	52	144	3
NMTAP	52	192	3
BXTAP	52	288	0
BXTAP	52	288	5
BXSTR	52	336	0
NMSI_	52	336	0	96	96	4
BXHLD	52	336	5	672
CNSI_	53	144	4	0	48	6
CNSI_	53	192	6	0	96	3
CNSI_	53	288	3	0	48	1
BRTAP	54	144	0
NMTAP	54	240	4
BXTAP	54	288	2
BXTAP	54	288	7
BXHLD	54	336	2	672
BXSTR	54	336	7
NMSI_	54	336	7	96	96	3
CNSI_	55	144	3	0	48	1
CNSI_	55	192	1	0	96	4
CNSI_	55	288	4	0	48	6
BRTAP	56	144	7
NMTAP	56	240	4
BXTAP	56	288	3
BXTAP	56	288	4
NMHLD	57	0	4	24
NMHLD	57	0	5	24
NMTAP	57	48	4
NMTAP	57	48	5
NMHLD	57	96	4	24
NMHLD	57	96	5	24
NMTAP	57	144	4
NMTAP	57	144	5
NMHLD	57	192	3	24
NMHLD	57	192	6	24
NMTAP	57	240	3
NMTAP	57	240	6
NMHLD	57	288	4	24
NMHLD	57	288	5	24
NMTAP	57	336	4
NMTAP	57	336	5
NMTAP	58	0	3
NMTAP	58	0	6
NMSTR	58	96	4
NMSI_	58	96	4	96	48	2
NMTAP	58	96	5
NMTAP	58	192	4
NMTAP	58	192	6
BXTAP	58	288	1
BXTAP	58	288	4
NMTAP	59	0	2
NMTAP	59	16	4
NMTAP	59	32	2
NMTAP	59	48	4
NMTAP	59	96	5
NMTAP	59	112	3
NMTAP	59	128	5
NMTAP	59	144	3
NMTAP	59	192	2
NMTAP	59	208	4
NMTAP	59	224	2
NMTAP	59	240	4
NMTAP	59	288	5
NMTAP	59	304	3
NMTAP	59	320	5
NMTAP	59	336	3
NMSTR	60	0	1
NMSCR	60	0	1	96	48	4
NMSTR	60	0	7
NMSCL	60	0	7	96	48	4
EXTAP	60	96	1
EXTAP	60	96	7
NMTTP	60	192	3	B	0	M1
NMTTP	60	192	3	E	0	M1
NMTTP	60	192	4	B	0	M1
NMTTP	60	192	5	B	0	M1
NMTTP	60	192	6	E	0	M1
BRTAP	60	288	0
BRTAP	60	288	7
NMTAP	61	0	0
NMTAP	61	24	7
NMTAP	61	48	0
NMHLD	61	72	7	48
NMHLD	61	120	1	48
NMTAP	61	168	0
NMTAP	61	192	1
NMTAP	61	240	2
NMTAP	61	240	6
NMTAP	61	288	7
NMTAP	61	312	1
NMTAP	61	336	7
NMTAP	61	360	1
NMTAP	62	0	0
NMTAP	62	24	1
NMTAP	62	48	0
NMTAP	62	72	1
NMTAP	62	96	2
NMTAP	62	120	1
NMTAP	62	144	3
NMTAP	62	168	1
NMTAP	62	192	4
NMTAP	62	216	1
NMTAP	62	240	5
NMTAP	62	264	1
BRTAP	62	288	6
NMTAP	63	0	5
NMTAP	63	24	3
NMTAP	63	48	5
NMHLD	63	72	3	48
NMHLD	63	120	6	48
NMTAP	63	168	7
NMTAP	63	192	6
NMTAP	63	240	1
NMTAP	63	240	5
NMTAP	63	288	0
NMTAP	63	312	6
NMTAP	63	336	0
NMTAP	63	360	6
NMTAP	64	0	7
NMTAP	64	24	6
NMTAP	64	48	7
NMTAP	64	72	6
NMTAP	64	96	5
NMTAP	64	120	6
NMTAP	64	144	4
NMTAP	64	168	6
NMTAP	64	192	3
NMTAP	64	216	6
NMTAP	64	240	2
NMTAP	64	264	6
BXSTR	64	288	1
NMSI_	64	288	1	96	48	4
NMTAP	65	0	5
NMSTR	65	48	5
NMSUR	65	48	5	96	168	0
NMTAP	65	144	3
EXHLD	65	192	3	192
NMHLD	66	0	7	96
NMTAP	66	96	5
NMTAP	66	192	4
NMTAP	66	192	6
NMTAP	66	240	4
NMTAP	66	240	6
NMTAP	66	336	2
NMTAP	66	336	4
NMHLD	67	0	2	96
NMTAP	67	0	4
NMTAP	67	96	1
NMTAP	67	144	3
NMTAP	67	192	5
EXHLD	67	240	7	144
NMTAP	67	336	5
NMTAP	68	0	5
NMTAP	68	48	5
NMTAP	68	96	4
NMHLD	68	96	6	96
NMTAP	68	144	4
NMTAP	68	192	4
NMTAP	68	240	4
NMTAP	68	288	3
NMHLD	68	288	5	96
NMTAP	68	336	3
NMTAP	69	0	3
NMTAP	69	48	3
NMTAP	69	96	3
NMTAP	69	96	4
NMTAP	69	144	2
NMTAP	69	144	5
NMTAP	69	192	1
NMTAP	69	192	6
NMTAP	69	240	0
NMTAP	69	264	7
NMTAP	69	288	0
NMTAP	69	312	7
NMTAP	69	336	0
NMTAP	69	360	7
NMTAP	70	0	1
NMTAP	70	24	7
NMTAP	70	48	0
NMTAP	70	72	7
NMTAP	70	96	0
NMTAP	70	120	6
NMSTR	70	144	0
NMSI_	70	144	0	96	48	5
NMTAP	70	168	7
NMTAP	70	192	1
NMTAP	70	216	7
BRTAP	70	240	0
NMHLD	71	288	0	96
NMHLD	71	288	6	96
NMTAP	72	96	1
NMTAP	72	96	5
NMSTR	72	144	1
BRSI_	72	144	1	96	48	6
NMSTR	72	144	5
BRSI_	72	144	5	96	48	2
BRTAP	72	240	1
BRTAP	72	240	5
NMTAP	72	336	0
NMTAP	72	360	5
NMTAP	73	0	1
NMTAP	73	24	4
NMTAP	73	48	2
NMTAP	73	72	3
NMTAP	73	96	0
NMTAP	73	120	7
NMTAP	73	144	0
NMTAP	73	168	7
NMTAP	73	192	1
NMTAP	73	216	4
NMTAP	73	240	2
NMTAP	73	264	3
NMTAP	73	288	0
NMTAP	73	312	6
NMTAP	73	336	0
NMTAP	73	360	6
NMTAP	74	0	2
NMTAP	74	24	4
NMTAP	74	48	3
NMTAP	74	72	5
NMTAP	74	96	1
NMTAP	74	120	7
NMTAP	74	144	1
NMTAP	74	168	7
NMTAP	74	192	2
NMTAP	74	216	6
BRTAP	74	240	4
NMTAP	74	336	5
NMTAP	74	360	5
NMTAP	75	0	3
NMTAP	75	24	2
NMTAP	75	48	1
NMTAP	75	72	0
NMTAP	75	96	4
NMTAP	75	96	7
NMTAP	75	120	5
NMTAP	75	144	6
NMTAP	75	168	7
NMTAP	75	192	0
NMTAP	75	192	4
NMTAP	75	216	3
NMTAP	75	240	2
NMTAP	75	264	1
NMTAP	75	288	0
NMTAP	75	288	7
NMTAP	75	312	6
NMTAP	75	336	5
NMTAP	75	360	4
NMTAP	76	0	2
NMSTR	76	0	3
NMSI_	76	0	3	96	48	7
NMTAP	76	24	1
NMSTR	76	48	0
NMSI_	76	48	0	96	48	4
NMTAP	76	96	3
NMTAP	76	144	0
BRTAP	76	240	3
BRTAP	76	240	5
EXTAP	76	336	1
NMTAP	76	360	0
NMTAP	77	0	2
NMTAP	77	24	7
NMTAP	77	48	3
NMTAP	77	72	6
NMTAP	77	96	4
NMTAP	77	120	5
NMTAP	77	144	4
NMTAP	77	168	5
NMTAP	77	192	2
NMTAP	77	216	6
NMTAP	77	240	1
NMTAP	77	264	5
NMTAP	77	288	0
NMTAP	77	312	4
NMTAP	77	336	0
NMTAP	77	360	4
NMTAP	78	0	1
NMTAP	78	24	3
NMTAP	78	48	1
NMTAP	78	72	3
NMTAP	78	96	2
NMTAP	78	120	2
NMTAP	78	144	4
NMTAP	78	168	4
NMTAP	78	192	3
NMTAP	78	216	3
NMHLD	78	240	5	96
EXTAP	78	336	1
NMTAP	78	348	2
NMTAP	78	360	3
NMTAP	78	372	4
EXTAP	79	0	1
NMTAP	79	12	2
NMTAP	79	24	3
NMTAP	79	36	4
EXTAP	79	48	1
NMTAP	79	60	2
NMTAP	79	72	3
NMTAP	79	84	4
EXTAP	79	96	0
NMTAP	79	108	1
NMTAP	79	120	2
NMTAP	79	132	3
EXTAP	79	144	0
NMTAP	79	156	1
NMTAP	79	168	2
NMTAP	79	180	3
EXTAP	79	192	0
NMTAP	79	204	1
NMTAP	79	216	2
NMTAP	79	228	3
BXSTR	79	240	4
NMSI_	79	240	4	96	48	0
NMSTR	79	336	6
NMSI_	79	336	6	96	48	3
NMTAP	80	48	6
NMTAP	80	48	7
NMSTR	80	144	1
NMSCR	80	144	1	96	80	7
NMTAP	80	240	1
NMHLD	80	240	4	96
NMTAP	80	336	0
NMTAP	80	352	1
NMTAP	80	368	2
BRSTR	81	0	3
NMSI_	81	0	3	96	48	7
NMTAP	81	96	4
CNSI_	81	144	7	0	48	1
CNSI_	81	192	1	0	48	4
NMTAP	81	192	6
NMSTR	81	240	6
NMSI_	81	240	6	96	48	0
NMSTR	81	336	1
NMSI_	81	336	1	96	48	5
NMSTR	81	336	6
NMSI_	81	336	6	96	48	3
NMTAP	82	48	1
NMTAP	82	48	6
NMTAP	82	144	1
NMTAP	82	144	4
NMTAP	82	240	5
NMTAP	82	288	0
NMTAP	82	336	0
NMTAP	82	348	1
NMTAP	82	360	2
NMTAP	82	372	3
NMTTP	83	0	1	E	0	M1
NMTTP	83	12	2	E	0	M1
NMTTP	83	24	3	E	0	M1
NMTTP	83	36	4	E	0	M1
NMTAP	83	96	6
NMTAP	83	144	6
NMTAP	83	156	5
NMTAP	83	168	4
NMTAP	83	180	3
NMTTP	83	192	6	E	0	M1
NMTTP	83	204	5	E	0	M1
NMTTP	83	216	4	E	0	M1
NMTTP	83	228	3	E	0	M1
EXTAP	83	288	0
EXTAP	83	288	1
NMTAP	83	336	2
NMTAP	83	360	7
NMTAP	84	0	2
NMTAP	84	24	7
NMTAP	84	48	3
NMTAP	84	72	6
NMTAP	84	96	4
NMTAP	84	120	5
NMTAP	84	144	3
NMTAP	84	168	6
NMTAP	84	192	3
NMTAP	84	216	6
BXHLD	84	240	4	96
NMTAP	84	336	6
NMTAP	84	360	6
NMTAP	85	0	4
NMTAP	85	24	4
NMTAP	85	48	5
NMTAP	85	72	5
NMTAP	85	96	2
NMTAP	85	120	2
NMTAP	85	144	3
NMTAP	85	168	3
NMTAP	85	192	1
NMTAP	85	216	1
NMTAP	85	240	7
NMTAP	85	264	7
NMTAP	85	288	0
NMTAP	85	312	6
NMTAP	85	336	1
NMTAP	85	360	5
NMTAP	86	0	2
NMTAP	86	24	4
NMTAP	86	48	3
NMTAP	86	72	5
NMTAP	86	96	2
NMTAP	86	120	6
NMTAP	86	144	1
NMTAP	86	168	7
NMTAP	86	192	0
BXHLD	86	240	1	96
BXTAP	86	240	7
EXTAP	86	336	6
NMTAP	86	348	5
NMTAP	86	360	4
NMTAP	86	372	3
EXTAP	87	0	6
NMTAP	87	12	5
NMTAP	87	24	4
NMTAP	87	36	3
EXTAP	87	48	6
NMTAP	87	60	5
NMTAP	87	72	4
NMTAP	87	84	3
EXTAP	87	96	7
NMTAP	87	108	6
NMTAP	87	120	5
NMTAP	87	132	4
EXTAP	87	144	7
NMTAP	87	156	6
NMTAP	87	168	5
NMTAP	87	180	4
EXTAP	87	192	7
NMTAP	87	204	6
NMTAP	87	216	5
NMTAP	87	228	4
BXSTR	87	240	3
NMSCL	87	240	3	96	48	0
NMTAP	87	336	6
NMSTR	88	0	6
NMSI_	88	0	6	96	48	3
NMTAP	88	96	6
NMTAP	88	96	7
NMSTR	88	144	0
NMSCL	88	144	0	96	48	5
BRTAP	88	240	0
BRHLD	88	240	4	528
NMTAP	89	192	5
NMTAP	90	0	5
NMTAP	90	96	7
BRTAP	90	192	0
BRTAP	90	192	6
BRHLD	90	240	1	528
BRTAP	90	240	5
NMTAP	91	0	3
NMTAP	91	192	3
NMTAP	92	0	3
BRTAP	92	96	2
BRTAP	92	96	4
BRTAP	92	144	1
BRTAP	92	144	5
BRTAP	92	192	0
BRTAP	92	192	6
BRTAP	92	240	0
BRHLD	92	240	6	96
NMTAP	92	336	4
NMSTR	93	0	4
NMSI_	93	0	4	96	48	2
NMTAP	93	96	4
NMSTR	93	96	6
NMSI_	93	96	6	96	48	4
NMTAP	93	192	4
NMSTR	93	192	6
NMSI_	93	192	6	96	48	2
NMTAP	93	288	0
NMTAP	93	288	6
NMSTR	94	0	1
NMSI_	94	0	1	96	48	4
NMSTR	94	0	3
NMSI_	94	0	3	96	48	7
NMTAP	94	96	1
NMTAP	94	96	3
BXTAP	94	192	0
BXTAP	94	192	6
BXHLD	94	240	0	96
BXTAP	94	240	6
NMTAP	94	336	3
NMSTR	95	0	3
NMSI_	95	0	3	96	48	5
NMSTR	95	96	1
NMSI_	95	96	1	96	48	3
NMTAP	95	96	3
NMSTR	95	192	1
NMSI_	95	192	1	96	48	5
NMTAP	95	192	3
NMTAP	95	288	1
NMTAP	95	288	7
NMSTR	96	0	4
NMSI_	96	0	4	96	48	0
NMSTR	96	0	6
NMSI_	96	0	6	96	48	3
NMTAP	96	96	4
NMTAP	96	96	6
BXTAP	96	192	1
BXTAP	96	192	7
BXHLD	96	240	1	96
BXTAP	96	240	7
NMTAP	96	336	7
NMTAP	96	360	7
NMTAP	97	0	2
NMTAP	97	24	2
NMTAP	97	48	3
NMTAP	97	72	3
NMTAP	97	96	4
NMTAP	97	120	4
NMTAP	97	144	6
NMTAP	97	168	6
NMTAP	97	192	7
NMTAP	97	216	7
BXTAP	97	240	0
BXHLD	97	240	6	96
NMTAP	97	336	0
NMTAP	97	360	0
NMTAP	98	0	5
NMTAP	98	24	5
NMTAP	98	48	4
NMTAP	98	72	4
NMTAP	98	96	3
NMTAP	98	120	3
NMTAP	98	144	1
NMTAP	98	168	1
NMTAP	98	192	0
NMTAP	98	216	0
BXHLD	98	240	1	96
BXTAP	98	240	7
EXTAP	98	336	6
NMTAP	98	348	5
NMTAP	98	360	4
NMTAP	98	372	3
EXTAP	99	0	6
NMTAP	99	12	5
NMTAP	99	24	4
NMTAP	99	36	3
EXTAP	99	48	6
NMTAP	99	60	5
NMTAP	99	72	4
NMTAP	99	84	3
EXTAP	99	96	7
NMTAP	99	108	6
NMTAP	99	120	5
NMTAP	99	132	4
EXTAP	99	144	7
NMTAP	99	156	6
NMTAP	99	168	5
NMTAP	99	180	4
EXTAP	99	192	7
NMTAP	99	204	6
NMTAP	99	216	5
NMTAP	99	228	4
EXTAP	99	240	7
NMTAP	99	252	0
NMTAP	99	264	1
NMTAP	99	276	2
EXTAP	99	288	7
NMTAP	99	300	0
NMTAP	99	312	1
NMTAP	99	324	2
EXTAP	99	336	7
NMTAP	99	348	0
NMTAP	99	360	1
NMTAP	99	372	2
EXTAP	100	0	7
NMTAP	100	12	6
NMTAP	100	24	5
NMTAP	100	36	4
EXTAP	100	48	7
NMTAP	100	60	6
NMTAP	100	72	5
NMTAP	100	84	4
BXTAP	100	96	3
NMTAP	100	192	1
NMTAP	100	192	5
NMTAP	100	240	1
NMTAP	100	240	5
NMTAP	100	288	2
NMTAP	100	312	4
NMTAP	100	336	2
NMTAP	100	360	4
NMTAP	101	0	3
NMTAP	101	24	4
NMTAP	101	48	3
NMTAP	101	72	4
NMTAP	101	96	3
NMTAP	101	112	2
NMTAP	101	128	1
NMTAP	101	144	0
NMTAP	101	144	7
NMTAP	101	160	6
NMTAP	101	176	5
NMTAP	101	192	2
NMTAP	101	192	4
NMTAP	101	208	1
NMTAP	101	224	0
NMTAP	101	240	6
NMTAP	101	240	7
NMTAP	101	256	5
NMTAP	101	272	4
NMTAP	101	288	0
NMTAP	101	288	3
NMTAP	101	300	7
NMTAP	101	312	6
NMTAP	101	324	5
NMTAP	101	336	0
NMTAP	101	336	4
NMTAP	101	348	3
NMTAP	101	348	7
NMTAP	101	360	2
NMTAP	101	360	6
NMTAP	101	372	1
NMTAP	101	372	5
BRTAP	102	0	0
BRTAP	102	0	4
BRTAP	102	96	1
BRTAP	102	96	7
BRTAP	102	168	3
BRTAP	102	168	5
NMTHO	102	240	0	144	C	0	M1
BRHLD	102	240	6	1296
NMTTP	103	0	0	B	0	M1
NMTTP	103	0	7	B	0	M1
NMTTP	103	16	0	E	0	M1
NMTTP	103	32	0	A	0	M1
NMTTP	103	32	0	D	1	M1
NMTTP	103	32	7	A	0	M1
NMTAP	104	240	2
NMTAP	104	264	1
NMHLD	104	288	0	480
BXTAP	106	96	7
NMTAP	106	120	2
NMTAP	106	144	4
BXSTR	106	168	0
BRSF_	106	168	0	96	24	4
NMTAP	106	192	5
NMTAP	106	216	3
NMTTP	106	240	0	A	1	M1

T_REC_TAP	675
T_REC_BRK	31
T_REC_XTP	36
T_REC_BXX	20
T_REC_HLD	62
T_REC_XHO	5
T_REC_BHO	8
T_REC_BXH	13
T_REC_STR	63
T_REC_BST	1
T_REC_XST	0
T_REC_XBS	6
T_REC_TTP	72
T_REC_THO	2
T_REC_SLD	64
T_REC_BSL	6
T_REC_ALL	1064
T_NUM_TAP	846
T_NUM_BRK	85
T_NUM_HLD	69
T_NUM_SLD	64
T_NUM_ALL	1064
T_JUDGE_TAP	904
T_JUDGE_HLD	252
T_JUDGE_SLD	70
T_JUDGE_ALL	1226
TTM_EACHPAIRS	125
TTM_SCR_TAP	423000
TTM_SCR_BRK	221000
TTM_SCR_HLD	69000
TTM_SCR_SLD	96000
TTM_SCR_ALL	809000
TTM_SCR_S	776500
TTM_SCR_SS	800500
TTM_RAT_ACV	10106

